13 часов тайные солдаты бенгази в хорошем качестве скачать торрент


Скачать торрент 13 часов: Тайные солдаты Бенгази / 13 Hours: The Secret Soldiers of Benghazi (2016) WEB-DLRip | D

13 часов: Тайные солдаты Бенгази / 13 Hours: The Secret Soldiers of Benghazi

Страна: США Производство: 3 Arts Entertainment, Dune Films, Latina Pictures, Paramount PicturesГод выпуска: 2016Жанр: боевик, триллер, драма, военныйПродолжительность: 02:24:49

Режиссер: Майкл БэйАвторы сценария: Чак Хоган, Митчелл Зукофф

В ролях: Джон Красински, Джеймс Бэдж Дэйл, Пабло Шрайбер, Дэвид Денман, Доминик Фумуса, Макс Мартини, Алексия Бальер, Дэвид Костабайл

Описание: 2012 год. Бенгази, Ливия. Группа террористов решает «отпраздновать» события 11 сентября нападением на американское посольство. Шестерке бойцов из элитного спецотряда приказано вмешаться только в крайнем случае. Но когда под угрозой десятки жизней, долг и совесть берут верх над субординацией. И мужественные солдаты без колебаний вступают в бой с яростной группировкой боевиков. Бой, который для всех шестерых, скорее всего, станет последним...

Перевод: Профессиональный (полное дублирование) | звук с CAMRipСубтитры: нет

Качество: WEB-DLRipФормат: АVIВидео кодек: XviDАудио кодек: АС3Видео: 720x304 (2.35:1), 23.976 fps, XviD ~2 040 kbps avg, 0.389 bit/pixelАудио: 48.0 kHz, AC3 Dolby Digital, 2/0 (L,R) ch, ~128 kbps

Бюджет: $50 000 000Дата премьеры (мир): 12 января 2016Дата премьеры (РФ): 28 января 2016, «Централ Партнершип»релиз на DVD, Blu-Ray: 12 июля 2016, «Новый Диск»

ПРИМЕЧАНИЕ: ПРИСУТСТВУЕТ РЕКЛАМА!

Media Info

General Format : AVI Format/Info : Audio Video Interleave Overall bit rate : 2 178 Kbps Movie name : 13.ChaSov.2016.Dt.WEB-DLRip.2100MB Writing application : VirtualDubMod 1.5.10.3 | (build 2550/release) Writing library : VirtualDubMod build 2550/release Copyright : MoreFilms

Video ID : 0 Format : MPEG-4 Visual Format profile : Advanced [email protected] Format settings, BVOP : 2 Format settings, QPel : No Format settings, GMC : No warppoints Format settings, Matrix : Default (MPEG) Codec ID : XVID Codec ID/Hint : XviD Bit rate : 2 040 Kbps Width : 720 pixels Height : 304 pixels Display aspect ratio : 2.35:1 Frame rate : 23.976 fps Color space : YUV Chroma subsampling : 4:2:0 Bit depth : 8 bits Scan type : Progressive Compression mode : Lossy Bits/(Pixel*Frame) : 0.389 Stream size : 26.5 MiB (94%) Writing library : XviD 1.2.1 (UTC 2008-12-04)

Audio ID : 1 Format : AC-3 Format/Info : Audio Coding 3 Mode extension : CM (complete main) Format settings, Endianness : Big Codec ID : 2000 Bit rate mode : Constant Bit rate : 128 Kbps Channel(s) : 2 channels Channel positions : Front: L R Sampling rate : 48.0 KHz Compression mode : Lossy Stream size : 1.66 MiB (6%) Alignment : Split accross interleaves Interleave, preload duration : 500 ms

krutor.org

Тайные солдаты Бенгази (2016) скачать торрент в хорошем качестве hd

Название: 13 часов: Тайные солдаты Бенгази 

Оригинальное название: 13 Hours: The Secret Soldiers of Benghazi 

Год выпуска: 2016 

Жанр: Боевик, триллер, драма, военный 

Режиссер: Майкл Бэй 

В ролях: Джон Красински, Джеймс Бэдж Дэйл, Пабло Шрайбер, Дэвид Денман, Доминик Фумуса, Макс Мартини, Алексия Бальер, Дэвид Костабайл, Пейман Моаади, Мэтт Летчер 

Неспокойные регионы планеты всегда существовали и охрана жизни высокопоставленных людей и чиновников, является весомым аргументом для выдвижения специальной группы реагирования. Так случилось и по сценарию данной киноленты. В необычайно напряженные времена на территории Ливии подвергся нападению один из главных корпусов дипломатической миссии США и на помощь пришли военные, которые не имели место на существование. 

Сюжет киноленты 13 часов: Тайные солдаты Бенгази покажет насколько важно создавать скрытые резервы на основе военных ушедших в отставку, но по-прежнему готовые рисковать своей жизнью ради спасения мирного населения. Данная история основана на реальных событиях, которые разворачивались на территории Ливии в 2011 году и полноценно смогли показать состояние духа и возможностей каждого из призванные военных, готовых начать полномасштабную военную операцию. Отказ официальных властей привел к несанкционированному выступлению военных, которых якобы никогда и не существовало. Под собственным страхом и риском быть убитым, они выдвинулись на спасение граждан, находящихся в дипломатическом корпусе США на территории Ливии. И тут развернулась война, которая и показана в данной киноленте. 

Огромные возможности для уточнения и самостоятельного понимания как может быть опасна операция по спасению жизни простых граждан. Особенностью данной истории будет прекрасно проиллюстрированные события, которые смогут затянуть каждого из зрителей в самую гущу событий и показать существующие угрозы и особенности страха перед неизведанным. При этом можно отметить великолепие и мастерство режиссёрской группы, которая смогла показать необходимый ракурс событий. 

Собранные спецэффекты и большое количество ярких графических решений, развернут новый взгляд на такой жанр как боевики и покажет самые невероятные трюки, в исполнении лучших каскадёров. За это кинолента и получает столь высокие 10 из 10 возможных и становится прекрасной историей, снятой на действиях, имевших место в реальной жизни.

Выпущено: США, 3 Arts Entertainment, Dune Films, Latina Pictures 

Продолжительность: 02:24:29 

Перевод: Дублированный | Line

ПРИМЕЧАНИЕ: Релиз без рекламы

Качество: BDRip (1080p) 

Видео: MPEG-4 AVC, 9300 Кбит/с, 1920x800 

Аудио: Русский (AC3, 2 ch, 384 Кбит/с), английский (AC3, 6 ch, 640 Кбит/с) 

Субтитры: Русские форсированные, английские

Поиск торрент раздач, пожалуйста подождите!

Информация о торрент файле

Скачать торрент Торрент: Зарегистрирован Статус: v Проверено Просмотров: 585 Категория: боевики Общий размер: 10.64 GB

Поделитесь ссылкой на наш сайт с друзьями в соц.сетях ↓

mega-torrent.co

Тайные солдаты Бенгази (2016) скачать торрент в хорошем качестве бесплатно

Описание фильма "13 часов: Тайные солдаты Бенгази"

Драматический фильм «13 часов: Тайные солдаты Бенгази» является работой режиссера Майкла Бэя. В основе киноленты, одноименная книга писателя Митчелла Зукоффа.

В Азии и Северной Африке существует несколько стран, в которых активно процветает терроризм. Одной из самых опасных государств подобного рода в 2012 году, являлась Ливия. Здесь угроза международного терроризма на критическом уровне. Поэтому в этих местах американские войска работали наиболее интенсивно, и на охрану членов посольства и ЦРУ, назначались самые опытные военные, способные без промедления прийти на помощь, в случае необходимости.

Главные герои художественного фильма «13 часов: Тайные солдаты Бенгази» находятся в числе этих солдат. В Бенгази прибывают Шесть бывших элитных военных, которым дано конкретное задание - обеспечить защиту американского посольства. Здание может подвергнуться атаке в любой момент, ведь с террористами за одно и мирное население, которое выступает против американцев.

В первые дни, обстановка оказывается не так напряженной - не наблюдается никакой активности, что похоже на затишье перед бурей. В действительности, так и происходит: не проявляя агрессию целую неделю, террористы готовились к очередному нападению. На тот момент, в американском посольстве находится примерно сорок человек. Командование решает не задействовать главных героев, считая, что они просто не смогут повлиять на ситуацию и спасти кого либо. Но мужчины не могут смотреть на происходящее, и решают отправиться на защиту посольства, осознавая, что эта операция может стать последней для них, ведь против них несколько сотен боевиков.

Следует отметить актерский состав боевика 13 часов: Тайные солдаты Бенгази, в котором вы увидите Пабло Шрайбера, Джона Красински и других.

Скачать 13 часов: Тайные солдаты Бенгази через торрент

Сиды Качество Перевод Размер Видео Аудио
Скачать Загрузка... BDRemux Дублированный | Лицензия 36,25 Гб 1920x1080, 26.6 Mbit/s, 23.976 fps 48 kHz, TrueHD, 5.1, 4641 kbps | Оригинал |
Скачать Загрузка... BDRemux Дублированный | Лицензия 35,56 Гб 1920x1080, 26.6 Mbit/s, 23.976 fps 48 kHz, TrueHD, 5.1, 4641 kbps | Оригинал |
Скачать Загрузка... BDRip1080 дублированный - 12,40 Гб X264/MPEG4-AVC | 1920x800 (2.40:1) | ~10170 kbps | 23,976 fps AC3 | 48 KHz | 5.1 (Front: L С R Side: L R) + LFE | ~640 kbps
Скачать Загрузка... BDRip1080 Дубляж [Blu-ray CEE] 8,53 Гб AVC, 1280x534 (2.40:1), 6597 kbps, 23,976 fps, 0,403 bpp AC3 / 5.1 / 48 kHz / 640 kbps / 16 bit
Скачать Загрузка... WEB-DL Авторский (одноголосый закадровый) 2,21 Гб XviD, 1649 kbps, 720x304 Русский / Английский: AC3, 192 kbps (2 ch)
Скачать Загрузка... WEB-DL Дубляж [Blu-ray CEE] 3,13 Гб AVC, 1008x420 (2,40:1), 2243 kbps, 23,976 fps, 0.221 bpp AC3 / 5.1 / 48 kHz / 448 kbps / 16 bit
Скачать Загрузка... DVD полное дублирование 4,70 Гб PAL 16:9 ([email protected]/* */) VBR 3605 Kbps, 25.000 fps Dolby AC3, 6 ch, 48.0 KHz, 448 Kbps
Скачать Загрузка... DVD Дублированный [Лицензия] 7,90 Гб PAL 16:9 (720x576(0.535)) MPEG Video, 25,000 кадр/сек, 5547 Кбит/сек Ukrainian (Dolby AC3, 6 ch) 448 Кбит/сек, 48,0 КГц

У нас вы можете легко скачать 13 часов: Тайные солдаты Бенгази через торрент бесплатно в хорошем качестве, оставляйте комментарии и делитесь впечатлениями!

kino.kak.to

Тайные солдаты Бенгази (2016) скачать торрент в хорошем качестве hd

Русское название: 13 часов: Тайные солдаты Бенгази 

Оригинальное название: 13 Hours: The Secret Soldiers of Benghazi 

Год выпуска: 2016 

Жанр: боевик, триллер, драма, военный 

Выпущено: США 

Режиссер: Майкл Бэй 

В ролях: Джон Красински , Джеймс Бэдж Дэйл , Пабло Шрайбер , Дэвид Денман , Доминик Фумуса , Макс Мартини , Алексия Бальер , Дэвид Костабайл , Пейман Моаади , Мэтт Летчер , Тоби Стивенс , Деметриус Гросс 

Перевод: Дублированный - [Лицензия] 

Неспокойные регионы планеты всегда существовали и охрана жизни высокопоставленных людей и чиновников, является весомым аргументом для выдвижения специальной группы реагирования. Так случилось и по сценарию данной киноленты. В необычайно напряженные времена на территории Ливии подвергся нападению один из главных корпусов дипломатической миссии США и на помощь пришли военные, которые не имели место на существование. 

Сюжет киноленты 13 часов: Тайные солдаты Бенгази покажет насколько важно создавать скрытые резервы на основе военных ушедших в отставку, но по-прежнему готовые рисковать своей жизнью ради спасения мирного населения. Данная история основана на реальных событиях, которые разворачивались на территории Ливии в 2011 году и полноценно смогли показать состояние духа и возможностей каждого из призванные военных, готовых начать полномасштабную военную операцию. Отказ официальных властей привел к несанкционированному выступлению военных, которых якобы никогда и не существовало. Под собственным страхом и риском быть убитым, они выдвинулись на спасение граждан, находящихся в дипломатическом корпусе США на территории Ливии. И тут развернулась война, которая и показана в данной киноленте. 

Огромные возможности для уточнения и самостоятельного понимания как может быть опасна операция по спасению жизни простых граждан. Особенностью данной истории будет прекрасно проиллюстрированные события, которые смогут затянуть каждого из зрителей в самую гущу событий и показать существующие угрозы и особенности страха перед неизведанным. При этом можно отметить великолепие и мастерство режиссёрской группы, которая смогла показать необходимый ракурс событий. 

Собранные спецэффекты и большое количество ярких графических решений, развернут новый взгляд на такой жанр как боевики и покажет самые невероятные трюки, в исполнении лучших каскадёров. За это кинолента и получает столь высокие 10 из 10 возможных и становится прекрасной историей, снятой на действиях, имевших место в реальной жизни.

Качество: BDRip-AVC

Формат: AVC (библиотека кодирования x.264) 

Контейнер (Расширение): MKV 

Видео: 1024x426, 1985 Кбит/сек, 23,976 кадр/сек, 0,190 Бит/[Пиксели*Кадры] 

Аудио №1: русский / AC3 / 5.1 / 48 kHz / 448 kbps / |Дублированный| 

Аудио №2: английский / AC3 / 5.1 / 48 kHz / 448 kbps / 

Субтитры: русские (Forced), русские, английские 

Навигация по главам(Чаптеры): есть 

Продолжительность: 02:24:29

Поиск торрент раздач, пожалуйста подождите!

Информация о торрент файле

Скачать торрент Торрент: Зарегистрирован Статус: v Проверено Просмотров: 627 Категория: боевики Общий размер: 2.91 GB

Поделитесь ссылкой на наш сайт с друзьями в соц.сетях ↓

mega-torrent.co

Тайные солдаты Бенгази (2016) скачать торрент в хорошем качестве hd

Название: 13 часов: Тайные солдаты Бенгази 

Оригинальное название: 13 Hours: The Secret Soldiers of Benghazi 

Год выхода: 2016 

Жанр: Боевик, триллер, драма, военный 

Режиссер: Майкл Бэй 

В ролях: Джон Красински, Джеймс Бэдж Дэйл, Пабло Шрайбер, Дэвид Денман, Доминик Фумуса, Макс Мартини, Алексия Бальер, Дэвид Костабайл, Пейман Моаади, Мэтт Летчер

Неспокойные регионы планеты всегда существовали и охрана жизни высокопоставленных людей и чиновников, является весомым аргументом для выдвижения специальной группы реагирования. Так случилось и по сценарию данной киноленты. В необычайно напряженные времена на территории Ливии подвергся нападению один из главных корпусов дипломатической миссии США и на помощь пришли военные, которые не имели место на существование. 

Сюжет киноленты 13 часов: Тайные солдаты Бенгази покажет насколько важно создавать скрытые резервы на основе военных ушедших в отставку, но по-прежнему готовые рисковать своей жизнью ради спасения мирного населения. Данная история основана на реальных событиях, которые разворачивались на территории Ливии в 2011 году и полноценно смогли показать состояние духа и возможностей каждого из призванные военных, готовых начать полномасштабную военную операцию. Отказ официальных властей привел к несанкционированному выступлению военных, которых якобы никогда и не существовало. Под собственным страхом и риском быть убитым, они выдвинулись на спасение граждан, находящихся в дипломатическом корпусе США на территории Ливии. И тут развернулась война, которая и показана в данной киноленте. 

Огромные возможности для уточнения и самостоятельного понимания как может быть опасна операция по спасению жизни простых граждан. Особенностью данной истории будет прекрасно проиллюстрированные события, которые смогут затянуть каждого из зрителей в самую гущу событий и показать существующие угрозы и особенности страха перед неизведанным. При этом можно отметить великолепие и мастерство режиссёрской группы, которая смогла показать необходимый ракурс событий. 

Собранные спецэффекты и большое количество ярких графических решений, развернут новый взгляд на такой жанр как боевики и покажет самые невероятные трюки, в исполнении лучших каскадёров. За это кинолента и получает столь высокие 10 из 10 возможных и становится прекрасной историей, снятой на действиях, имевших место в реальной жизни.

Выпущено: США / 3 Arts Entertainment, Dune Films, Latina Pictures, Paramount Pictures 

Продолжительность:02:24:49 

Перевод: Дублированный [Чистый звук - Line] 

Примечание:Релиз без рекламы. 

Формат: MKV 

Качество: BDRip 720p 

Видео: MPEG-4 AVC, 7248 kb/s, 1280x534 

Аудио: Russian: AC3, 384 kb/s (2 ch) / English: AC3, 640 kb/s (6 ch) 

Субтитры: Russian (forced), English 

Поиск торрент раздач, пожалуйста подождите!

Информация о торрент файле

Скачать торрент Торрент: Зарегистрирован Статус: v Проверено Просмотров: 631 Категория: боевики Общий размер: 8.51 GB

Поделитесь ссылкой на наш сайт с друзьями в соц.сетях ↓

mega-torrent.co

Тайные солдаты Бенгази через торрент в хорошем качестве бесплатно 720p

GeneralUnique ID 13.Chasov.Taynyie.Soldaty.Bengazi.2016.BDRip.720p.mkvFormat : MatroskaFormat version : Version 4 / Version 2File size : 7.95 GiBDuration : 2 h 24 minOverall bit rate : 7 875 kb/sMovie name : 13 Hours: The Secret Soldiers of Benghazi (2016)Encoded date : UTC 2016-06-09 06:08:50Writing application : mkvmerge v5.9.0 ('On The Loose') built on Dec 15 2012 16:39:58Writing library : libebml v1.3.0 + libmatroska v1.4.0

VideoID : 1Format : AVCFormat/Info : Advanced Video CodecFormat profile : [email protected] settings, CABAC : YesFormat settings, ReFrames : 9 framesCodec ID : V_MPEG4/ISO/AVCDuration : 2 h 24 minBit rate : 6 597 kb/sWidth : 1 280 pixelsHeight : 534 pixelsDisplay aspect ratio : 2.40:1Frame rate mode : ConstantFrame rate : 23.976 (24000/1001) FPSColor space : YUVChroma subsampling : 4:2:0Bit depth : 8 bitsScan type : ProgressiveBits/(Pixel*Frame) : 0.403Stream size : 6.50 GiB (82%)Title : potroksWriting library : x264 core 148 r2694M 3b70645Encoding settings : cabac=1 / ref=9 / deblock=1:-2:-2 / analyse=0x3:0x133 / me=umh / subme=11 / psy=1 / psy_rd=1.00:0.10 / mixed_ref=1 / me_range=48 / chroma_me=1 / trellis=2 / 8x8dct=1 / cqm=0 / deadzone=21,11 / fast_pskip=0 / chroma_qp_offset=-3 / threads=9 / lookahead_threads=2 / sliced_threads=0 / nr=0 / decimate=1 / interlaced=0 / bluray_compat=0 / constrained_intra=0 / bframes=10 / b_pyramid=2 / b_adapt=2 / b_bias=0 / direct=3 / weightb=1 / open_gop=0 / weightp=2 / keyint=240 / keyint_min=2 / scenecut=40 / intra_refresh=0 / rc_lookahead=100 / rc=2pass / mbtree=0 / bitrate=6597 / ratetol=1.0 / qcomp=0.70 / qpmin=0 / qpmax=69 / qpstep=4 / cplxblur=20.0 / qblur=0.5 / vbv_maxrate=50000 / vbv_bufsize=60000 / nal_hrd=none / filler=0 / ip_ratio=1.40 / pb_ratio=1.30 / aq=1:0.80Language : EnglishDefault : YesForced : No

Audio #1ID : 2Format : AC-3Format/Info : Audio Coding 3Mode extension : CM (complete main)Format settings, Endianness : BigCodec ID : A_AC3Duration : 2 h 24 minBit rate mode : ConstantBit rate : 640 kb/sChannel(s) : 6 channelsChannel positions : Front: L C R, Side: L R, LFESampling rate : 48.0 kHzFrame rate : 31.250 FPS (1536 spf)Compression mode : LossyStream size : 661 MiB (8%)Title : Dub | DD 5.1 @ 640 kbps - Blu-Ray CEELanguage : RussianDefault : YesForced : No

Audio #2ID : 3Format : AC-3Format/Info : Audio Coding 3Mode extension : CM (complete main)Format settings, Endianness : BigCodec ID : A_AC3Duration : 2 h 24 minBit rate mode : ConstantBit rate : 640 kb/sChannel(s) : 6 channelsChannel positions : Front: L C R, Side: L R, LFESampling rate : 48.0 kHzFrame rate : 31.250 FPS (1536 spf)Compression mode : LossyStream size : 661 MiB (8%)Title : Original | DD 5.1 @ 640 kbpsLanguage : EnglishDefault : NoForced : No

Text #1ID : 4Format : UTF-8Codec ID : S_TEXT/UTF8Codec ID/Info : UTF-8 Plain TextTitle : ForcedLanguage : RussianDefault : YesForced : No

Text #2ID : 5Format : UTF-8Codec ID : S_TEXT/UTF8Codec ID/Info : UTF-8 Plain TextTitle : Blu-rayLanguage : RussianDefault : NoForced : No

Text #3ID : 6Format : UTF-8Codec ID : S_TEXT/UTF8Codec ID/Info : UTF-8 Plain TextTitle : Forced [potroks]Language : UkrainianDefault : NoForced : No

Text #4ID : 7Format : UTF-8Codec ID : S_TEXT/UTF8Codec ID/Info : UTF-8 Plain TextTitle : Blu-rayLanguage : UkrainianDefault : NoForced : No

Text #5ID : 8Format : UTF-8Codec ID : S_TEXT/UTF8Codec ID/Info : UTF-8 Plain TextTitle : FullLanguage : EnglishDefault : NoForced : No

Text #6ID : 9Format : UTF-8Codec ID : S_TEXT/UTF8Codec ID/Info : UTF-8 Plain TextTitle : SDHLanguage : EnglishDefault : NoForced : No

Text #7ID : 10Format : UTF-8Codec ID : S_TEXT/UTF8Codec ID/Info : UTF-8 Plain TextTitle : SDH-ColoredLanguage : EnglishDefault : NoForced : No

Menu00:00:00.000 : en:Chapter 0100:04:47.662 : en:Chapter 0200:09:01.541 : en:Chapter 0300:15:31.555 : en:Chapter 0400:21:12.229 : en:Chapter 0500:26:48.773 : en:Chapter 0600:31:22.755 : en:Chapter 0700:34:20.058 : en:Chapter 0800:39:36.123 : en:Chapter 0900:47:12.871 : en:Chapter 1000:53:59.027 : en:Chapter 1101:02:27.744 : en:Chapter 1201:10:03.324 : en:Chapter 1301:23:02.477 : en:Chapter 1401:27:11.100 : en:Chapter 1501:34:50.685 : en:Chapter 1601:42:36.358 : en:Chapter 1701:48:08.148 : en:Chapter 1801:53:47.278 : en:Chapter 1902:00:22.882 : en:Chapter 2002:07:19.465 : en:Chapter 2102:18:25.422 : en:Chapter 22

piratbit.ru


Смотрите также