5 минут тишины 2 сезон скачать торрент


Пять минут тишины (сериал, 2016) скачать торрент -

hotkit.ru

Коротко о сериале "Пять минут тишины" - Бойцы поисково-спасательного отряда 42-21 известны среди коллег не только тем, что они профессионалы высокого класса, а еще и тем, что каждый их выход это своего рода уникальная операция. О них ходят легенды. Их спасательные операции превращаются в байки, которые любят рассказывать у костра новичкам. Дело в том, что в каждой операции по спасению наши герои умудряются найти нестандартный выход из ситуации, порой граничащий с безумием или с анекдотом. Рутину подвигов отряда 42-21 нарушает прибытие молодого специалиста Александра Грека.

Добавлена 10 серия из 10.

Пять минут тишины

Сериал выпущен: 2016
Страна (кинокомпания): Россия, ПРИОР Продакшн при участии Студия Грин Фильм
Режиссер: Алексей Праздников
Сценарий сериала: Евгений Куратов, Вадим Фоминых
Продюсер сериала: Родион Павлючик, Павел Бабин, Игорь Марин
Оператор: Александр Бурцев
Композитор: Иван Бурляев, Дмитрий Носков, Константин Куприянов
Художники:
Монтаж:
Жанр сериала: приключения, детектив
Премьера (мир):
премьера (Pоссия): 20 февраля 2017
продолжительность 52 мин
В главных ролях:
Игорь Лифанов
Анна Пескова
Роман Курцын
Анастасия Стежко
Константин Воробьёв
Артур Ваха
Олег Андреев
Виталий Такс
Неля Попова
и другие ...

Трейлер фильма:

 

Сериал Пять минут тишины скачать торрент - новинка кино 2016

Скачать файлы .torrent Пять минут тишины (сериал)

на сайте Вы можете получить ссылку на торрент файлы или скачать сами торрент файлы, в которых находится информация о местонахождении фильмов, сериалов у пользователей.

В сериале "Пять минут тишины" - бойцы поисково-спасательного отряда в каждой ситуации находят нестандартное решение, и в отряд прибывает молодой специалист

Параметры: 23.02.2017 SATRip, 6,11 Гб

Формат: XviD, MP3, размер файла: 6,11 Гб Видео: 720x400, XviD - 1650 Кбит/с Аудио: MP3, 2 канала, 192 Кбит/с Перевод (озвучивание): Оригинал

Параметры: 24.02.2017 HDTVRip, 5,84 Гб

Формат: XviD, AC3, размер файла: 5,84 Гб Видео: 720x400, XviD - ~ 1650 Кбит/с Аудио: AC3, 2 канала, 192 Кбит/с Перевод (озвучивание): Оригинал

Параметры: 23.02.2017 HDTV 1080i, 18,13 Гб

Формат: MKV, AVC, AC3, размер файла: 18,13 Гб Видео: 1920x1080, AVC - ~ 7900 Кбит/с Аудио: AC3, 2 канала, 192 Кбит/с Перевод (озвучивание): Оригинал

Пять минут тишины [2017, Детектив, приключения, SATRip]

Параметры:

Формат: SATRip, AVI, XviD, MP3 Видео: 720x400, XviD - build 50 ~1799 Кбит/с Аудио: MP3, 2 канала, 128 Кбит/с Перевод (озвучивание):

Смотрите сериал Пять минут тишины онлайн:

 

1-10 из 10 [2017 HDTVRip Русский] от R.G.Resident скачать через торрент

piratbit.ru

Раздают: 1 [ 0 KB/s ]
Размер: 5.37 GB | Добавлен: 7 мес. назад | Торрент скачан:88 раз
Реклама Дарим 3000 рублей за регистрацию, не упусти свой шанс получить шикарный бонус!!!

20-02-2017 20:26 Пять минут тишины Скачать торрент  

Пять минут тишины

Год выпуска: 2017Страна: Россия, НТВ, ПРИОР Продакшн при участии Студия Грин ФильмЖанр: Детектив, приключенияПродолжительность: 10 х ~ 00:47:00Язык: Русский

Режиссер: Алексей Праздников

В ролях: Игорь Лифанов, Роман Курцын, Анна Пескова, Константин Воробьёв, Артур Ваха, Анастасия Стежко, Олег Андреев, Виталий Такс, Нелли Попова, Степан Бекетов, Алена Савастова, Артем Франк, Павел Дружинин, Андрей Зарубин, Игорь Ламба, Денис Пьянов, Оксана Сурнина, Александр Мосолов, Сергей Русскин, Вячеслав Семенов, Олег Волков, Артем Бордовский, Михаил Соловьев, Алексей Павлов, Никита Морозов, Евгений Бойцов, Андрей Струговец, Дуня Тарасова, Михаил Гришин, Владимир Гененрайх, Владимир Меренков, Михаил Чирков, Алексей Симонов, Глеб Щур, Елена Меньшикова, Александр Иванов

Описание: Выпускник Академии МЧС Александр Грек рассчитывал пройти стажировку в штабе. Но неожиданно его отправляют в Карелию в горноспасательный отряд под руководством опытного и жесткого командира Гиреева. Команда Гиреева известна среди коллег не только своим профессионализмом, но и умением найти в каждой операции по спасению нестандартный выход из ситуации, порой граничащий с безумием. Новые товарищи — спасатель Коля Петров, кинолог по прозвищу Старик, врач Таня — все время подшучивают над Александром. Молодой человек тем временем надеется на содействие своего влиятельного дяди, который может устроить ему перевод в столицу. А пока он вместе с командой отправляется на первое задание, и оно оборачивается катастрофой…

Качество: HDTVRip [Рип с HDTV 1080i]Формат: AVIВидео кодек: XviDАудио кодек: AC3Видео: 720x400 (1.80:1), 25 fps, XviD build 73 ~1448 kbps avg, 0.20 bit/pixelАудио#1: 48 kHz, AC3 Dolby Digital, 2/0 (L,R) ch, ~192.00 kbps avgРелиз от: ruslanishe

GeneralPyat.minut.tishini.XviD.2017.HDTVRip.R.G.Resident\001.aviFormat : AVIFormat/Info : Audio Video InterleaveFile size : 550 MiBDuration : 46mn 38sOverall bit rate : 1 649 KbpsDirector : ruslanisheWriting application : VirtualDubMod 1.5.10.3 | www.virtualdub-fr.org || (build 2550/release)Copyright : R.G.Resident

VideoID : 0Format : MPEG-4 VisualFormat profile : Advanced [email protected] settings, BVOP : 2Format settings, QPel : NoFormat settings, GMC : No warppointsFormat settings, Matrix : CustomCodec ID : XVIDCodec ID/Hint : XviDDuration : 46mn 38sBit rate : 1 448 KbpsWidth : 720 pixelsHeight : 400 pixelsDisplay aspect ratio : 16:9Frame rate : 25.000 fpsColor space : YUVChroma subsampling : 4:2:0Bit depth : 8 bitsScan type : ProgressiveCompression mode : LossyBits/(Pixel*Frame) : 0.201Stream size : 483 MiB (88%)Writing library : XviD 73

AudioID : 1Format : AC-3Format/Info : Audio Coding 3Mode extension : CM (complete main)Format settings, Endianness : BigCodec ID : 2000Duration : 46mn 38sBit rate mode : ConstantBit rate : 192 KbpsChannel(s) : 2 channelsChannel positions : Front: L RSampling rate : 48.0 KHzBit depth : 16 bitsCompression mode : LossyStream size : 64.1 MiB (12%)Alignment : Split accross interleavesInterleave, duration : 40 ms (1.00 video frame)Interleave, preload duration : 500 ms

Скачать Пять минут тишины через торрент http://pic1.pb.wtf/images/11/zl9eh.jpg Скачать фильм Пять минут тишины через торрент бесплантно в хорошем качестве Описание: Выпускник Академии МЧС Александр Грек рассчитывал пройти стажировку в штабе. Но неожиданно его отправляют в Карелию в ... 2017-02-24 11:53 10 10 6

Loading...

Loading...

Последний раз редактировалось: ruslanishe (2017-02-24 14:05), всего редактировалось 1 раз

Рекламный пират

24-02-2017 12:31 Пять минут тишины Скачать торрент  

720р будет качество

24-02-2017 14:04 Пять минут тишины Скачать торрент  

vikto писал(а):

720р будет качество

Тут

Дорогой пользователь! Огромная просьба, поблагодарите релизера, оцените раздачу и оставьте свои комментарий, если Вы скачали Пять минут тишины через торрент бесплатно! Внесите свою лепту в развитие PiratBit!

Комментировать посты могут только пользователи прошедшие не сложную регистрацию

Пять минут тишины через торрент Скачать бесплатно Пять минут тишины Пять минут тишины скачать торрент Пять минут тишины смотреть онлайн Cкачать фильм Пять минут тишины бесплатно Пять минут тишины скачать торрент в хорошем качестве Пять минут тишины смотреть онлайн бесплатно в хорошем качестве

Вы не можете начинать темыВы не можете отвечать на сообщенияВы не можете редактировать свои сообщенияВы не можете удалять свои сообщенияВы не можете голосовать в опросахВы не можете прикреплять файлы к сообщениямВы можете скачивать файлы

Пять минут тишины скачать сериал торрент 2016 -

hokit.ru

Коротко о сериале "Пять минут тишины" - Бойцы поисково-спасательного отряда 42-21 известны среди коллег не только тем, что они профессионалы высокого класса, а еще и тем, что каждый их выход это своего рода уникальная операция. О них ходят легенды. Их спасательные операции превращаются в байки, которые любят рассказывать у костра новичкам. Дело в том, что в каждой операции по спасению наши герои умудряются найти нестандартный выход из ситуации, порой граничащий с безумием или с анекдотом. Рутину подвигов отряда 42-21 нарушает прибытие молодого специалиста Александра Грека.

Добавлена 10 серия из 10.

Пять минут тишины

Сериал выпущен: 2016
Страна (кинокомпания): Россия, ПРИОР Продакшн при участии Студия Грин Фильм
Режиссер: Алексей Праздников
Сценарий сериала: Евгений Куратов, Вадим Фоминых
Продюсер сериала: Родион Павлючик, Павел Бабин, Игорь Марин
Оператор: Александр Бурцев
Композитор: Иван Бурляев, Дмитрий Носков, Константин Куприянов
Художники:
Монтаж:
Жанр сериала: приключения, детектив
Премьера (мир):
премьера (Pоссия): 20 февраля 2017
продолжительность52 мин
В главных ролях:
Игорь Лифанов
Анна Пескова
Роман Курцын
Анастасия Стежко
Константин Воробьёв
Артур Ваха
Олег Андреев
Виталий Такс
Неля Попова
и другие ...

Трейлер фильма:

 

Сериал Пять минут тишины скачать торрент - новинка кино 2016

Скачать файлы .torrent Пять минут тишины (сериал)

на сайте Вы можете получить ссылку на торрент файлы или скачать сами торрент файлы, в которых находится информация о местонахождении фильмов, сериалов у пользователей.

В сериале "Пять минут тишины" - бойцы поисково-спасательного отряда в каждой ситуации находят нестандартное решение, и в отряд прибывает молодой специалист

Параметры: 23.02.2017 SATRip, 6,11 Гб

Формат: XviD, MP3, размер файла: 6,11 Гб Видео: 720x400, XviD - 1650 Кбит/с Аудио: MP3, 2 канала, 192 Кбит/с Перевод (озвучивание): Оригинал

Параметры: 24.02.2017 HDTVRip, 5,84 Гб

Формат: XviD, AC3, размер файла: 5,84 Гб Видео: 720x400, XviD - ~ 1650 Кбит/с Аудио: AC3, 2 канала, 192 Кбит/с Перевод (озвучивание): Оригинал

Параметры: 23.02.2017 HDTV 1080i, 18,13 Гб

Формат: MKV, AVC, AC3, размер файла: 18,13 Гб Видео: 1920x1080, AVC - ~ 7900 Кбит/с Аудио: AC3, 2 канала, 192 Кбит/с Перевод (озвучивание): Оригинал

Пять минут тишины [2017, Детектив, приключения, SATRip]

Параметры:

Формат: SATRip, AVI, XviD, MP3 Видео: 720x400, XviD - build 50 ~1799 Кбит/с Аудио: MP3, 2 канала, 128 Кбит/с Перевод (озвучивание):

Смотрите сериал Пять минут тишины онлайн:

Скачать Пять минут тишины, сериал бесплатно скачать торрент, приключения, детектив, новинка кино

 

Пять минут тишины / Сезон 1 / Серии 1-10 из 10 [2017 SATRip] скачать через торрент

piratbit.ru

Размер: 6.11 GB | Добавлен: 8 мес. назад | Торрент скачан:186 раз
Реклама Дарим 3000 рублей за регистрацию, не упусти свой шанс получить шикарный бонус!!!

20-02-2017 12:40 Пять минут тишины Скачать торрент  

Пять минут тишины / Сезон 1 / Серии 1-10 из 10

Год выпуска: 2017Страна: Россия, НТВ, ПРИОР Продакшн при участии Студия Грин ФильмЖанр: Детектив, приключенияПродолжительность: 10 х ~ 00:47:00Субтитры: нет

Режиссер: Алексей Праздников

В ролях: Игорь Лифанов, Роман Курцын, Анна Пескова, Константин Воробьёв, Артур Ваха, Анастасия Стежко, Олег Андреев, Виталий Такс, Нелли Попова, Степан Бекетов, Алена Савастова, Артем Франк, Павел Дружинин, Андрей Зарубин, Игорь Ламба, Денис Пьянов, Оксана Сурнина, Александр Мосолов, Сергей Русскин, Вячеслав Семенов, Олег Волков, Артем Бордовский, Михаил Соловьев, Алексей Павлов, Никита Морозов, Евгений Бойцов, Андрей Струговец, Дуня Тарасова, Михаил Гришин, Владимир Гененрайх, Владимир Меренков, Михаил Чирков, Алексей Симонов, Глеб Щур, Елена Меньшикова, Александр Иванов

Описание: Выпускник Академии МЧС Александр Грек рассчитывал пройти стажировку в штабе. Но неожиданно его отправляют в Карелию в горноспасательный отряд под руководством опытного и жесткого командира Гиреева. Команда Гиреева известна среди коллег не только своим профессионализмом, но и умением найти в каждой операции по спасению нестандартный выход из ситуации, порой граничащий с безумием. Новые товарищи — спасатель Коля Петров, кинолог по прозвищу Старик, врач Таня — все время подшучивают над Александром. Молодой человек тем временем надеется на содействие своего влиятельного дяди, который может устроить ему перевод в столицу. А пока он вместе с командой отправляется на первое задание, и оно оборачивается катастрофой…

Качество: SATRipФормат: AVIВидео кодек: XviDАудио кодек: MP3Видео: XviD, 1650 Kbps , 720x400 ,25.000 fpsАудио: МР3, 2 ch, 192 Kbps, 48.0 KHz

GeneralComplete name : H:\релизы.торрентфайл\Pyat.minut.tishiny.2017.SATRip.BigFANGroup\Pyat.minut.tishiny.s01.e01.2017.XviD.SATRip.BigFANGroup.aviFormat : AVIFormat/Info : Audio Video InterleaveFile size : 618 MiBDuration : 46mn 38sOverall bit rate : 1 851 KbpsWriting application : VirtualDubMod 1.5.10.3Writing library : VirtualDubMod build 2550/release

VideoID : 0Format : MPEG-4 VisualFormat profile : Advanced [email protected] settings, BVOP : 1Format settings, QPel : NoFormat settings, GMC : No warppointsFormat settings, Matrix : Default (MPEG)Codec ID : XVIDCodec ID/Hint : XviDDuration : 46mn 38sBit rate : 1 650 KbpsWidth : 720 pixelsHeight : 400 pixelsDisplay aspect ratio : 16:9Frame rate : 25.000 fpsColor space : YUVChroma subsampling : 4:2:0Bit depth : 8 bitsScan type : ProgressiveCompression mode : LossyBits/(Pixel*Frame) : 0.229Stream size : 550 MiB (89%)Writing library : XviD 1.2.1 (UTC 2008-12-04)

AudioID : 1Format : MPEG AudioFormat version : Version 1Format profile : Layer 3Codec ID : 55Codec ID/Hint : MP3Duration : 46mn 38sBit rate mode : ConstantBit rate : 192 KbpsChannel(s) : 2 channelsSampling rate : 48.0 KHzCompression mode : LossyStream size : 64.1 MiB (10%)Alignment : Aligned on interleavesInterleave, duration : 40 ms (1.00 video frame)Interleave, preload duration : 504 msWriting library : LAME3.99rEncoding settings : -m s -V 4 -q 2 -lowpass 18.6 -b 192

Внимание! Раздача ведётся путём добавления новых серий; при каждом добавлении создаётся новый торрент. Чтобы начать докачку новой серии, пользователям необходимо сделать следующее:(1) остановить скачивание,(2) удалить старый торрент у себя из клиента (старые серии удалять не надо),(3) скачать новый торрент и запустить его у себя в клиенте вместо старого, при этом указать клиенту путь в старую папку куда и должно происходить скачивание новых серий.Ваш клиент при этом должен произвести хеширование (проверку) старой папки (если не производит сам - помогите ему сделать это), и будет докачивать только те серии которых у вас ещё нет. Старые серии при этом не удаляются, а продолжают раздаваться!Eсли вы уже удалили старые серии, то предотвратить повторную закачку старых серий можно, отжав галочку в соответствующих местах при запуске нового торрента. По возможности, желательно не удалять старые серии как можно дольше чтобы релизёр не столько продолжал раздавать старые серии, а смог сконцентрироваться на новых.

Скачать Пять минут тишины через торрент http://pic1.pb.wtf/images/11/x9rca.jpg Скачать фильм Пять минут тишины через торрент бесплантно в хорошем качестве Описание: Выпускник Академии МЧС Александр Грек рассчитывал пройти стажировку в штабе. Но неожиданно его отправляют в Карелию в ... 2017-02-23 22:47 8.5 10 12

Loading...

Loading...

Последний раз редактировалось: oleg8 (2017-02-23 22:47), всего редактировалось 3 раз(а)

Рекламный пират

Юный Чикатилла

20-02-2017 15:15 Пять минут тишины Скачать торрент  

На других сайтах в каментах пишут шо очень хороший, качну тогда

20-02-2017 19:02 Пять минут тишины Скачать торрент  

первые 2 серии не плохо посмотрим что дальше будет

21-02-2017 13:02 Пять минут тишины Скачать торрент  

Добавил 3-4 серии.

22-02-2017 22:36 Пять минут тишины Скачать торрент  

добавил 5-6 серии.

23-02-2017 03:13 Пять минут тишины Скачать торрент  

и снова русский тупой сериал

23-02-2017 06:35 Пять минут тишины Скачать торрент  

такой постер будто они выпустили новый рэп альбом

23-02-2017 22:49 Пять минут тишины Скачать торрент  

добавил 7-10 серии.Сериал завершен.

Дорогой пользователь! Огромная просьба, поблагодарите релизера, оцените раздачу и оставьте свои комментарий, если Вы скачали Пять минут тишины через торрент бесплатно! Внесите свою лепту в развитие PiratBit!

Комментировать посты могут только пользователи прошедшие не сложную регистрацию

Пять минут тишины через торрент Скачать бесплатно Пять минут тишины Пять минут тишины скачать торрент Пять минут тишины смотреть онлайн Cкачать фильм Пять минут тишины бесплатно Пять минут тишины скачать торрент в хорошем качестве Пять минут тишины смотреть онлайн бесплатно в хорошем качестве

Вы не можете начинать темыВы не можете отвечать на сообщенияВы не можете редактировать свои сообщенияВы не можете удалять свои сообщенияВы не можете голосовать в опросахВы не можете прикреплять файлы к сообщениямВы можете скачивать файлы


Смотрите также