Скачать убойные каникулы 2010 через торрент бесплатно в хорошем качестве


Скачать фильм Убойные каникулы (2010) через торрент

12 января 2016 10:31 Убойные каникулы / Tucker & Dale vs Evil (2010) BDRip-AVC от MediaClub | D, A, L1.torrent   [Информация о файле (нажмите для просмотра)] Перевод: Дублированный, авторский одноголосый, любительский одноголосый, украинскийКодек: MPEG-4 AVCКачество: BDRip-AVCВидео: 2100 Кбит/с, 1024х436, 23.976 кадр/сЗвук: Аудио #1: Русский (AC3, 6 ch, 448 Кбит/с) / Дублированный (R5)Аудио #2: Русский (AC3, 6 ch, 448 Кбит/с) / Авторский одноголосый (А. Карповский)Аудио #3: Русский (AC3, 6 ch, 448 Кбит/с) / Авторский одноголосый (В. Котов по субтитрам Д. Пучкова (Гоблина))Аудио #4: Русский (AC3, 6 ch, 448 Кбит/с) / Любительский одноголосый (А. Киреев по субтитрам Д. Пучкова (Гоблина))Аудио #5: Украинский (AC3, 6 ch, 448 Кбит/с) / Профессиональный многоголосый (1+1)Аудио #6: Английский (AC3, 6 ch, 448 Кбит/с)Субтитры: Русские (полные, по переводу Гоблина), английские (полные, SDH)Видео: Идентификатор : 1 Формат : AVC Формат/Информация : Advanced Video Codec Профиль формата : [email protected] Параметр CABAC формата : Да Параметр ReFrames формата : 9 кадров Идентификатор кодека : V_MPEG4/ISO/AVC Продолжительность : 1 ч. 28 м. Битрейт : 2100 Кбит/сек Ширина : 1024 пикселя Высота : 436 пикселей Соотношение сторон : 2,35:1 Режим частоты кадров : Постоянный Частота кадров : 23,976 кадра/сек Цветовое пространство : YUV Субдискретизация насыщенности : 4:2:0 Битовая глубина : 8 бит Тип развёртки : Прогрессивная Бит/(Пиксели*Кадры) : 0.196 Размер потока : 1,24 Гбайт (42%) Заголовок : Ubojnye.kanikuly.2010.x264.BDRip.AVC.MediaClub Библиотека кодирования : x264 core 142 r2409+42 04be48a tMod [[email protected]:2:0 X86] Настройки программы : cabac=1 / ref=9 / deblock=1:-2:-2 / analyse=0x3:0x133 / me=umh / subme=11 / psy=1 / fade_compensate=0.00 / psy_rd=1.00:0.15 / mixed_ref=1 / me_range=32 / chroma_me=1 / trellis=2 / 8x8dct=1 / cqm=0 / deadzone=21,11 / fast_pskip=0 / chroma_qp_offset=-3 / threads=6 / lookahead_threads=1 / sliced_threads=0 / nr=0 / decimate=0 / interlaced=0 / bluray_compat=0 / constrained_intra=0 / fgo=0 / bframes=8 / b_pyramid=2 / b_adapt=2 / b_bias=0 / direct=3 / weightb=1 / open_gop=0 / weightp=2 / keyint=240 / keyint_min=23 / scenecut=40 / intra_refresh=0 / rc=2pass / mbtree=0 / bitrate=2100 / ratetol=1.0 / qcomp=0.60 / qpmin=0:0:0 / qpmax=69:69:69 / qpstep=4 / cplxblur=20.0 / qblur=0.5 / ip_ratio=1.40 / pb_ratio=1.30 / aq=1:1.00 / aq-sensitivity=10.00 / aq-factor=1.00:1.00:1.00 / aq2=0 / aq3=0 Язык : English Default : Да Forced : ДаАудио #1: Идентификатор : 2 Формат : AC-3 Формат/Информация : Audio Coding 3 Расширение режима : CM (complete main) Параметр Endianness формата : Big Идентификатор кодека : A_AC3 Продолжительность : 1 ч. 28 м. Вид битрейта : Постоянный Битрейт : 448 Кбит/сек Каналы : 6 каналов Расположение каналов : Front: L C R, Side: L R, LFE Частота : 48,0 КГц Битовая глубина : 16 бит Метод сжатия : С потерями Размер потока : 284 Мбайт (9%) Заголовок : TRACK_01_DUB_RUS_R5 Язык : Russian Default : Да Forced : ДаАудио #2: Идентификатор : 3 Формат : AC-3 Формат/Информация : Audio Coding 3 Расширение режима : CM (complete main) Параметр Endianness формата : Big Идентификатор кодека : A_AC3 Продолжительность : 1 ч. 28 м. Вид битрейта : Постоянный Битрейт : 448 Кбит/сек Каналы : 6 каналов Расположение каналов : Front: L C R, Side: L R, LFE Частота : 48,0 КГц Битовая глубина : 16 бит Метод сжатия : С потерями Размер потока : 284 Мбайт (9%) Заголовок : TRACK_02_AVO_RUS_Karpovskij Язык : Russian Default : Нет Forced : НетАудио #3: Идентификатор : 4 Формат : AC-3 Формат/Информация : Audio Coding 3 Расширение режима : CM (complete main) Параметр Endianness формата : Big Идентификатор кодека : A_AC3 Продолжительность : 1 ч. 28 м. Вид битрейта : Постоянный Битрейт : 448 Кбит/сек Каналы : 6 каналов Расположение каналов : Front: L C R, Side: L R, LFE Частота : 48,0 КГц Битовая глубина : 16 бит Метод сжатия : С потерями Размер потока : 284 Мбайт (9%) Заголовок : TRACK_03_AVO_RUS_Kotov_nef Язык : Russian Default : Нет Forced : НетАудио #4: Идентификатор : 5 Формат : AC-3 Формат/Информация : Audio Coding 3 Расширение режима : CM (complete main) Параметр Endianness формата : Big Идентификатор кодека : A_AC3 Продолжительность : 1 ч. 28 м. Вид битрейта : Постоянный Битрейт : 448 Кбит/сек Каналы : 6 каналов Расположение каналов : Front: L C R, Side: L R, LFE Частота : 48,0 КГц Битовая глубина : 16 бит Метод сжатия : С потерями Размер потока : 284 Мбайт (9%) Заголовок : TRACK_04_VO_RUS_Kireev_nef Язык : Russian Default : Нет Forced : НетАудио #5: Идентификатор : 6 Формат : AC-3 Формат/Информация : Audio Coding 3 Расширение режима : CM (complete main) Параметр Endianness формата : Big Идентификатор кодека : A_AC3 Продолжительность : 1 ч. 28 м. Вид битрейта : Постоянный Битрейт : 448 Кбит/сек Каналы : 6 каналов Расположение каналов : Front: L C R, Side: L R, LFE Частота : 48,0 КГц Битовая глубина : 16 бит Метод сжатия : С потерями Размер потока : 284 Мбайт (9%) Заголовок : TRACK_05_MVO_UKR_1+1 Язык : Ukrainian Default : Нет Forced : НетАудио #6: Идентификатор : 7 Формат : AC-3 Формат/Информация : Audio Coding 3 Расширение режима : CM (complete main) Параметр Endianness формата : Big Идентификатор кодека : A_AC3 Продолжительность : 1 ч. 28 м. Вид битрейта : Постоянный Битрейт : 448 Кбит/сек Каналы : 6 каналов Расположение каналов : Front: L C R, Side: L R, LFE Частота : 48,0 КГц Битовая глубина : 16 бит Метод сжатия : С потерями Размер потока : 284 Мбайт (9%) Заголовок : TRACK_06_ORIGINAL_ENG Язык : English Default : Нет Forced : Нет 2,97 Gb 35 2 12 января 2016 10:31 Убойные каникулы / Tucker & Dale vs Evil (2010) BDRip-AVC от New-Team | D.torrent   [Информация о файле (нажмите для просмотра)] Перевод: Профессиональный (дублированный)Качество: BDRip-AVC [BDRemux 1080p]Формат: MKVВидео: 800x340 (2.35:1), 23.976 fps, h364 ~ 1 109 Kbps, 0.170 bit/pixelАудио: 48 KHz / 24 KHz, AAC HE-AAC / LC, 2/0 (L,R) ch, ~64 kbps 744,77 Mb 63 8 12 января 2016 10:31 Убойные каникулы / Tucker and Dale vs Evil (2010) BDRip-AVC от HELLYWOOD | US-Transfer.torrent   [Информация о файле (нажмите для просмотра)] Перевод: Профессиональный (полное дублирование)Субтитры: Русские, английские (SDH)Качество: BDRip-AVC [Tucker And Dale vs. Evil US 2010 Blu-ray 1080p AVC DTS-HDMA5.1-sony188(R3)]Формат: MKVВидео: x.264, 1120x476 (2,35:1), 23,976 fps, 2630 Кbps, 0.206 bit/pixelАудио#1: 48 kHz, AC3 Dolby Digital, 3/2 (L,C,R,l,r) + LFE ch, 448.00 kbps |RUSАудио#2: 48 kHz, AC3 Dolby Digital, 3/2 (L,C,R,l,r) + LFE ch, 448.00 kbps |ENG 2,19 Gb 78 10 12 января 2016 10:31 Убойные каникулы / Tucker & Dale vs Evil (2010) BDRip 1080p от NoLimits-Team.torrent   [Информация о файле (нажмите для просмотра)] Перевод: ДублированныйКачество: BDRip 1080p (DVD9) (исходник Blu-ray Remux)Видео: 1920x816, 11553 Кбит/сек, 23,976 кадр/сек, AVC, x264, [email protected], 2.35:1, 0.308 Бит/[Пиксели*Кадры], 2passАудио 1: AC-3, 640 Кбит/сек, 6 канала(ов), 48,0 КГц - Дублированный / РусскийАудио 2: AC-3, 640 Кбит/сек, 6 канала(ов), 48,0 КГц - Оригинал / АнглийскийСубтитры: Русские | Полные 7,95 Gb 45 7 12 января 2016 10:31 Убойные каникулы / Tucker and Dale vs Evil (2010) BDRip 720p от leonardo 59 | Лицензия .torrent   [Информация о файле (нажмите для просмотра)] Перевод: Профессиональный (полное дублирование)Формат: MKVВидео кодек: MPEG-4 AVC Аудио кодек: AC3Видео: AVC, 1280x544 (2.35:1) at 23.976 fps, AVC at 2893 kbps avg, 0.173 bit/pixelАудио: AC3, 6ch 448 kbps 2,11 Gb 220 4 12 января 2016 10:31 Убойные каникулы / Tucker and Dale vs Evil (2010) BDRip 720p от leonardo 59 | iPad .torrent   [Информация о файле (нажмите для просмотра)] Перевод: Профессиональный (полное дублирование)Формат: MP4 (контейнер m4v)Видео кодек: MPEG-4 AVC Аудио кодек: AACВидео: AVC, 1280x544 (2.35:1) at 23.976 fps, AVC at 2959 kbps avg, 0.177 bit/pixelАудио #1: Russian; AAC LC; 288 Kbps; 48.0 KHz; 6 ch; DUBАудио #2: English; AAC LC; 299 Kbps; 48.0 KHz; 6 ch; Original 2,2 Gb 20 2 12 января 2016 10:31 Убойные каникулы / Tucker and Dale vs Evil (2010) BDRip-AVC от leonardo 59 | Лицензия .torrent   [Информация о файле (нажмите для просмотра)] Перевод: Профессиональный (полное дублирование)Формат: MKVВидео кодек: MPEG-4 AVC Аудио кодек: AC3Видео: AVC, 1024x436 (2.35:1) at 23.976 fps, AVC at 2137 kbps avg, 0.200 bit/pixelАудио 1: AC3, 6ch 448 kbpsАудио 2: AC3, 6ch 448 kbps 1,91 Gb 17 4 12 января 2016 10:31 Убойные каникулы / Tucker and Dale vs Evil (2010) BDRip-AVC от leonardo 59 | iPad .torrent   [Информация о файле (нажмите для просмотра)] Перевод: Профессиональный (полное дублирование)Формат: MP4 (контейнер m4v)Видео кодек: MPEG-4 AVC Аудио кодек: AACВидео: AVC, 1024x436 (2.35:1) at 23.976 fps, AVC at 2196 kbps avg, 0.205 bit/pixelАудио 1: AAC LC, 2ch ~96.0 Kbps, 48.0 KHzАудио 2: AAC LC, 2ch ~96.0 Kbps, 48.0 KHz 1,48 Gb 29 3 12 января 2016 10:31 Убойные каникулы / Tucker & Dale vs Evil (2010) HDRip от Scarabey | D.torrent   [Информация о файле (нажмите для просмотра)] Перевод: Профессиональный (дублированный)Видео: 688x288 (2.39:1), 23.976 fps, XviD build 50 ~1034 kbps avg, 0.22 bit/pixelАудио: 48 kHz, MPEG Layer 3, 2 ch, ~128.00 kbps avg 742,61 Mb 29 4 12 января 2016 10:31 Убойные каникулы / Tucker & Dale vs Evil (2010) BDRip | L1, L1, D.torrent   [Информация о файле (нажмите для просмотра)] Перевод: Любительский одноголосый Антон КиреевКодек: XviD build 64Качество: BDRip (Исходник: BD Remux) Видео: 720x304, 23.976 fps, 1890 kbps avg, 0.360 bit/pixelЗвук: Аудио #1: 48 kHz, AC3 Dolby Digital, 3/2 (L,C,R,l,r) + LFE ch, ~448.00 kbps avg |Антон Киреев|Аудио #2: 48 kHz, AC3 Dolby Digital, 3/2 (L,C,R,l,r) + LFE ch, ~448 kbps avg|Вячеслав Котов|Аудио #3: 48 kHz, AC3 Dolby Digital, 3/2 (L,C,R,l,r) + LFE ch, ~448.00 kbps avg |Дубляж| 2,02 Gb 24 5 12 января 2016 10:31 Убойные каникулы / Tucker & Dale vs Evil (2010) Blu-Ray Remux.torrent   [Информация о файле (нажмите для просмотра)] Перевод: Дублированный [Лицензия]Кодек: MPEG-4 AVCКачество: Blu-Ray RemuxВидео: 1920x1080, 23.976 fps, ~ 23.9 Mb/sЗвук: Аудио#1: | 48 kHz, AC3 Dolby Digital, 6 ch (L,C,R,l,r) + LFE ch, ~1509 kbps [Russian] Аудио#2: | 48 kHz, DTS, 6 каналов, ~ 1985 kbit/s [English]Субтитры: Немецкие, английские 18,06 Gb 3 3 12 января 2016 10:31 Убойные каникулы / Tucker & Dale vs Evil (2010) BDRip 1080p.torrent   [Информация о файле (нажмите для просмотра)] Перевод: ДублированныйКодек: x264Качество: BDRip (источник: Blu-ray Disc)Видео: 1920x816 (2,35:1), 23.976 fps, 6617 kbpsЗвук: 48 kHz, AC-3, 6 ch, 448 kbpsВидео: Идентификатор : 1 Формат : AVC Формат/Информация : Advanced Video Codec Профиль формата : [email protected] Параметр CABAC формата : Да Параметр ReFrames формата : 5 кадров Идентификатор кодека : V_MPEG4/ISO/AVC Продолжительность : 1 ч. 28 м. Битрейт : 6617 Кбит/сек Ширина : 1920 пикселей Высота : 816 пикселей Соотношение сторон : 2,35:1 Частота кадров : 23,976 кадра/сек Цветовое пространство : YUV Субдискретизация насыщенности : 4:2:0 Битовая глубина : 8 бит Тип развёртки : Прогрессивная Бит/(Пиксели*Кадры) : 0.176 Размер потока : 4,01 Гбайт (92%) Библиотека кодирования : x264 core 116 r2019 9cc407d Настройки программы : cabac=1 / ref=5 / deblock=1:0:0 / analyse=0x3:0x133 / me=umh / subme=10 / psy=1 / psy_rd=1.00:0.10 / mixed_ref=1 / me_range=32 / chroma_me=1 / trellis=2 / 8x8dct=1 / cqm=0 / deadzone=21,11 / fast_pskip=0 / chroma_qp_offset=-3 / threads=12 / sliced_threads=0 / nr=0 / decimate=1 / interlaced=0 / bluray_compat=0 / constrained_intra=0 / bframes=3 / b_pyramid=2 / b_adapt=2 / b_bias=0 / direct=3 / weightb=1 / open_gop=0 / weightp=2 / keyint=250 / keyint_min=23 / scenecut=40 / intra_refresh=0 / rc_lookahead=60 / rc=2pass / mbtree=1 / bitrate=6617 / ratetol=1.0 / qcomp=0.60 / qpmin=0 / qpmax=69 / qpstep=4 / cplxblur=20.0 / qblur=0.5 / ip_ratio=1.40 / aq=1:1.00 Язык : EnglishАудио: Идентификатор : 2 Формат : AC-3 Формат/Информация : Audio Coding 3 Расширение режима : CM (complete main) Идентификатор кодека : A_AC3 Продолжительность : 1 ч. 28 м. Вид битрейта : Постоянный Битрейт : 448 Кбит/сек Каналы : 6 каналов Расположение каналов : Front: L C R, Side: L R, LFE Частота : 48,0 КГц Битовая глубина : 16 бит Метод сжатия : С потерями Размер потока : 284 Мбайт (6%) Язык : Russianx264x264 [info]: frame I:1409 Avg QP:13.35 size:198592 x264 [info]: frame P:37719 Avg QP:16.15 size: 64271 x264 [info]: frame B:88288 Avg QP:18.88 size: 19141 4,37 Gb 54 4 12 января 2016 10:31 Убойные каникулы / Tucker & Dale vs Evil (2010) Blu-Ray.torrent   [Информация о файле (нажмите для просмотра)] Перевод: Дублированное [лицензия]Кодек: m2tsКачество: Blu-RayВидео: MPEG-4 AVC, 24014 Кбит/с, 1920x1080, 23.976 кадр/сЗвук: Русский (DTS, 6 ch, 1509 Кбит/с) / Английский (DTS-HD MA, 6 ch, 2226 Кбит/с) 19,75 Gb 8 1 12 января 2016 10:30 Убойные каникулы / Tucker & Dale vs Evil (2010) BDRip-AVC от HQ-ViDEO.torrent   [Информация о файле (нажмите для просмотра)] Перевод: Русский дублированный перевод + Оригинальная дорожкаКодек: MKV, H.264 codecКачество: BDRip (Исходник: BD Remux)Видео: 1108 x 468 (2.35:1), 23.976 fps, MKV, H.264 ~ 2621 kbps avg, ~ 0.21 bit/pixelЗвук #1: 48 kHz, AC3 Dolby Digital, 3/2 (L,C,R,l,r) + LFE ch, ~448.00 kbps avgЗвук #2: 48 kHz, AC3 Dolby Digital, 3/2 (L,C,R,l,r) + LFE ch, ~448.00 kbps avgСубтитры: Английские (форсированные).Субтитры: Русские (форсированные), Английские (форсированные). 2,18 Gb 17 2 12 января 2016 10:30 Убойные каникулы / Tucker & Dale vs Evil (2010) BDRip от HELLYWOOD.torrent   1,73 Gb 3 1 12 января 2016 10:30 Убойные каникулы / Tucker & Dale vs Evil (2010) HDRip от Xixidok | Озвучка по Гоблину.torrent   [Информация о файле (нажмите для просмотра)] Перевод: Любительский (одноголосый закадровый)den 904 по субтитрам Пучкова,ака ГоблинаКачество: HDRipВидео: 720x304 (2.37:1), 25 fps, XviD MPEG-4 ~1828 kbpsАудио: 48 kHz, MPEG Layer 3, 2 ch, ~192.00 kbps 1,2 Gb 16 1 12 января 2016 10:30 Убойные каникулы / Tucker & Dale vs Evil (2010) HDRip | лицензия.torrent   [Информация о файле (нажмите для просмотра)] Перевод: Профессиональный (полное дублирование) [лицензия]Кодек: XviDКачество: HDRipВидео: 640x272 (2.35:1), 23.976 fps, XviD MPEG-4 ~973 kbps avg, 0.23 bit/pixelАудио: 48 kHz, MPEG Layer 3, 2 ch, ~128.00 kbps avg 702,13 Mb 5 4 12 января 2016 10:30 Убойные каникулы / Tucker & Dale vs Evil (2010) BDRip 720p от FireBit.torrent   [Информация о файле (нажмите для просмотра)] Перевод: Профессиональный (полное дублирование) Лицензия!Качество: BDRipВидео: .mkv (H.264), 1280 x 544 (2.353) at 23.976 fps, 3049 Кбит/секЗвук 1: Русский, AC-3 at 448 Кбит/сек, 6 канала(ов), 48,0 КГц | Лицензия!Звук 2: Английский, AC-3 at 384 Кбит/сек, 6 канала(ов), 48,0 КГц 1,89 Gb 6 2 12 января 2016 10:30 Убойные каникулы / Tucker & Dale vs Evil (2010) BDRip 1080р.torrent   [Информация о файле (нажмите для просмотра)] Перевод: Дублированный [лицензия]Качество: BDRip (1080p)Видео: MPEG-4 AVC, 11.3 Мбит/с, 1920x816, 23.976 кадр/сАудио: Русский (DTS, 6 ch, 1536 Кбит/с), английский (DTS, 6 ch, 1536 Кбит/с 8,88 Gb 12 2 12 января 2016 10:30 Убойные каникулы / Tucker & Dale vs Evil (2010) DVD-Remux.torrent   3,94 Gb 2 1 12 января 2016 10:30 Убойные каникулы / Tucker & ( and ) Dale vs Evil (2010) DVD5 vadi.torrent   4,36 Gb 2 5 12 января 2016 10:30 Убойные каникулы / Tucker & Dale vs Evil (2010) DVDRip.torrent   [Информация о файле (нажмите для просмотра)] Формат: XviDКачество: DVDRipСубтитры: нет 1,37 Gb 64 4

gig-torrent.net

Скачать фильм Убойные каникулы через торрент в хорошем качестве бесплатно 1080p

GeneralUnique ID                                : 220620268873995933151598533059970467683 (0xA5F9EB1039859F069E5A8F409DFA0763)Complete name                            : D:\Торенты\Ubojnye kanikuly.(2010).BDRip.1080p.(DVD9).[NoLimits-Team].mkvFormat                                   : MatroskaFormat version                           : Version 4 / Version 2File size                                : 7.95 GiBDuration                                 : 1h 28mnOverall bit rate                         : 12.8 MbpsMovie name                               : Убойные каникулы.(2010).BDRip.1080p.(DVD9).[NoLimits-Team]Encoded date                             : UTC 2013-06-14 15:19:52Writing application                      : mkvmerge v6.0.0 ('Coming Up For Air') built on Jan 20 2013 09:52:00Writing library                          : libebml v1.3.0 + libmatroska v1.4.0

VideoID                                       : 1Format                                   : AVCFormat/Info                              : Advanced Video CodecFormat profile                           : [email protected] settings, CABAC                   : YesFormat settings, ReFrames                : 5 framesCodec ID                                 : V_MPEG4/ISO/AVCDuration                                 : 1h 28mnBit rate                                 : 11.6 MbpsWidth                                    : 1 920 pixelsHeight                                   : 816 pixelsDisplay aspect ratio                     : 2.35:1Frame rate                               : 23.976 fpsColor space                              : YUVChroma subsampling                       : 4:2:0Bit depth                                : 8 bitsScan type                                : ProgressiveBits/(Pixel*Frame)                       : 0.308Stream size                              : 7.00 GiB (88%)Title                                    : Убойные каникулы.(2010).BDRip.1080p.(DVD9).[NoLimits-Team]Writing library                          : x264 core 133 r2334 a3ac64bEncoding settings                        : cabac=1 / ref=5 / deblock=1:0:0 / analyse=0x3:0x113 / me=umh / subme=11 / psy=1 / psy_rd=1.00:0.00 / mixed_ref=1 / me_range=64 / chroma_me=1 / trellis=2 / 8x8dct=1 / cqm=0 / deadzone=21,11 / fast_pskip=0 / chroma_qp_offset=-2 / threads=9 / lookahead_threads=2 / sliced_threads=0 / nr=0 / decimate=1 / interlaced=0 / bluray_compat=0 / constrained_intra=0 / bframes=12 / b_pyramid=2 / b_adapt=2 / b_bias=0 / direct=3 / weightb=1 / open_gop=0 / weightp=2 / keyint=240 / keyint_min=23 / scenecut=40 / intra_refresh=0 / rc_lookahead=60 / rc=2pass / mbtree=1 / bitrate=11553 / ratetol=2.0 / qcomp=0.60 / qpmin=0 / qpmax=51 / qpstep=4 / cplxblur=20.0 / qblur=0.5 / ip_ratio=1.40 / aq=1:1.00Language                                 : EnglishDefault                                  : YesForced                                   : No

Audio #1ID                                       : 2Format                                   : AC-3Format/Info                              : Audio Coding 3Mode extension                           : CM (complete main)Codec ID                                 : A_AC3Duration                                 : 1h 28mnBit rate mode                            : ConstantBit rate                                 : 640 KbpsChannel(s)                               : 6 channelsChannel positions                        : Front: L C R, Side: L R, LFESampling rate                            : 48.0 KHzBit depth                                : 16 bitsCompression mode                         : LossyStream size                              : 406 MiB (5%)Title                                    : ДублированныйLanguage                                 : RussianDefault                                  : YesForced                                   : No

Audio #2ID                                       : 3Format                                   : AC-3Format/Info                              : Audio Coding 3Mode extension                           : CM (complete main)Codec ID                                 : A_AC3Duration                                 : 1h 28mnBit rate mode                            : ConstantBit rate                                 : 640 KbpsChannel(s)                               : 6 channelsChannel positions                        : Front: L C R, Side: L R, LFESampling rate                            : 48.0 KHzBit depth                                : 16 bitsCompression mode                         : LossyStream size                              : 406 MiB (5%)Title                                    : Английский / ОригиналLanguage                                 : EnglishDefault                                  : NoForced                                   : No

TextID                                       : 4Format                                   : UTF-8Codec ID                                 : S_TEXT/UTF8Codec ID/Info                            : UTF-8 Plain TextTitle                                    : Русские (полные)Language                                 : RussianDefault                                  : NoForced                                   : No

Menu00:00:00.000                             : :Chapter 0100:10:48.439                             : :Chapter 0200:18:57.845                             : :Chapter 0300:30:29.410                             : :Chapter 0400:37:55.731                             : :Chapter 0500:45:39.902                             : :Chapter 0600:54:46.408                             : :Chapter 0701:02:39.338                             : :Chapter 0801:10:58.128                             : :Chapter 0901:23:00.183                             : :Chapter 10

piratbit.ru

Скачать фильм Убойные каникулы через торрент в хорошем качестве бесплатно DVDRip

Размер: 702 MB | Добавлен: 6 лет 9 мес. назад | Торрент скачан:1466 раз
Реклама Дарим 3000 рублей за регистрацию, не упусти свой шанс получить шикарный бонус!!!

16-01-2011 12:54 Убойные каникулы Скачать торрент  

Убойные каникулы / Tucker and Dale vs Evil

Год выпуска: 2010Страна: КанадаЖанр: Ужасы,КомедияПродолжительность: 01:24:56Перевод: ДублированныйТип релиза: ЛицензияРежиссер: Эли Крэйг В ролях: Тайлер Лэбин, Алан Тьюдик, Кэти Боуден, Джесси Мосс, Брэндон Джей МакЛарен, Кристи Лэйн, Челан Симмонс, Трэвис Нельсон, Алекс АрсеноОписание: Группа студентов колледжа отправляется за город, чтобы вовсю оторваться на выходных: попить пивка, поплавать в озере и подышать чистым лесным воздухом. Но уже в первый день они сталкиваются с неотесанными фермерами Такером и Дэйлом, также решившими как следует оттянуться на природе. Приняв этих диковатых, но, в сущности, симпатичных ребят за «злобных местных», горожане решают дать деревенщине жесткий отпор. Но с каждым их шагом становится только хуже

Качество: DVDRipФормат: AVIВидео кодек: XviDАудио кодек: MP3 Видео: XviD, 640x352, 25 fps, ~1014 Kbit/sАудио: MP3 , 44100 Гц, 2 каналов,128 kbit/s

      

Скачать Убойные каникулы через торрент http://piratbit.in.ua/1ded6f392a022da1d32947c910828116.jpg Скачать фильм Убойные каникулы через торрент бесплантно в хорошем качестве Описание: Группа студентов колледжа отправляется за город, чтобы вовсю оторваться на выходных: попить пивка, поплавать в озере и подышать ... 2011-01-16 13:18 10 10 5

Loading...

Loading...

Рекламный пират

18-01-2011 06:50 Убойные каникулы Скачать торрент  

А когда перевод гоблина будет?

27-01-2011 14:22 Убойные каникулы Скачать торрент  

мне не понравился, ето не ужас и не комедия ето черный юмор , я его терпеть не могувсем приятного просмотра

04-02-2011 15:18 Убойные каникулы Скачать торрент  

Фильм РЖАКА!!меня порадовала фраза у дробилики "Ты живой"))))))

04-02-2011 17:05 Убойные каникулы Скачать торрент  

тупой фильмак!

10-02-2011 10:36 Убойные каникулы Скачать торрент  

10-02-2011 11:55 Убойные каникулы Скачать торрент  

Просто отпад!

Вопрос. Хочу посмотреть чёт подобное. Есть варианты?

10-02-2011 12:55 Убойные каникулы Скачать торрент  

ахахахаха__)) я посмотрел) ОТПАД!

16-02-2011 14:02 Убойные каникулы Скачать торрент  

Фильм наиглупейший. Не тратьте время, все равно больше 10 минут ни один нормальный человек ЭТО смотреть не будет!

Pекламный агент PB

17-02-2011 10:27 Убойные каникулы Скачать торрент  

Фильм просто супер, давно так не смеялась.

26-05-2011 05:30 Убойные каникулы Скачать торрент  

Забавный фильм,посмотреть стоит

29-06-2011 14:29 Убойные каникулы Скачать торрент  

слушайте откуда столько критики по моему фильм отличный и посмеяться можно и побояться вам так не кажется???

29-06-2011 17:57 Убойные каникулы Скачать торрент  

один раз можно посмотреть и поржать ,есть моменты !

29-03-2012 21:14 Убойные каникулы Скачать торрент  

Уж намного лучше серьезных ужастиков, которые смотреть просто скучно.

05-04-2012 06:47 Убойные каникулы Скачать торрент  

черная комедия паржать можно

27-04-2012 08:38 Убойные каникулы Скачать торрент  

Момент с дроворубкой - отпад))))))))))))))))))))

Дорогой пользователь! Огромная просьба, поблагодарите релизера, оцените раздачу и оставьте свои комментарий, если Вы скачали Убойные каникулы через торрент бесплатно! Внесите свою лепту в развитие PiratBit!

Комментировать посты могут только пользователи прошедшие не сложную регистрацию

Убойные каникулы через торрент Скачать бесплатно Убойные каникулы Убойные каникулы скачать торрент Убойные каникулы смотреть онлайн Cкачать фильм Убойные каникулы бесплатно Убойные каникулы скачать торрент в хорошем качестве Убойные каникулы смотреть онлайн бесплатно в хорошем качестве

Вы не можете начинать темыВы не можете отвечать на сообщенияВы не можете редактировать свои сообщенияВы не можете удалять свои сообщенияВы не можете голосовать в опросахВы не можете прикреплять файлы к сообщениямВы можете скачивать файлы

piratbit.ru

Скачать фильм Убойные каникулы через торрент в хорошем качестве бесплатно HDRip

Раздают: 4 [ 0 KB/s ]
Размер: 1.37 GB | Добавлен: 6 лет 5 мес. назад | Торрент скачан:2093 раза
Реклама Дарим 3000 рублей за регистрацию, не упусти свой шанс получить шикарный бонус!!!

04-05-2011 09:37 Убойные каникулы Скачать торрент  

Убойные каникулы / Tucker & Dale vs Evil

Год выпуска: 2010Страна: КанадаЖанр: ужасы, комедияПродолжительность: 89 мин.Перевод: Профессиональный (полное дублирование) [Лицензия]

Режиссер: Эли КрэйгПродюссер: Морган Юргенсон, Альберт Кличак, Розанн МилликенСценарий: Морган Юргенсон, Эли Крэйг

Мировой рейтинг IMDB 7.70 (5 324)

В ролях: Тайлер Лэбин, Алан Тьюдик, Катрина Боуден, Джесси Мосс, Филип Грэйнджер, Брэндон Джей МакЛарен, Кристи Лэйн, Челан Симмонс, Трэвис Нельсон, Алекс Арсе

Описание: Группа студентов колледжа отправляется за город, чтобы вовсю оторваться на выходных: попить пивка, поплавать в озере и подышать чистым лесным воздухом. Но уже в первый день они сталкиваются с неотесанными фермерами Такером и Дэйлом, также решившими как следует оттянуться на природе. Приняв этих диковатых, но, в сущности, симпатичных ребят за «злобных местных», горожане решают дать деревенщине жесткий отпор. Но с каждым их шагом становится только хуже…

Качество: HDRipФормат: AVIВидео кодек: XviDАудио кодек: AC3Видео: 720x304, 1753 kbps, 23,976 кадр/сек, 0.334 Бит/(Пиксели*Кадры)Аудио: AC3, 448 Кбит/сек (6ch)

           

Скачать Убойные каникулы через торрент http://pic.pb.wtf/images/8/u2vts.jpg Скачать фильм Убойные каникулы через торрент бесплантно в хорошем качестве Описание: Группа студентов колледжа отправляется за город, чтобы вовсю оторваться на выходных: попить пивка, поплавать в озере и подышать ... 2011-05-04 09:37 10 10 26

Loading...

Loading...

Рекламный пират

04-05-2011 11:14 Убойные каникулы Скачать торрент  

Раздача идет, только почему-то не пишет никак, что есть источник!Я на раздаче 24/7!

04-05-2011 13:05 Убойные каникулы Скачать торрент  

Да, кин неплохой советую!

17-06-2011 23:28 Убойные каникулы Скачать торрент  

жесткий фильм!!! качайте!!:))

01-05-2012 08:11 Убойные каникулы Скачать торрент  

Фильм отличный!!!Советую всем!

16-11-2014 14:39 Убойные каникулы Скачать торрент  

классный фильм

16-11-2014 14:40 Убойные каникулы Скачать торрент  

Прикольный киньчик ) гляньте обязательно

Дорогой пользователь! Огромная просьба, поблагодарите релизера, оцените раздачу и оставьте свои комментарий, если Вы скачали Убойные каникулы через торрент бесплатно! Внесите свою лепту в развитие PiratBit!

Комментировать посты могут только пользователи прошедшие не сложную регистрацию

Убойные каникулы через торрент Скачать бесплатно Убойные каникулы Убойные каникулы скачать торрент Убойные каникулы смотреть онлайн Cкачать фильм Убойные каникулы бесплатно Убойные каникулы скачать торрент в хорошем качестве Убойные каникулы смотреть онлайн бесплатно в хорошем качестве

Вы не можете начинать темыВы не можете отвечать на сообщенияВы не можете редактировать свои сообщенияВы не можете удалять свои сообщенияВы не можете голосовать в опросахВы не можете прикреплять файлы к сообщениямВы можете скачивать файлы

piratbit.ru


Смотрите также