Дракула скачать через торрент бесплатно в хорошем качестве


Скачать фильм Дракула (1992) через торрент

gig-torrent.net

3 июня 2016 06:54 Дракула Брэма Стокера / Bram Stokers Dracula (1992) BDRip 720p | Mastered in 4K | D, P, A .torrent   [Информация о файле (нажмите для просмотра)] Перевод: Профессиональный (дублированный) Blu-ray EUR + Профессиональный (дублированный) Невафильм + Профессиональный (многоголосый, закадровый) Видеосервис + Профессиональный (многоголосый, закадровый) Супербит + Авторский (одноголосый, закадровый) А.Михалёв + Авторский (одноголосый, закадровый) Ю.Сербин + Авторский (одноголосый, закадровый) Л.Володарский + Авторский (одноголосый, закадровый) В.Горчаков + Профессиональный (многоголосый, закадровый) Так Треба Продакшн + Профессиональный (многоголосый, закадровый) МоваФормат: MatroskaВидео: 1280x692 at 23.976 fps, [email protected], ~7752 kbps avgАудио#1: Russian: 48 kHz, AC3, 4/0 (L,C,R,Back:C) ch, ~640.00 kbps avg |Дубляж, Blu-ray EUR|Аудио#2: Russian: 48 kHz, AC3, 2/0 (L,R) ch, ~192.00 kbps avg |Дубляж, Невафильм|Аудио#3: Russian: 48 kHz, AC3, 3/2 (L,C,R,l,r) + LFE ch, ~384.00 kbps avg |Многоголосый закадровый, Видеосервис|Аудио#4: Russian: 48 kHz, DTS, 3/2 (L,C,R,l,r) + LFE ch, ~755.00 kbps avg |Многоголосый закадровый, Супербит|Аудио#5: Russian: 48 kHz, DTS, 3/2 (L,C,R,l,r) + LFE ch, ~1509.00 kbps avg |Авторский, А. Михалёв|Аудио#6: Russian: 48 kHz, AC3, 3/2 (L,C,R,l,r) + LFE ch, ~320.00 kbps avg |Авторский, Ю. Сербин|Аудио#7: Russian: 48 kHz, AC3, 3/2 (L,C,R,l,r) + LFE ch, ~384.00 kbps avg |Авторский, Л. Володарский|Аудио#8: Russian: 48 kHz, AC3, 3/2 (L,C,R,l,r) + LFE ch, ~320.00 kbps avg |Авторский, В. Горчаков|Аудио#9: Ukrainian: 48 kHz, AC3, 2/0 (L,R) ch, ~192.00 kbps avg |Многоголосый закадровый, Так Треба Продакшн|Аудио#10: Ukrainian: 48 kHz, AC3, 2/0 (L,R) ch, ~192.00 kbps avg |Многоголосый закадровый, Мова|Аудио#11: English: 48 kHz, DTS, 3/2 (L,C,R,l,r) + LFE ch, ~1509.00 kbps avgАудио#12: English: 48 kHz, AC3, 2/0 (L,R) ch, ~192.00 kbps avg |Commentary with Francis Ford Coppola, Roman Coppola and Greg Cannom|Аудио#13: English: 48 kHz, AC3, 2/0 (L,R) ch, ~192.00 kbps avg |Commentary with Director Francis Ford Coppola|Видео: Идентификатор : 1 Формат : AVC Формат/Информация : Advanced Video Codec Профиль формата : [email protected] Параметр CABAC формата : Да Параметр ReFrames формата : 9 кадров Идентификатор кодека : V_MPEG4/ISO/AVC Продолжительность : 2 ч. 7 м. Битрейт : 7752 Кбит/сек Ширина : 1280 пикселей Высота : 692 пикселя Соотношение сторон : 1,85:1 Режим частоты кадров : Постоянный Частота кадров : 23,976 кадра/сек Цветовое пространство : YUV Субдискретизация насыщенности : 4:2:0 Битовая глубина : 8 бит Тип развёртки : Прогрессивная Бит/(Пиксели*Кадры) : 0.365 Размер потока : 6,90 Гбайт (52%) Заголовок : Dracula.1992.720p.BluRay.DD5.1.x264-VietHD Библиотека кодирования : x264 core 148 r2597.9 1808e2a VietHD_Custom_64 Настройки программы : cabac=1 / ref=9 / deblock=1:-3:-3 / analyse=0x3:0x133 / me=umh / subme=10 / psy=1 / fade_compensate=0.00 / psy_rd=1.15:0.00 / mixed_ref=1 / me_range=24 / chroma_me=1 / trellis=2 / 8x8dct=1 / cqm=0 / deadzone=21,11 / fast_pskip=0 / chroma_qp_offset=-2 / threads=12 / lookahead_threads=3 / sliced_threads=0 / nr=0 / decimate=0 / interlaced=0 / bluray_compat=0 / constrained_intra=0 / fgo=0 / bframes=10 / b_pyramid=2 / b_adapt=2 / b_bias=0 / direct=3 / weightb=1 / open_gop=0 / weightp=2 / keyint=250 / keyint_min=23 / scenecut=40 / intra_refresh=0 / rc_lookahead=60 / rc=crf / mbtree=0 / crf=16.7000 / qcomp=0.60 / qpmin=0:0:0 / qpmax=69:69:69 / qpstep=4 / vbv_maxrate=62500 / vbv_bufsize=78125 / crf_max=0.0 / nal_hrd=none / filler=0 / ip_ratio=1.40 / pb_ratio=1.30 / aq=3:0.65 / aq-sensitivity=10.00 / aq-factor=1.00:1.00:1.00 / aq2=0 / aq3=0 Язык : English Default : Да Forced : НетАудио #1: Идентификатор : 2 Формат : AC-3 Формат/Информация : Audio Coding 3 Расширение режима : CM (complete main) Параметр Endianness формата : Big Идентификатор кодека : A_AC3 Продолжительность : 2 ч. 7 м. Вид битрейта : Постоянный Битрейт : 640 Кбит/сек Каналы : 4 канала Расположение каналов : Front: L C R, Back: C Частота : 48,0 КГц Метод сжатия : С потерями Размер потока : 583 Мбайт (4%) Заголовок : Dubbed, BD EUR Язык : Russian Default : Да Forced : НетАудио #2: Идентификатор : 3 Формат : AC-3 Формат/Информация : Audio Coding 3 Расширение режима : CM (complete main) Параметр Endianness формата : Big Идентификатор кодека : A_AC3 Продолжительность : 2 ч. 7 м. Вид битрейта : Постоянный Битрейт : 192 Кбит/сек Каналы : 2 канала Расположение каналов : Front: L R Частота : 48,0 КГц Метод сжатия : С потерями Размер потока : 175 Мбайт (1%) Заголовок : Dubbed, Nevafilm Язык : Russian Default : Нет Forced : НетАудио #3: Идентификатор : 4 Формат : AC-3 Формат/Информация : Audio Coding 3 Расширение режима : CM (complete main) Параметр Endianness формата : Big Идентификатор кодека : A_AC3 Продолжительность : 2 ч. 7 м. Вид битрейта : Постоянный Битрейт : 384 Кбит/сек Каналы : 6 каналов Расположение каналов : Front: L C R, Side: L R, LFE Частота : 48,0 КГц Метод сжатия : С потерями Размер потока : 350 Мбайт (3%) Заголовок : MVO, Видеосервис Язык : Russian Default : Нет Forced : НетАудио #4: Идентификатор : 5 Формат : DTS Формат/Информация : Digital Theater Systems Режим : 16 Параметр Endianness формата : Big Идентификатор кодека : A_DTS Продолжительность : 2 ч. 7 м. Вид битрейта : Постоянный Битрейт : 755 Кбит/сек Каналы : 6 каналов Расположение каналов : Front: L C R, Side: L R, LFE Частота : 48,0 КГц Битовая глубина : 24 бит Метод сжатия : С потерями Размер потока : 687 Мбайт (5%) Заголовок : MVO, Супербит Язык : Russian Default : Нет Forced : НетАудио #5: Идентификатор : 6 Формат : DTS Формат/Информация : Digital Theater Systems Режим : 16 Параметр Endianness формата : Big Идентификатор кодека : A_DTS Продолжительность : 2 ч. 7 м. Вид битрейта : Постоянный Битрейт : 1509 Кбит/сек Каналы : 6 каналов Расположение каналов : Front: L C R, Side: L R, LFE Частота : 48,0 КГц Битовая глубина : 24 бит Метод сжатия : С потерями Размер потока : 1,34 Гбайт (10%) Заголовок : AVO, А.Михалёв Язык : Russian Default : Нет Forced : НетАудио #6: Идентификатор : 7 Формат : AC-3 Формат/Информация : Audio Coding 3 Расширение режима : CM (complete main) Параметр Endianness формата : Big Идентификатор кодека : A_AC3 Продолжительность : 2 ч. 7 м. Вид битрейта : Постоянный Битрейт : 320 Кбит/сек Каналы : 6 каналов Расположение каналов : Front: L C R, Side: L R, LFE Частота : 48,0 КГц Метод сжатия : С потерями Размер потока : 292 Мбайт (2%) Заголовок : AVO, Ю.Сербин Язык : Russian Default : Нет Forced : НетАудио #7: Идентификатор : 8 Формат : AC-3 Формат/Информация : Audio Coding 3 Расширение режима : CM (complete main) Параметр Endianness формата : Big Идентификатор кодека : A_AC3 Продолжительность : 2 ч. 7 м. Вид битрейта : Постоянный Битрейт : 384 Кбит/сек Каналы : 6 каналов Расположение каналов : Front: L C R, Side: L R, LFE Частота : 48,0 КГц Метод сжатия : С потерями Размер потока : 350 Мбайт (3%) Заголовок : AVO, Л.Володарский Язык : Russian Default : Нет Forced : НетАудио #8: Идентификатор : 9 Формат : AC-3 Формат/Информация : Audio Coding 3 Расширение режима : CM (complete main) Параметр Endianness формата : Big Идентификатор кодека : A_AC3 Продолжительность : 2 ч. 7 м. Вид битрейта : Постоянный Битрейт : 320 Кбит/сек Каналы : 6 каналов Расположение каналов : Front: L C R, Side: L R, LFE Частота : 48,0 КГц Метод сжатия : С потерями Размер потока : 292 Мбайт (2%) Заголовок : AVO, В.Горчаков Язык : Russian Default : Нет Forced : НетАудио #9: Идентификатор : 10 Формат : AC-3 Формат/Информация : Audio Coding 3 Профиль формата : Dolby Digital Расширение режима : CM (complete main) Параметр Endianness формата : Big Идентификатор кодека : A_AC3 Продолжительность : 2 ч. 7 м. Вид битрейта : Постоянный Битрейт : 192 Кбит/сек Каналы : 2 канала Расположение каналов : Front: L R Частота : 48,0 КГц Метод сжатия : С потерями Размер потока : 175 Мбайт (1%) Заголовок : MVO - "Так Треба Продакшн" Язык : Ukrainian Default : Нет Forced : НетАудио #10: Идентификатор : 11 Формат : AC-3 Формат/Информация : Audio Coding 3 Профиль формата : Dolby Digital Расширение режима : CM (complete main) Параметр Endianness формата : Big Идентификатор кодека : A_AC3 Продолжительность : 2 ч. 7 м. Вид битрейта : Постоянный Битрейт : 192 Кбит/сек Каналы : 2 канала Расположение каналов : Front: L R Частота : 48,0 КГц Метод сжатия : С потерями Размер потока : 175 Мбайт (1%) Заголовок : MVO - "Мова" Язык : Ukrainian Default : Нет Forced : НетАудио #11: Идентификатор : 12 Формат : DTS Формат/Информация : Digital Theater Systems Режим : 16 Параметр Endianness формата : Big Идентификатор кодека : A_DTS Продолжительность : 2 ч. 7 м. Вид битрейта : Постоянный Битрейт : 1509 Кбит/сек Каналы : 6 каналов Расположение каналов : Front: L C R, Side: L R, LFE Частота : 48,0 КГц Битовая глубина : 24 бит Метод сжатия : С потерями Размер потока : 1,34 Гбайт (10%) Язык : English Default : Нет Forced : НетАудио #12: Идентификатор : 13 Формат : AC-3 Формат/Информация : Audio Coding 3 Профиль формата : Dolby Digital Расширение режима : CM (complete main) Параметр Endianness формата : Big Идентификатор кодека : A_AC3 Продолжительность : 2 ч. 7 м. Вид битрейта : Постоянный Битрейт : 192 Кбит/сек Каналы : 2 канала Расположение каналов : Front: L R Частота : 48,0 КГц Метод сжатия : С потерями Размер потока : 175 Мбайт (1%) Заголовок : Commentary with Francis Ford Coppola, Roman Coppola and Greg Cannom Язык : English Default : Нет Forced : НетАудио #13: Идентификатор : 14 Формат : AC-3 Формат/Информация : Audio Coding 3 Профиль формата : Dolby Digital Расширение режима : CM (complete main) Параметр Endianness формата : Big Идентификатор кодека : A_AC3 Продолжительность : 2 ч. 7 м. Вид битрейта : Постоянный Битрейт : 192 Кбит/сек Каналы : 2 канала Расположение каналов : Front: L R Частота : 48,0 КГц Метод сжатия : С потерями Размер потока : 175 Мбайт (1%) Заголовок : Commentary with Director Francis Ford Coppola Язык : English Default : Нет Forced : Нет 13,19 Gb 12 6
3 июня 2016 06:54 Дракула / Dracula (1992) Blu-ray CEE 1080p | 4K Remastered | D .torrent   [Информация о файле (нажмите для просмотра)] Перевод: Профессиональный (полное дублирование) + Чешский + Немецкий + Венгерский + Итальянский + Польский + Испанский + Оригинал (Английский) + КомментарииСубтитры: Английский, Арабский, Болгарский, Хорватский, Чешский, Датский, Финский, Немецкий, Греческий, Иврит, Хинди, Венгерский, Исландский, Итальянский, Норвежский, Польский, Португальский, Румынский, Словенский, Испанский, Шведский, Турецкий[PGS]Качество: Blu-ray CEE 1080pФормат: BDMVВидео: 1920x1080 (16:9), 23.976 fps, MPEG-4 AVC Video, ~23299 kbps, High Profile 4.1Аудио#1: DTS-HD Master Audio English 2367 kbps 5.1 / 48 kHz / 2367 kbps / 16-bit (DTS Core: 5.1 / 48 kHz / 1509 kbps / 16-bit)Аудио#2: Dolby Digital Audio Czech 640 kbps 5.1 / 48 kHz / 640 kbpsАудио#3: Dolby Digital Audio German 640 kbps 5.1 / 48 kHz / 640 kbpsАудио#4: Dolby Digital Audio Hungarian 640 kbps 5.1 / 48 kHz / 640 kbpsАудио#5: Dolby Digital Audio Italian 640 kbps 5.1 / 48 kHz / 640 kbpsАудио#6: Dolby Digital Audio Polish 640 kbps 5.1 / 48 kHz / 640 kbpsАудио#7: Dolby Digital Audio Russian 448 kbps 4.0 / 48 kHz / 448 kbps |Профессиональный (полное дублирование)|Аудио#8: Dolby Digital Audio Spanish 640 kbps 5.1 / 48 kHz / 640 kbpsАудио#9: Dolby Digital Audio English 192 kbps 2.0 / 48 kHz / 192 kbps / Dolby Surround |Commentary with Francis Ford Coppola, Roman Coppola, and Greg Cannom|Аудио#10: Dolby Digital Audio English 192 kbps 2.0 / 48 kHz / 192 kbps / Dolby Surround |Audio Commentary and Film Introduction by Director Francis Ford Coppola| 45,17 Gb 4 5
3 июня 2016 06:54 Дракула / Dracula (1992) BDRip от HQ-ViDEO | 4K Remastered .torrent   [Информация о файле (нажмите для просмотра)] Перевод: Профессиональный (многоголосый, закадровый)|Видеосервис|Субтитры: Русские (полные, форсированные), Английские (полные, форсированные, SDH).Формат: AVIКачество: BDRip (источник: HDCLUB /BD-Remux / 1080p)Кодек: XviD, build 67 codecВидео: 704 x 384; 23.976 fps; 2060 kbps; 0.318 bit/pixelАудио #01: AC3 Dolby Digital; 384 Kbps; 6 channels; 48 KHzАудио #02: AC3 Dolby Digital; 384 Kbps; 4 channels; 48 KHz(отдельно, http)Аудио #03: AC3 Dolby Digital; 192 Kbps; 2 channels; 48 KHz(отдельно, http)Аудио #04: AC3 Dolby Digital; 384 Kbps; 6 channels; 48 KHz(отдельно, http)Аудио #05: AC3 Dolby Digital; 384 Kbps; 6 channels; 48 KHz(отдельно, http)Аудио #06: AC3 Dolby Digital; 384 Kbps; 6 channels; 48 KHz(отдельно, http)Аудио #07: AC3 Dolby Digital; 384 Kbps; 6 channels; 48 KHz(отдельно, http)Аудио #08: AC3 Dolby Digital; 384 Kbps; 6 channels; 48 KHz(отдельно, http)Аудио #09: AC3 Dolby Digital; 384 Kbps; 6 channels; 48 KHz(отдельно, http)Аудио #10: AC3 Dolby Digital; 384 Kbps; 6 channels; 48 KHz(отдельно, http)Аудио #11: AC3 Dolby Digital; 192 Kbps; 2 channels; 48 KHz(отдельно, http)Аудио #12: AC3 Dolby Digital; 192 Kbps; 2 channels; 48 KHz(отдельно, http)Аудио #13: AC3 Dolby Digital; 384 Kbps; 6 channels; 48 KHz(отдельно, http) 2,18 Gb 142 14
3 июня 2016 06:54 Дракула Брэма Стокера / Bram Stokers Dracula (1992) BDRemux | Remastered | D, P, A .torrent   [Информация о файле (нажмите для просмотра)] Качество: BDRemux Перевод: профессиональный (полное дублирование), профессиональный (многоголосый закадровый), авторский (одноголосый закадровый)Видео: MPEG-4 AVC/H.264, 1920x1080 (16:9), 23 299 kbps, 23.976 fpsАудио # 1: АС3, 4 ch, 640 kbps, 48 000 Hz - DUB - «FilmLinesInt» - Blu-Ray EURАудио # 2: АС3, 2 ch, 192 kbps, 48 000 Hz - DUB - «Невафильм»Аудио # 3: АС3, 6 ch, 384 kbps, 48 000 Hz - MVO - «Видеосервис»Аудио # 4: DTS-HD MA 7.1, 4452 kbps, 48 000 Hz, 24 Bit - MVO - «Супербит»Аудио # 5: DTS-HD MA 7.1, 4916 kbps, 48 000 Hz, 24 Bit - AVO - Ю.СербинАудио # 6: DTS-HD MA 7.1, 4462 kbps, 48 000 Hz, 24 Bit - AVO - А.ГавриловАудио # 7: DTS-HD MA 7.1, 4526 kbps, 48 000 Hz, 24 Bit - AVO - А.МатвеевАудио # 8: DTS-HD MA 7.1, 4542 kbps, 48 000 Hz, 24 Bit - AVO - А.МихалевАудио # 9: DTS-HD MA 7.1, 4482 kbps, 48 000 Hz, 24 Bit - AVO - Л.ВолодарскийАудио # 10: DTS-HD MA 7.1, 4407 kbps, 48 000 Hz, 24 Bit - AVO - В.ГорчаковАудио # 11: АС3, 2 ch, 192 kbps, 48 000 Hz - MVO - «Так Треба Продакшн» - УкраинскийАудио # 12: АС3, 2 ch, 192 kbps, 48 000 Hz - MVO - «Мова» - УкраинскийАудио # 13: Dolby TrueHD 7.1, 4966 kbps, 48 000 Hz, 24 Bit - Original - EnglishАудио # 14: АС3, 2 ch, 192 kbps, 48 000 Hz - «Commentary with Director Francis for Coppola, Visual effects Director Roman Coppola, and Makeup Supervisor Greg Cannon» - EnglishАудио # 15: АС3, 2 ch, 192 kbps, 48 000 Hz - «Commentary with Director Francis for Coppola» - English 61,15 Gb 3 3
3 июня 2016 06:54 Дракула Брэма Стокера / Bram Stokers Dracula (1992) BDRip-AVC | Remastered | D, P, A .torrent   [Информация о файле (нажмите для просмотра)] Перевод: Дублированный, Профессиональный многоголосый, Авторский (одноголосый)Видео: MPEG-4 AVC/H.264, 2400 Kbps, 1024x554Аудио 1: Русский AC3 4.0, 448 Kbps, 48.0 KHz (Дублированный) Blu-ray CEEАудио 2: Русский AC3 5.1, 384 Kbps, 48.0 KHz (Многоголосый закадровый) SuperbitАудио 3: Русский AC3 5.1, 384 Kbps, 48.0 KHz (Многоголосый закадровый) ВидеосервисАудио 4: Русский AC3 5.1, 384 Kbps, 48.0 KHz (Одноголосый закадровый) А. МихалевАудио 5: Русский AC3 5.1, 384 Kbps, 48.0 KHz (Одноголосый закадровый) Л. ВолодарскийАудио 6: Русский AC3 5.1, 320 Kbps, 48.0 KHz (Одноголосый закадровый) В. ГорчаковАудио 7: Русский AC3 5.1, 320 Kbps, 48.0 KHz (Одноголосый закадровый) Ю. СербинАудио 8: Английский AC3 5.1, 448 Kbps, 48.0 KHz (Оригинал)Видео: Идентификатор : 1 Формат : AVC Формат/Информация : Advanced Video Codec Профиль формата : [email protected] Параметр CABAC формата : Да Параметр ReFrames формата : 10 кадров Идентификатор кодека : V_MPEG4/ISO/AVC Продолжительность : 2 ч. 7 м. Битрейт : 2400 Кбит/сек Ширина : 1024 пикселя Высота : 554 пикселя Соотношение сторон : 1,85:1 Режим частоты кадров : Постоянный Частота кадров : 23,976 кадра/сек Цветовое пространство : YUV Субдискретизация насыщенности : 4:2:0 Битовая глубина : 8 бит Тип развёртки : Прогрессивная Бит/(Пиксели*Кадры) : 0.176 Размер потока : 2,04 Гбайт (42%) Заголовок : Дракула (1992) Библиотека кодирования : x264 core 146 r2538 121396c Настройки программы : cabac=1 / ref=10 / deblock=1:-3:-3 / analyse=0x3:0x133 / me=umh / subme=10 / psy=1 / psy_rd=1.00:0.10 / mixed_ref=1 / me_range=48 / chroma_me=1 / trellis=2 / 8x8dct=1 / cqm=0 / deadzone=21,11 / fast_pskip=0 / chroma_qp_offset=-3 / threads=6 / lookahead_threads=1 / sliced_threads=0 / nr=0 / decimate=1 / interlaced=0 / bluray_compat=0 / constrained_intra=0 / bframes=5 / b_pyramid=2 / b_adapt=2 / b_bias=0 / direct=3 / weightb=1 / open_gop=0 / weightp=2 / keyint=230 / keyint_min=22 / scenecut=40 / intra_refresh=0 / rc_lookahead=40 / rc=2pass / mbtree=1 / bitrate=2400 / ratetol=1.0 / qcomp=0.60 / qpmin=10 / qpmax=51 / qpstep=4 / cplxblur=20.0 / qblur=0.5 / ip_ratio=1.40 / aq=1:1.00 Язык : English Default : Да Forced : НетАудио #1: Идентификатор : 2 Формат : AC-3 Формат/Информация : Audio Coding 3 Расширение режима : CM (complete main) Параметр Endianness формата : Big Идентификатор кодека : A_AC3 Продолжительность : 2 ч. 7 м. Вид битрейта : Постоянный Битрейт : 448 Кбит/сек Каналы : 4 канала Расположение каналов : Front: L C R, Back: C Частота : 48,0 КГц Метод сжатия : С потерями Размер потока : 408 Мбайт (8%) Заголовок : AC3 (Дублированный) Blu-ray CEE Язык : Russian Default : Да Forced : НетАудио #2: Идентификатор : 3 Формат : AC-3 Формат/Информация : Audio Coding 3 Расширение режима : CM (complete main) Параметр Endianness формата : Big Идентификатор кодека : A_AC3 Продолжительность : 2 ч. 7 м. Вид битрейта : Постоянный Битрейт : 384 Кбит/сек Каналы : 6 каналов Расположение каналов : Front: L C R, Side: L R, LFE Частота : 48,0 КГц Метод сжатия : С потерями Задержка видео : 24 мс. Размер потока : 350 Мбайт (7%) Заголовок : AC3 (Многоголосый) Superbit Язык : Russian Default : Нет Forced : НетАудио #3: Идентификатор : 4 Формат : AC-3 Формат/Информация : Audio Coding 3 Расширение режима : CM (complete main) Параметр Endianness формата : Big Идентификатор кодека : A_AC3 Продолжительность : 2 ч. 7 м. Вид битрейта : Постоянный Битрейт : 384 Кбит/сек Каналы : 6 каналов Расположение каналов : Front: L C R, Side: L R, LFE Частота : 48,0 КГц Метод сжатия : С потерями Задержка видео : 24 мс. Размер потока : 350 Мбайт (7%) Заголовок : AC3 (Многоголосый) Видеосервис Язык : Russian Default : Нет Forced : НетАудио #4: Идентификатор : 5 Формат : AC-3 Формат/Информация : Audio Coding 3 Расширение режима : CM (complete main) Параметр Endianness формата : Big Идентификатор кодека : A_AC3 Продолжительность : 2 ч. 7 м. Вид битрейта : Постоянный Битрейт : 384 Кбит/сек Каналы : 6 каналов Расположение каналов : Front: L C R, Side: L R, LFE Частота : 48,0 КГц Метод сжатия : С потерями Задержка видео : 24 мс. Размер потока : 350 Мбайт (7%) Заголовок : AC3 (Одноголосый) А. Михалев Язык : Russian Default : Нет Forced : НетАудио #5: Идентификатор : 6 Формат : AC-3 Формат/Информация : Audio Coding 3 Расширение режима : CM (complete main) Параметр Endianness формата : Big Идентификатор кодека : A_AC3 Продолжительность : 2 ч. 7 м. Вид битрейта : Постоянный Битрейт : 384 Кбит/сек Каналы : 6 каналов Расположение каналов : Front: L C R, Side: L R, LFE Частота : 48,0 КГц Метод сжатия : С потерями Задержка видео : 24 мс. Размер потока : 350 Мбайт (7%) Заголовок : AC3 (Одноголосый) Л. Володарский Язык : Russian Default : Нет Forced : НетАудио #6: Идентификатор : 7 Формат : AC-3 Формат/Информация : Audio Coding 3 Расширение режима : CM (complete main) Параметр Endianness формата : Big Идентификатор кодека : A_AC3 Продолжительность : 2 ч. 7 м. Вид битрейта : Постоянный Битрейт : 320 Кбит/сек Каналы : 6 каналов Расположение каналов : Front: L C R, Side: L R, LFE Частота : 48,0 КГц Метод сжатия : С потерями Задержка видео : 24 мс. Размер потока : 292 Мбайт (6%) Заголовок : AC3 (Одноголосый) В. Горчаков Язык : Russian Default : Нет Forced : НетАудио #7: Идентификатор : 8 Формат : AC-3 Формат/Информация : Audio Coding 3 Расширение режима : CM (complete main) Параметр Endianness формата : Big Идентификатор кодека : A_AC3 Продолжительность : 2 ч. 7 м. Вид битрейта : Постоянный Битрейт : 320 Кбит/сек Каналы : 6 каналов Расположение каналов : Front: L C R, Side: L R, LFE Частота : 48,0 КГц Метод сжатия : С потерями Задержка видео : 24 мс. Размер потока : 292 Мбайт (6%) Заголовок : AC3 (Одноголосый) Ю. Сербин Язык : Russian Default : Нет Forced : НетАудио #8: Идентификатор : 9 Формат : AC-3 Формат/Информация : Audio Coding 3 Расширение режима : CM (complete main) Параметр Endianness формата : Big Идентификатор кодека : A_AC3 Продолжительность : 2 ч. 7 м. Вид битрейта : Постоянный Битрейт : 448 Кбит/сек Каналы : 6 каналов Расположение каналов : Front: L C R, Side: L R, LFE Частота : 48,0 КГц Метод сжатия : С потерями Размер потока : 408 Мбайт (8%) Заголовок : AC3 (Оригинал) Язык : English Default : Нет Forced : Нет 4,87 Gb 11 4
3 июня 2016 06:53 Дракула Брэма Стокера / Bram Stokers Dracula (1992) BDRip 1080p от NNNB | 4K Remastered | D, P, A .torrent   [Информация о файле (нажмите для просмотра)] Перевод: Дублированный, Профессиональный многоголосый, Авторский (одноголосый)Качество: BDRip 1080pФормат: AVC (библиотека кодирования x.264)Видео: 1920x1038, 13500 Кбит/сек, 23,976 кадр/сек, 0,283 Бит/[Пиксели*Кадры]Аудио №1: русский / AC3 / 4 / 48 kHz / 640 kbps / 16 bit|Дублированный, BD EUR| Аудио №2: русский / AC3 / 5.1 / 48 kHz / 384 kbps / 16 bit|Профессиональный многоголосый - Видеосервис| Аудио №3: русский / AC3 / 5.1 / 48 kHz / 448 kbps / 16 bit|Профессиональный многоголосый - Супербит| Аудио №4: русский / AC3 / 5.1 / 48 kHz / 640 kbps / 16 bit|Авторский, А.Михалёв| Аудио №5: русский / AC3 / 5.1 / 48 kHz / 320 kbps / 16 bit|Авторский, Ю.Сербин| Аудио №6: русский / AC3 / 5.1 / 48 kHz / 384 kbps / 16 bit|Авторский, Л.Володарский| Аудио №7: русский / AC3 / 5.1 / 48 kHz / 320 kbps / 16 bit|Авторский, В.Горчаков| Аудио №8: английский / AC3 / 5.1 / 48 kHz / 640 kbps / 16 bitСубтитры: русские (Forced), русские, английские 15,37 Gb 13 4
3 июня 2016 06:53 Дракула Брэма Стокера / Bram Stokers Dracula (1992) BDRip-AVC от MediaClub | D, P, A .torrent   [Информация о файле (нажмите для просмотра)] Перевод: Дублированный, профессиональный многоголосый, авторский одноголосый, украинскийКодек: MPEG-4 AVCКачество: BDRip-AVCВидео: 1800 Кбит/с, 1024х554, 23.976 кадр/сЗвук: Аудио #1: Русский (AC3, 6 ch, 448 Кбит/с) / Дублированный (FilmlinesInt)Аудио #2: Русский (AC3, 2 ch, 192 Кбит/с) / Дублированный (Nevafilm)Аудио #3: Русский (AC3, 6 ch, 448 Кбит/с) / Профессиональный многоголосый (R5)Аудио #4: Русский (AC3, 6 ch, 448 Кбит/с) / Профессиональный многоголосый (Superbit)Аудио #5: Русский (AC3, 6 ch, 448 Кбит/с) / Авторский одноголосый (В. Горчаков)Аудио #6: Русский (AC3, 6 ch, 448 Кбит/с) / Авторский одноголосый (А. Михалев)Аудио #7: Русский (AC3, 6 ch, 448 Кбит/с) / Авторский одноголосый (Ю. Сербин)Аудио #8: Русский (AC3, 6 ch, 448 Кбит/с) / Авторский одноголосый (Л. Володарский)Аудио #9: Украинский (AC3, 6 ch, 384 Кбит/с) / Профессиональный многоголосый (ТакТребаПродакшн)Аудио #10: Украинский (AC3, 6 ch, 384 Кбит/с) / Профессиональный многоголосый (ТРК "Украина")Аудио #11: Английский (AC3, 6 ch, 448 Кбит/с)Субтитры: Русские (полные, форсированные), английскиеВидео: Идентификатор : 1 Формат : AVC Формат/Информация : Advanced Video Codec Профиль формата : [email protected] Параметр CABAC формата : Да Параметр ReFrames формата : 9 кадров Идентификатор кодека : V_MPEG4/ISO/AVC Продолжительность : 2 ч. 7 м. Битрейт : 1664 Кбит/сек Номинальный битрейт : 1800 Кбит/сек Ширина : 1024 пикселя Высота : 554 пикселя Соотношение сторон : 1,85:1 Режим частоты кадров : Постоянный Частота кадров : 23,976 кадра/сек Цветовое пространство : YUV Субдискретизация насыщенности : 4:2:0 Битовая глубина : 8 бит Тип развёртки : Прогрессивная Бит/(Пиксели*Кадры) : 0.122 Размер потока : 1,48 Гбайт (26%) Заголовок : Drakula.Brjema.Stokera.1992.x264.BDRip.AVC.MediaClub Библиотека кодирования : x264 core 142 r2409+42 04be48a tMod [[email protected]:2:0 X86] Настройки программы : cabac=1 / ref=9 / deblock=1:-2:-2 / analyse=0x3:0x133 / me=umh / subme=11 / psy=1 / fade_compensate=0.00 / psy_rd=1.00:0.15 / mixed_ref=1 / me_range=32 / chroma_me=1 / trellis=2 / 8x8dct=1 / cqm=0 / deadzone=21,11 / fast_pskip=0 / chroma_qp_offset=-3 / threads=6 / lookahead_threads=1 / sliced_threads=0 / nr=0 / decimate=0 / interlaced=0 / bluray_compat=0 / constrained_intra=0 / fgo=0 / bframes=8 / b_pyramid=2 / b_adapt=2 / b_bias=0 / direct=3 / weightb=1 / open_gop=0 / weightp=2 / keyint=240 / keyint_min=23 / scenecut=40 / intra_refresh=0 / rc=2pass / mbtree=0 / bitrate=1800 / ratetol=1.0 / qcomp=0.60 / qpmin=0:0:0 / qpmax=69:69:69 / qpstep=4 / cplxblur=20.0 / qblur=0.5 / ip_ratio=1.40 / pb_ratio=1.30 / aq=1:1.00 / aq-sensitivity=10.00 / aq-factor=1.00:1.00:1.00 / aq2=0 / aq3=0 Язык : English Default : Да Forced : ДаАудио #1: Идентификатор : 2 Формат : AC-3 Формат/Информация : Audio Coding 3 Расширение режима : CM (complete main) Параметр Endianness формата : Big Идентификатор кодека : A_AC3 Продолжительность : 2 ч. 7 м. Вид битрейта : Постоянный Битрейт : 448 Кбит/сек Каналы : 6 каналов Расположение каналов : Front: L C R, Side: L R, LFE Частота : 48,0 КГц Битовая глубина : 16 бит Метод сжатия : С потерями Размер потока : 408 Мбайт (7%) Заголовок : TRACK_01_DUB_RUS_FilmlinesInt Язык : Russian Default : Да Forced : ДаАудио #2: Идентификатор : 3 Формат : AC-3 Формат/Информация : Audio Coding 3 Расширение режима : CM (complete main) Параметр Endianness формата : Big Идентификатор кодека : A_AC3 Продолжительность : 2 ч. 7 м. Вид битрейта : Постоянный Битрейт : 192 Кбит/сек Каналы : 2 канала Расположение каналов : Front: L R Частота : 48,0 КГц Битовая глубина : 16 бит Метод сжатия : С потерями Размер потока : 175 Мбайт (3%) Заголовок : TRACK_02_DUB_RUS_Nevafilm Язык : Russian Default : Нет Forced : НетАудио #3: Идентификатор : 4 Формат : AC-3 Формат/Информация : Audio Coding 3 Расширение режима : CM (complete main) Параметр Endianness формата : Big Идентификатор кодека : A_AC3 Продолжительность : 2 ч. 7 м. Вид битрейта : Постоянный Битрейт : 448 Кбит/сек Каналы : 6 каналов Расположение каналов : Front: L C R, Side: L R, LFE Частота : 48,0 КГц Битовая глубина : 16 бит Метод сжатия : С потерями Размер потока : 408 Мбайт (7%) Заголовок : TRACK_03_MVO_RUS_R5 Язык : Russian Default : Нет Forced : НетАудио #4: Идентификатор : 5 Формат : AC-3 Формат/Информация : Audio Coding 3 Расширение режима : CM (complete main) Параметр Endianness формата : Big Идентификатор кодека : A_AC3 Продолжительность : 2 ч. 7 м. Вид битрейта : Постоянный Битрейт : 448 Кбит/сек Каналы : 6 каналов Расположение каналов : Front: L C R, Side: L R, LFE Частота : 48,0 КГц Битовая глубина : 16 бит Метод сжатия : С потерями Размер потока : 408 Мбайт (7%) Заголовок : TRACK_04_MVO_RUS_Superbit Язык : Russian Default : Нет Forced : НетАудио #5: Идентификатор : 6 Формат : AC-3 Формат/Информация : Audio Coding 3 Расширение режима : CM (complete main) Параметр Endianness формата : Big Идентификатор кодека : A_AC3 Продолжительность : 2 ч. 7 м. Вид битрейта : Постоянный Битрейт : 448 Кбит/сек Каналы : 6 каналов Расположение каналов : Front: L C R, Side: L R, LFE Частота : 48,0 КГц Битовая глубина : 16 бит Метод сжатия : С потерями Размер потока : 408 Мбайт (7%) Заголовок : TRACK_05_AVO_RUS_Gorchakov Язык : Russian Default : Нет Forced : НетАудио #6: Идентификатор : 7 Формат : AC-3 Формат/Информация : Audio Coding 3 Расширение режима : CM (complete main) Параметр Endianness формата : Big Идентификатор кодека : A_AC3 Продолжительность : 2 ч. 7 м. Вид битрейта : Постоянный Битрейт : 448 Кбит/сек Каналы : 6 каналов Расположение каналов : Front: L C R, Side: L R, LFE Частота : 48,0 КГц Битовая глубина : 16 бит Метод сжатия : С потерями Размер потока : 408 Мбайт (7%) Заголовок : TRACK_06_AVO_RUS_Mihalev Язык : Russian Default : Нет Forced : НетАудио #7: Идентификатор : 8 Формат : AC-3 Формат/Информация : Audio Coding 3 Расширение режима : CM (complete main) Параметр Endianness формата : Big Идентификатор кодека : A_AC3 Продолжительность : 2 ч. 7 м. Вид битрейта : Постоянный Битрейт : 448 Кбит/сек Каналы : 6 каналов Расположение каналов : Front: L C R, Side: L R, LFE Частота : 48,0 КГц Битовая глубина : 16 бит Метод сжатия : С потерями Размер потока : 408 Мбайт (7%) Заголовок : TRACK_07_AVO_RUS_Serbin Язык : Russian Default : Нет Forced : НетАудио #8: Идентификатор : 9 Формат : AC-3 Формат/Информация : Audio Coding 3 Расширение режима : CM (complete main) Параметр Endianness формата : Big Идентификатор кодека : A_AC3 Продолжительность : 2 ч. 7 м. Вид битрейта : Постоянный Битрейт : 448 Кбит/сек Каналы : 6 каналов Расположение каналов : Front: L C R, Side: L R, LFE Частота : 48,0 КГц Битовая глубина : 16 бит Метод сжатия : С потерями Размер потока : 408 Мбайт (7%) Заголовок : TRACK_08_AVO_RUS_Volodarskij Язык : Russian Default : Нет Forced : НетАудио #9: Идентификатор : 10 Формат : AC-3 Формат/Информация : Audio Coding 3 Расширение режима : CM (complete main) Параметр Endianness формата : Big Идентификатор кодека : A_AC3 Продолжительность : 2 ч. 7 м. Вид битрейта : Постоянный Битрейт : 384 Кбит/сек Каналы : 6 каналов Расположение каналов : Front: L C R, Side: L R, LFE Частота : 48,0 КГц Битовая глубина : 16 бит Метод сжатия : С потерями Размер потока : 350 Мбайт (6%) Заголовок : TRACK_09_MVO_UKR_TTP Язык : Ukrainian Default : Нет Forced : НетАудио #10: Идентификатор : 11 Формат : AC-3 Формат/Информация : Audio Coding 3 Расширение режима : CM (complete main) Параметр Endianness формата : Big Идентификатор кодека : A_AC3 Продолжительность : 2 ч. 7 м. Вид битрейта : Постоянный Битрейт : 384 Кбит/сек Каналы : 6 каналов Расположение каналов : Front: L C R, Side: L R, LFE Частота : 48,0 КГц Битовая глубина : 16 бит Метод сжатия : С потерями Размер потока : 350 Мбайт (6%) Заголовок : TRACK_10_MVO_UKR_TRK_Ukraina Язык : Ukrainian Default : Нет Forced : НетАудио #11: Идентификатор : 12 Формат : AC-3 Формат/Информация : Audio Coding 3 Расширение режима : CM (complete main) Параметр Endianness формата : Big Идентификатор кодека : A_AC3 Продолжительность : 2 ч. 7 м. Вид битрейта : Постоянный Битрейт : 448 Кбит/сек Каналы : 6 каналов Расположение каналов : Front: L C R, Side: L R, LFE Частота : 48,0 КГц Битовая глубина : 16 бит Метод сжатия : С потерями Размер потока : 408 Мбайт (7%) Заголовок : TRACK_11_ORIGINAL_ENG Язык : English Default : Нет Forced : Нет 5,64 Gb 3 2
3 июня 2016 06:53 Дракула Брэма Стокера / Bram Stokers Dracula (1992) BDRip 720p от MediaClub | D, P, A .torrent   [Информация о файле (нажмите для просмотра)] Перевод: Дублированный, профессиональный многоголосый, авторскийКодек: MPEG-4 AVCКачество: BDRip 720pВидео: 4124 Кбит/с, 1280х692Звук: Аудио #1: Русский (AC3, 2 ch, 192 Кбит/с) / Дублированный (Невафильм) (Кинотеатральный) Аудио #2: Русский (AC3, 4 ch, 448 Кбит/с) / Дублированный (BD-CEE) Аудио #3: Русский (AC3, 6 ch, 448 Кбит/с) / Дублированный (DVD Киномания) Аудио #4: Русский (AC3, 6 ch, 448 Кбит/с) / Профессиональный многоголосый (Superbit) Аудио #5: Русский (AC3, 6 ch, 448 Кбит/с) / Профессиональный многоголосый (R5) Аудио #6: Русский (AC3, 6 ch, 448 Кбит/с) / Профессиональный многоголосый (Видеосервис v 1.0) Аудио #7: Русский (AC3, 6 ch, 448 Кбит/с) / Профессиональный многоголосый (Видеосервис v 2.0) Аудио #8: Русский (AC3, 6 ch, 448 Кбит/с) / Авторский одноголосый (Михалев) Аудио #9: Русский (AC3, 6 ch, 448 Кбит/с) / Авторский одноголосый (Сербин) Аудио #10: Русский (AC3, 6 ch, 448 Кбит/с) / Авторский одноголосый (Володарский) Аудио #11: Русский (AC3, 6 ch, 448 Кбит/с) / Авторский одноголосый (Горчаков) Аудио #12: Английский (AC3, 6 ch, 448 Кбит/с)Субтитры: Русские, английские 8,39 Gb 3 1
3 июня 2016 06:53 Дракула Брэма Стокера / Bram Stokers Dracula (1992) BDRip 720p от Leonardo and Scarabey | Лицензия .torrent   [Информация о файле (нажмите для просмотра)] Перевод: Профессиональный (полное дублирование) ЛицензияФормат: MKVВидео кодек: MPEG-4 AVC Аудио кодек: AC3Видео: AVC, 1280x694 (1.85:1) at 23.976 fps, AVC at 3031 kbps avg, 0.139 bit/pixelАудио: 48 kHz, AC3 Dolby Digital, 3/2 (L,C,R,l,r) + LFE ch, 640.00 kbps - RussianСубтитры: Русские, английские 3,27 Gb 9 3
3 июня 2016 06:53 Дракула Брэма Стокера / Bram Stokers Dracula (1992) DVD9 от NovaLan .torrent   [Информация о файле (нажмите для просмотра)] Перевод: Дублированный / Профессиональный многоголосый / Дублированный (Невафильм)Кодек: MPEG-2Качество: DVD-9Видео: PAL 16:9 (720x576) VBRЗвук: Русский (Dolby AC3, 6 ch), (Dolby AC3, 4 ch), (Dolby AC3, 2 ch), английский (Dolby AC3, 6 ch)Субтитры: Английские, русские 2 варианта (full, forced)Видео: Идентификатор : 224 (0xE0) Формат : MPEG Video Версия формата : Version 2 Профиль формата : [email protected] Параметр BVOP формата : Да Параметр матрицы формата : Выборочная Продолжительность : 15 м. Вид битрейта : Переменный Битрейт : 7383 Кбит/сек Максимальный битрейт : 8500 Кбит/сек Ширина : 720 пикселей Высота : 576 пикселей Соотношение сторон : 16:9 Частота кадров : 25,000 кадров/сек Стандарт вещания : PAL Цветовое пространство : YUV Субдискретизация насыщенности : 4:2:0 Битовая глубина : 8 бит Тип развёртки : Чересстрочная Порядок развёртки : Верхнее поле первое Метод сжатия : С потерями Бит/(Пиксели*Кадры) : 0.712 Размер потока : 843 Мбайт (82%)Аудио #1: Идентификатор : 189 (0xBD)-128 (0x80) Формат : AC-3 Формат/Информация : Audio Coding 3 Расширение режима : CM (complete main) Параметр Endianness формата : Big Режим смешивания : DVD-Video Продолжительность : 15 м. Вид битрейта : Постоянный Битрейт : 384 Кбит/сек Каналы : 6 каналов Расположение каналов : Front: L C R, Side: L R, LFE Частота : 48,0 КГц Битовая глубина : 16 бит Метод сжатия : С потерями Размер потока : 43,8 Мбайт (4%)Аудио #2: Идентификатор : 189 (0xBD)-129 (0x81) Формат : AC-3 Формат/Информация : Audio Coding 3 Расширение режима : CM (complete main) Параметр Endianness формата : Big Режим смешивания : DVD-Video Продолжительность : 15 м. Вид битрейта : Постоянный Битрейт : 448 Кбит/сек Каналы : 4 канала Расположение каналов : Front: L C R, Side: C Частота : 48,0 КГц Битовая глубина : 16 бит Метод сжатия : С потерями Размер потока : 51,1 Мбайт (5%)Аудио #3: Идентификатор : 189 (0xBD)-130 (0x82) Формат : AC-3 Формат/Информация : Audio Coding 3 Расширение режима : CM (complete main) Параметр Endianness формата : Big Режим смешивания : DVD-Video Продолжительность : 15 м. Вид битрейта : Постоянный Битрейт : 384 Кбит/сек Каналы : 6 каналов Расположение каналов : Front: L C R, Side: L R, LFE Частота : 48,0 КГц Битовая глубина : 16 бит Метод сжатия : С потерями Размер потока : 43,8 Мбайт (4%)Аудио #4: Идентификатор : 189 (0xBD)-131 (0x83) Формат : AC-3 Формат/Информация : Audio Coding 3 Расширение режима : CM (complete main) Параметр Endianness формата : Big Режим смешивания : DVD-Video Продолжительность : 15 м. Вид битрейта : Постоянный Битрейт : 192 Кбит/сек Каналы : 2 канала Расположение каналов : Front: L R Частота : 48,0 КГц Битовая глубина : 16 бит Метод сжатия : С потерями Размер потока : 21,9 Мбайт (2%) 7,91 Gb 1 3
3 июня 2016 06:53 Дракула Брэма Стокера / Bram Stokers Dracula (1992) BDRip 1080p от FREEISLAND .torrent   [Информация о файле (нажмите для просмотра)] Перевод: Профессиональный (дублированный)Субтитры: Russian (forced), Russian (full), English , (srt)Качество: BDRip 1080pФормат: MKVВидео: 1920x1040 (1.85:1), 23.976 fps, AVC, 7 850 KbpsАудио#1: AC3, 640 Kbps, 48.0 KHz, 4 chАудио #2: AC3, 448 Kbps, 48.0 KHz, 6 ch 7,94 Gb 7 6
3 июня 2016 06:53 Дракула Брэма Стокера / Bram Stokers Dracula (1992) HDRip | D .torrent   [Информация о файле (нажмите для просмотра)] Перевод: Профессиональный (дублированный)Невафильм (Кинотеатральный)Качество: HDRipФормат: AVIВидео: 688x368 (1.87:1), 23.976 fps, XviD, ~1438 kbps avg, 0.24 bit/pixelАудио: 48 kHz, AC3 Dolby Digital, 2/0 (L,R) ch, ~192.00 kbps avg 1,46 Gb 17 10
3 июня 2016 06:53 Дракула / Dracula (1992) HDRip | D .torrent   [Информация о файле (нажмите для просмотра)] Перевод: Профессиональный (полное дублирование)Кодек: XviDКачество: HDRip - рип с BDRip 720pВидео: 592x320 (1.85:1), 23.976 fps, XviD build 47 ~680 kbps avg, 0.15 bit/pixelЗвук: 48 kHz, MPEG Layer 3, 2 ch, ~128.00 kbps avg 745,21 Mb 3 3
3 июня 2016 06:53 Дракула Брэма Стокера / Bram Stoker`s Dracula (1992) BDRip 720p от FREEISLAND .torrent   [Информация о файле (нажмите для просмотра)] Перевод: ДублированныйКодек: Н.264Качество: BDRip 720pВидео: 5349 Кбит/сек, 1280х692 (1,85:1), в 23,976 кадра/сек, AVC ([email protected])Звук: Russian, 640 Кбит/сек, 48,0 КГц, 16 бит, 4 канала, AC-3 | дубляж (с BD-CEE) Russian, 448 Кбит/сек, 48,0 КГц, 16 бит, 6 каналов, AC-3 | многоголосый закадровый (с DVD R7 "Superbit") English, 448 Кбит/сек, 48,0 КГц, 16 бит, 6 каналов, AC-3 | оригиналСубтитры: Russian(полные),Russian(форсированные, на не переведенные в дубляже румынскую речь и отдельные надписи),English (srt) 7,77 Gb 2 2
3 июня 2016 06:53 Дракула Брэма Стокера / Bram Stokers Dracula (1992) BDRip 1080p .torrent   [Информация о файле (нажмите для просмотра)] Перевод: Профессиональный (дублированный) + ОригиналФормат: MKVКачество: BDRip 1080pВидео: 1920x1040, 14,4 Мб/сек, 23,976 кадр/сек, AVC, x264Аудио #1: 48 kHz, AC3 Dolby Digital 5.1 @ 384 kbps (6 channels)Аудио #2: English, Digital Theater Systems, 5.1 ch, 48 kHz, 1509 kbps, 24-bitСубтитры: русские, английские 14,54 Gb 3 2
3 июня 2016 06:53 Дракула Брэма Стокера / Bram Stokers Dracula (1992) BDRip PROPER от HQ-ViDEO .torrent   [Информация о файле (нажмите для просмотра)] Перевод: Русский профессиональный многоголосый перевод (R5) + Русский дублированный перевод (CEE, 4 ch, 384 kbps, Отдельно) + Оригинальная дорожка (6 ch, 384 kbps, Отдельно)Кодек: XviD, build 63 codecКачество: BDRip (Исходник: Blu-Ray CEE)Видео: 704 x 384 (1.83:1), 23.976 fps, XviD, build 63 ~ 2063 kbps avg, ~ 0.32 bit/pixelЗвук #1: 48 kHz, AC3 Dolby Digital, 3/2 (L,C,R,l,r) + LFE ch, ~384.00 kbps avgЗвук #2: 48 kHz, AC3 Dolby Digital, 3/1 (L,C,R,l) ch, ~384.00 kbps avgЗвук #3: 48 kHz, AC3 Dolby Digital, 3/2 (L,C,R,l,r) + LFE ch, ~384.00 kbps avgСубтитры: Русские (полные, форсированные), Английские.Субтитры: Русские (полные, форсированные), Английские. 2,87 Gb 3 3
3 июня 2016 06:53 Дракула Брэма Стокера / Bram Stokers Dracula (1992) BDRip от HQCLUB .torrent   [Информация о файле (нажмите для просмотра)] Перевод: Профессиональный (дублированный) + Профессиональный (многоголосый, закадровый) R5 (отдельно) + Оригинал (отдельно)Субтитры: русские, английские (внешние srt/ass)Формат: AVIКачество: BDRip (источник: AlexXYX / BD-Remux / 1080p)Видео: 704x384 (1.83:1), 23.976 fps, XviD build 50 ~2075 kbps avg, 0.32 bit/pixelАудио #1: 48 kHz, AC3 Dolby Digital 5.1 @ 384 kbps (6 channels)|Russian, Дубляж|Аудио #2: 48 kHz, AC3 Dolby Digital 5.1 @ 384 kbps (6 channels)|Russian, MVO|Аудио #3: 48 kHz, AC3 Dolby Digital 5.1 @ 384 kbps (6 channels)|English| 2,18 Gb 3 2
3 июня 2016 06:52 Дракула / Dracula (1992) BDRip от HELLYWOOD .torrent   [Информация о файле (нажмите для просмотра)] Перевод: Русский дублированный перевод + Оригинальная звуковая дорожкаСубтитры: Английские внешние srt byHELLRAiSERФормат: AVIКачество: BDRip (источник: Видео: 720x384 (1.88:1), 23.976 fps, XviD build 50 ~1819 kbps avg, 0.27 bit/pixelЗвук #1: 48 kHz, AC3 Dolby Digital, 3/2 (L,C,R,l,r) + LFE ch, ~384.00 kbps avgЗвук #2: 48 kHz, AC3 Dolby Digital, 3/2 (L,C,R,l,r) + LFE ch, ~256.00 kbps avg 2,18 Gb 7 2

Дракула Брэма Стокера 1992 - скачать бесплатно через торрент в хорошем качестве. Без регистрации

www.kinovit.net

Название: Дракула Брэма Стокера / Bram Stoker's Dracula (1992) HDRip-AVC | 4K Remastered | D
Качество видео: HDRip-AVC [Dracula.(1992).BDRip.1080p.[denis100].Mastered in 4K]
Перевод: Профессиональный (дублированный) Blu-ray EUR
Формат видео: Matroska
Видео: 740x400 at 23.976 fps, [email protected], ~754 kbps
Аудио: AAC, 2/0 ch, ~64.00 kbps
Скачать

Загрузка начнется в течение 5 сек.

748.23 MB

Название: Дракула Брэма Стокера / Bram Stoker's Dracula (1992) HDRip-AVC | 4K Remastered | D
Качество видео: HDRip-AVC [Dracula.(1992).BDRip.1080p.[denis100].Mastered in 4K]
Перевод: Профессиональный (дублированный) Blu-ray EUR
Формат видео: Matroska
Видео: 940x508 at 23.976 fps, [email protected], ~1470 kbps
Аудио: AAC, 4/0 ch, ~160.00 kbps
Скачать

Загрузка начнется в течение 5 сек.

1.45 GB

Название: Дракула Брэма Стокера / Bram Stoker's Dracula (1992) BDRemux | Remastered | D, P, A
Качество видео: BDRemux
Видео: MPEG-4 AVC/H.264, 1920x1080 (16:9), 23 299 kbps, 23.976 fps
Аудио: АС3, 4 ch, 640 kbps, 48 000 Hz - DUB - «FilmLinesInt» - Blu-Ray EURАС3, 2 ch, 192 kbps, 48 000 Hz - DUB - «Невафильм»АС3, 6 ch, 384 kbps, 48 000 Hz - MVO - «Видеосервис»DTS-HD MA 7.1, 4452 kbps, 48 000 Hz, 24 Bit - MVO - «Супербит»DTS-HD MA 7.1, 4916 kbps, 48 000 Hz, 24 Bit - AVO - Ю.СербинDTS-HD MA 7.1, 4462 kbps, 48 000 Hz, 24 Bit - AVO - А.ГавриловDTS-HD MA 7.1, 4526 kbps, 48 000 Hz, 24 Bit - AVO - А.МатвеевDTS-HD MA 7.1, 4542 kbps, 48 000 Hz, 24 Bit - AVO - А.МихалевDTS-HD MA 7.1, 4482 kbps, 48 000 Hz, 24 Bit - AVO - Л.ВолодарскийDTS-HD MA 7.1, 4407 kbps, 48 000 Hz, 24 Bit - AVO - В.ГорчаковАС3, 2 ch, 192 kbps, 48 000 Hz - MVO - «Так Треба Продакшн» - УкраинскийАС3, 2 ch, 192 kbps, 48 000 Hz - MVO - «Мова» - УкраинскийDolby TrueHD 7.1, 4966 kbps, 48 000 Hz, 24 Bit - Original - EnglishАС3, 2 ch, 192 kbps, 48 000 Hz - «Commentary with Director Francis for Coppola, Visual effects Director Roman Coppola, and Makeup Supervisor Greg Cannon» - EnglishАС3, 2 ch, 192 kbps, 48 000 Hz - «Commentary with Director Francis for Coppola» - English
Скачать

Загрузка начнется в течение 5 сек.

61.15 GB

Название: Дракула Брэма Стокера / Bram Stoker's Dracula (1992) BDRip-AVC | Remastered | D, P, A
Качество видео: BDRip-AVC
Перевод: Дублированный, Профессиональный многоголосый, Авторский (одноголосый)
Видео: MPEG-4 AVC/H.264, 2400 Kbps, 1024x554
Аудио: Русский AC3 4.0, 448 Kbps, 48.0 KHz (Дублированный) Blu-ray CEEРусский AC3 5.1, 384 Kbps, 48.0 KHz (Многоголосый закадровый) SuperbitРусский AC3 5.1, 384 Kbps, 48.0 KHz (Многоголосый закадровый) ВидеосервисРусский AC3 5.1, 384 Kbps, 48.0 KHz (Одноголосый закадровый) А. МихалевРусский AC3 5.1, 384 Kbps, 48.0 KHz (Одноголосый закадровый) Л. ВолодарскийРусский AC3 5.1, 320 Kbps, 48.0 KHz (Одноголосый закадровый) В. ГорчаковРусский AC3 5.1, 320 Kbps, 48.0 KHz (Одноголосый закадровый) Ю. СербинАнглийский AC3 5.1, 448 Kbps, 48.0 KHz (Оригинал)
Скачать

Загрузка начнется в течение 5 сек.

4.87 GB

Название: Дракула Брэма Стокера / Bram Stoker's Dracula (1992) BDRip 1080p от NNNB | 4K Remastered | D,P,A
Качество видео: BDRip 1080p
Перевод: Дублированный, Профессиональный многоголосый, Авторский (одноголосый)
Формат видео: AVC (библиотека кодирования x.264)
Видео: 1920x1038, 13500 Кбит/сек, 23,976 кадр/сек, 0,283 Бит/[Пиксели*Кадры]
Аудио: русский / AC3 / 4 / 48 kHz / 640 kbps / 16 bit |Дублированный, BD EUR|русский / AC3 / 5.1 / 48 kHz / 384 kbps / 16 bit |Профессиональный многоголосый - Видеосервис|русский / AC3 / 5.1 / 48 kHz / 448 kbps / 16 bit |Профессиональный многоголосый - Супербит|русский / AC3 / 5.1 / 48 kHz / 640 kbps / 16 bit |Авторский, А.Михалёв|русский / AC3 / 5.1 / 48 kHz / 320 kbps / 16 bit |Авторский, Ю.Сербин|русский / AC3 / 5.1 / 48 kHz / 384 kbps / 16 bit |Авторский, Л.Володарский|русский / AC3 / 5.1 / 48 kHz / 320 kbps / 16 bit |Авторский, В.Горчаков|английский / AC3 / 5.1 / 48 kHz / 640 kbps / 16 bit
Скачать

Загрузка начнется в течение 5 сек.

15.36 GB

Название: Дракула Брэма Стокера / Bram Stoker's Dracula (1992) BDRip 720p | Mastered in 4K
Перевод: Профессиональный (дублированный) Blu-ray EUR + Профессиональный (дублированный) Nevafilm + Профессиональный (многоголосый, закадровый) Видеосервис + Профессиональный (многоголосый, закадровый) Суперби
Видео: 1280x692 at 23.976 fps, [email protected], ~7752 kbps avg
Аудио: Russian: 48 kHz, AC3, 4/0 (L,C,R,Back:C) ch, ~640.00 kbps avg |Дубляж, Blu-ray EUR|Russian: 48 kHz, AC3, 2/0 (L,R) ch, ~192.00 kbps avg |Дубляж, Nevafilm|Russian: 48 kHz, AC3, 3/2 (L,C,R,l,r) + LFE ch, ~384.00 kbps avg |Многоголосый закадровый, Видеосервис|Russian: 48 kHz, DTS, 3/2 (L,C,R,l,r) + LFE ch, ~755.00 kbps avg |Многоголосый закадровый, Супербит|Russian: 48 kHz, DTS, 3/2 (L,C,R,l,r) + LFE ch, ~1509.00 kbps avg |Авторский, А. Михалёв|Russian: 48 kHz, AC3, 3/2 (L,C,R,l,r) + LFE ch, ~320.00 kbps avg |Авторский, Ю. Сербин|Russian: 48 kHz, AC3, 3/2 (L,C,R,l,r) + LFE ch, ~384.00 kbps avg |Авторский, Л. Володарский|Russian: 48 kHz, AC3, 3/2 (L,C,R,l,r) + LFE ch, ~320.00 kbps avg |Авторский, В. Горчаков|Ukrainian: 48 kHz, AC3, 2/0 (L,R) ch, ~192.00 kbps avg |Многоголосый, Так Треба Продакшн|Ukrainian: 48 kHz, AC3, 2/0 (L,R) ch, ~192.00 kbps avg |Многоголосый, Мова|English: 48 kHz, DTS, 3/2 (L,C,R,l,r) + LFE ch, ~1509.00 kbps avgEnglish: 48 kHz, AC3, 2/0 (L,R) ch, ~192.00 kbps avg |Commentary with Francis Ford Coppola, Roman Coppola and Greg Cannom|English: 48 kHz, AC3, 2/0 (L,R) ch, ~192.00 kbps avg |Commentary with Director Francis Ford Coppola|
Скачать

Загрузка начнется в течение 5 сек.

13.19 GB

Название: Дракула Брэма Стокера / Bram Stoker's Dracula (1992) BDRip-AVC от MediaClub | D, P, A
Качество видео: BDRip-AVC
Перевод: Дублированный, профессиональный многоголосый, авторский одноголосый, украинский
Видео: MPEG-4 AVC 1800 Кбит/с, 1024х554, 23.976 кадр/с
Аудио: Русский (AC3, 2 ch, 192 Кбит/с) / Дублированный (Nevafilm)Русский (AC3, 6 ch, 448 Кбит/с) / Профессиональный многоголосый (R5)Русский (AC3, 6 ch, 448 Кбит/с) / Профессиональный многоголосый (Superbit)Русский (AC3, 6 ch, 448 Кбит/с) / Авторский одноголосый (В. Горчаков)Русский (AC3, 6 ch, 448 Кбит/с) / Авторский одноголосый (А. Михалев)Русский (AC3, 6 ch, 448 Кбит/с) / Авторский одноголосый (Ю. Сербин)Русский (AC3, 6 ch, 448 Кбит/с) / Авторский одноголосый (Л. Володарский)Украинский (AC3, 6 ch, 384 Кбит/с) / Профессиональный многоголосый (ТакТребаПродакшн)Украинский (AC3, 6 ch, 384 Кбит/с) / Профессиональный многоголосый (ТРК "Украина")Английский (AC3, 6 ch, 448 Кбит/с)
Скачать

Загрузка начнется в течение 5 сек.

5.64 GB

Название: Дракула Брэма Стокера / Bram Stoker's Dracula (1992) BDRip 720p от MediaClub | D, P, A
Качество видео: BDRip 720p
Перевод: Дублированный, профессиональный многоголосый, авторский
Видео: MPEG-4 AVC 4124 Кбит/с, 1280х692
Аудио: Аудио #1: Русский (AC3, 2 ch, 192 Кбит/с) / Дублированный (Невафильм) (Кинотеатральный)
Скачать

Загрузка начнется в течение 5 сек.

8.39 GB

Название: Дракула Брэма Стокера / Bram Stoker's Dracula (1992) BDRip 720p от Leonardo and Scarabey | Лицензия
Качество видео: BDRip 720p Исходник: Blu-ray
Перевод: Профессиональный (полное дублирование) Лицензия
Формат видео: MKV Видео кодек: MPEG-4 AVC Аудио кодек: AC3
Видео: AVC, 1280x694 (1.85:1) at 23.976 fps, AVC at 3031 kbps avg, 0.139 bit/pixel
Аудио: 48 kHz, AC3 Dolby Digital, 3/2 (L,C,R,l,r) + LFE ch, 640.00 kbps - Russian
Скачать

Загрузка начнется в течение 5 сек.

3.27 GB

Название: Дракула Брэма Стокера / Bram Stoker's Dracula (1992) BDRip 1080p
Качество видео: BDRip 1080p
Перевод: Дублированный, Профессиональный многоголосый, Авторский одноголосый, Оригинал
Видео: H.264 (AVC) 1920x1040 (1.85:1), 23.976 fps, AVC, 7 850 Kbps
Аудио: AC3, 384 Kbps, 48.0 KHz, 6 ch (Rus) Многоголосый закадровый, ВидеосервисAC3, 448 Kbps, 48.0 KHz, 6 ch (Rus) Многоголосый закадровый, SuperbitAC3, 384 Kbps, 48.0 KHz, 6 ch (Ukr) Многоголосый закадровый, "Мова&quotAC3, 320 Kbps, 48.0 KHz, 6 ch (Rus) Одноголосый закадровый, Ю.СербинAC3, 320 Kbps, 48.0 KHz, 6 ch (Rus) Одноголосый закадровый, В.ГорчаковAC3, 448 Kbps, 48.0 KHz, 6 ch (Rus) Одноголосый закадровый, А.МихалевAC3, 384 Kbps, 48.0 KHz, 6 ch (Rus) Одноголосый закадровый, Л.ВолодарскийAC3, 448 Kbps, 48.0 KHz, 6 ch (Eng) Оригинал
Скачать

Загрузка начнется в течение 5 сек.

10.33 GB

Название: Дракула Брэма Стокера / Bram Stoker's Dracula (1992) DVD9 от NovaLan
Качество видео: DVD-9
Перевод: Дублированный / Профессиональный многоголосый / Дублированный (Невафильм)
Видео: MPEG-2 PAL 16:9 (720x576) VBR
Аудио: Русский (Dolby AC3, 6 ch), (Dolby AC3, 4 ch), (Dolby AC3, 2 ch), английский (Dolby AC3, 6 ch)
Скачать

Загрузка начнется в течение 5 сек.

7.91 GB

Название: Дракула Брэма Стокера / Bram Stoker's Dracula (1992) BDRip 1080p от FREEISLAND
Качество видео: BDRip 1080p
Перевод: Профессиональный (дублированный)
Формат видео: MKV
Видео: H.264 (AVC) 1920x1040 (1.85:1), 23.976 fps, AVC, 7 850 Kbps
Аудио: AC3AC3, 640 Kbps, 48.0 KHz, 4 chAC3, 448 Kbps, 48.0 KHz, 6 ch
Скачать

Загрузка начнется в течение 5 сек.

7.94 GB

Название: Дракула Брэма Стокера / Bram Stoker's Dracula (1992) HDRip | D
Качество видео: HDRip
Перевод: Профессиональный (дублированный) Невафильм (Кинотеатральный)
Формат видео: AVI
Видео: 688x368 (1.87:1), 23.976 fps, XviD, ~1438 kbps avg, 0.24 bit/pixel
Аудио: 48 kHz, AC3 Dolby Digital, 2/0 (L,R) ch, ~192.00 kbps avg
Скачать

Загрузка начнется в течение 5 сек.

1.46 GB

Дракула Брэма Стокера через торрент

piratbit.ru

Размер: 2.18 GB | Добавлен: 1 год 11 мес. назад | Торрент скачан:109 раз
Реклама Дарим 3000 рублей за регистрацию, не упусти свой шанс получить шикарный бонус!!!

04-11-2015 10:54 Дракула Брэма Стокера Скачать торрент  

Дракула Брэма Стокера / Bram Stoker's Dracula

Год выпуска: 1992Страна: СШАЖанр: ужасы, фэнтези, мелодрамаПродолжительность: 02:07:22Перевод: ДубляжСубтитры: нет

Режиссер: Френсис Форд Коппола / Francis Ford Coppola

В ролях: Гари Олдман, Вайнона Райдер, Энтони Хопкинс, Киану Ривз, Ричард Э. Грант, Кэри Элвис, Билл Кэмпбелл, Сэди Фрост, Том Уэйтс, Моника Беллуччи

Описание: Конец XIX века, Лондон. Молодой юрист Джонатан Харкер и красавица девушка Мина любят друг друга. Джонатан на время вынужден оставить невесту одну и отправиться по делам в Трансильванию к графу Дракуле, желающему приобрести недвижимость в столице Англии. Но Джонатан не знает, кто такой Дракула на самом деле…

Качество: BDRipФормат: AVIВидео кодек: XviDАудио кодек: AC3Видео: 704x384 (1.83:1), 23.976 fps, XviD build 50 ~2075 kbps avg, 0.32 bit/pixelАудио: 48 kHz, AC3 Dolby Digital 5.1 @ 384 kbps (6 channels)

Скачать Дракула Брэма Стокера через торрент http://pic1.pb.wtf/images/10/yr29o.jpg Скачать фильм Дракула Брэма Стокера через торрент бесплантно в хорошем качестве Описание: Конец XIX века, Лондон. Молодой юрист Джонатан Харкер и красавица девушка Мина любят друг друга. Джонатан на время вынужден ... 2015-11-04 10:54 10 10 6

Loading...

Loading...

Рекламный пират

Дорогой пользователь! Огромная просьба, поблагодарите релизера, оцените раздачу и оставьте свои комментарий, если Вы скачали Дракула Брэма Стокера через торрент бесплатно! Внесите свою лепту в развитие PiratBit!

Комментировать посты могут только пользователи прошедшие не сложную регистрацию

Дракула Брэма Стокера через торрент Скачать бесплатно Дракула Брэма Стокера Дракула Брэма Стокера скачать торрент Дракула Брэма Стокера смотреть онлайн Cкачать фильм Дракула Брэма Стокера бесплатно Дракула Брэма Стокера скачать торрент в хорошем качестве Дракула Брэма Стокера смотреть онлайн бесплатно в хорошем качестве

Вы не можете начинать темыВы не можете отвечать на сообщенияВы не можете редактировать свои сообщенияВы не можете удалять свои сообщенияВы не можете голосовать в опросахВы не можете прикреплять файлы к сообщениямВы можете скачивать файлы

/ Dracula Untold (2014) BDRip 720p | iTunes

: , . , .

: / Legendary Pictures, Michael De Luca Productions, Universal Pictures : 01:32:08: [iTunes]

: MKV (x264): BDRip 720p: 5283 Kb/s, 1280x536: Russian: AC3, 384 kb/s (6 ch) / English: DTS, 1510 kb/s (6 ch): English: Blu-ray: 4,62 GB:

GeneralUnique ID : 253352676900127108611015995381441618905 (0xBE99F360A2347247BD9A511CE30BE3D9)Complete name : Dracula.2104.D.BDRip.720p.mkvFormat : MatroskaFormat version : Version 2File size : 4.62 GiBDuration : 1h 32mnOverall bit rate : 7 177 KbpsEncoded date : UTC 2015-01-17 08:30:03Writing application : mkvmerge v7.5.0 ('Glass Culture') 64bit built on Jan 4 2015 16:48:44Writing library : libebml v1.3.1 + libmatroska v1.4.2_STATISTICS_WRITING_APP : mkvmerge v7.5.0 ('Glass Culture') 64bit built on Jan 4 2015 16:48:44_STATISTICS_WRITING_DATE_UTC : 2015-01-17 08:30:03_STATISTICS_TAGS : BPS DURATION NUMBER_OF_FRAMES NUMBER_OF_BYTESDURATION : 01:32:08.736000000NUMBER_OF_FRAMES : 172773NUMBER_OF_BYTES : 265379328

VideoID : 1Format : AVCFormat/Info : Advanced Video CodecFormat profile : [email protected]Format settings, CABAC : YesFormat settings, ReFrames : 5 framesCodec ID : V_MPEG4/ISO/AVCDuration : 1h 32mnBit rate : 5 283 KbpsWidth : 1 280 pixelsHeight : 536 pixelsDisplay aspect ratio : 2.40:1Frame rate mode : ConstantFrame rate : 23.976 fpsColor space : YUVChroma subsampling : 4:2:0Bit depth : 8 bitsScan type : ProgressiveBits/(Pixel*Frame) : 0.321Stream size : 3.31 GiB (72%)Writing library : x264 core 144 r2525 40bb568Encoding settings : cabac=1 / ref=5 / deblock=1:0:0 / analyse=0x3:0x133 / me=umh / subme=7 / psy=1 / psy_rd=1.00:0.00 / mixed_ref=1 / me_range=16 / chroma_me=1 / trellis=1 / 8x8dct=1 / cqm=0 / deadzone=21,11 / fast_pskip=0 / chroma_qp_offset=-2 / threads=12 / lookahead_threads=2 / sliced_threads=0 / nr=0 / decimate=1 / interlaced=0 / bluray_compat=0 / constrained_intra=0 / bframes=3 / b_pyramid=2 / b_adapt=2 / b_bias=0 / direct=3 / weightb=1 / open_gop=0 / weightp=2 / keyint=250 / keyint_min=23 / scenecut=40 / intra_refresh=0 / rc_lookahead=50 / rc=2pass / mbtree=1 / bitrate=5283 / ratetol=1.0 / qcomp=0.60 / qpmin=0 / qpmax=69 / qpstep=4 / cplxblur=20.0 / qblur=0.5 / ip_ratio=1.40 / aq=1:1.00Language : EnglishDefault : YesForced : No_STATISTICS_WRITING_APP : mkvmerge v7.5.0 ('Glass Culture') 64bit built on Jan 4 2015 16:48:44_STATISTICS_WRITING_DATE_UTC : 2015-01-17 08:30:03_STATISTICS_TAGS : BPS DURATION NUMBER_OF_FRAMES NUMBER_OF_BYTESDURATION : 01:32:08.315000000NUMBER_OF_FRAMES : 132547NUMBER_OF_BYTES : 3649789289

Audio #1ID : 2Format : AC-3Format/Info : Audio Coding 3Mode extension : CM (complete main)Format settings, Endianness : BigCodec ID : A_AC3Duration : 1h 32mnBit rate mode : ConstantBit rate : 384 KbpsChannel(s) : 6 channelsChannel positions : Front: L C R, Side: L R, LFESampling rate : 48.0 KHzBit depth : 16 bitsCompression mode : LossyStream size : 253 MiB (5%)Language : RussianDefault : NoForced : No

Audio #2ID : 3Format : DTSFormat/Info : Digital Theater SystemsMode : 16Format settings, Endianness : BigCodec ID : A_DTSDuration : 1h 32mnBit rate mode : ConstantBit rate : 1 509 KbpsChannel(s) : 6 channelsChannel positions : Front: L C R, Side: L R, LFESampling rate : 48.0 KHzBit depth : 24 bitsCompression mode : LossyStream size : 995 MiB (21%)Language : EnglishDefault : NoForced : No

TextID : 4Format : UTF-8Codec ID : S_TEXT/UTF8Codec ID/Info : UTF-8 Plain TextLanguage : EnglishDefault : YesForced : Yes

Menu00:00:00.000 : en:00:00:00.00000:04:07.289 : en:00:04:07.28900:07:20.565 : en:00:07:20.56500:11:32.817 : en:00:11:32.81700:16:30.698 : en:00:16:30.69800:22:53.664 : en:00:22:53.66400:30:23.447 : en:00:30:23.44700:34:16.763 : en:00:34:16.76300:38:57.043 : en:00:38:57.04300:43:00.369 : en:00:43:00.36900:47:03.738 : en:00:47:03.73800:53:16.735 : en:00:53:16.73500:57:39.831 : en:00:57:39.83101:00:47.310 : en:01:00:47.31001:04:30.033 : en:01:04:30.03301:09:12.190 : en:01:09:12.19001:12:47.613 : en:01:12:47.61301:17:11.877 : en:01:17:11.87701:21:52.658 : en:01:21:52.65801:25:02.556 : en:01:25:02.556

filmtor.net

Скачать фильм Дракула через торрент в хорошем качестве бесплатно 1080p от potroks

GeneralUnique ID                                : 192559455310318746814789516816377365037 (0x90DD9A239972D1999B4C0A523496C22D)Complete name                            : Drakula.2014.DUB.AVO.ENG.BDRip.1080p.-HELLYWOOD.mkvFormat                                   : MatroskaFormat version                           : Version 4 / Version 2File size                                : 9.10 GiBDuration                                 : 1h 32mnOverall bit rate                         : 14.1 MbpsMovie name                               : Dracula Untold (2014) - HELLYWOODEncoded date                             : UTC 2015-08-05 08:33:25Writing application                      : mkvmerge v5.9.0 ('On The Loose') built on Dec 15 2012 16:39:58Writing library                          : libebml v1.3.0 + libmatroska v1.4.0

VideoID                                       : 1Format                                   : AVCFormat/Info                              : Advanced Video CodecFormat profile                           : [email protected] settings, CABAC                   : YesFormat settings, ReFrames                : 4 framesCodec ID                                 : V_MPEG4/ISO/AVCDuration                                 : 1h 32mnBit rate                                 : 8 850 KbpsWidth                                    : 1 920 pixelsHeight                                   : 800 pixelsDisplay aspect ratio                     : 2.40:1Frame rate                               : 23.976 fpsColor space                              : YUVChroma subsampling                       : 4:2:0Bit depth                                : 8 bitsScan type                                : ProgressiveBits/(Pixel*Frame)                       : 0.240Stream size                              : 5.52 GiB (61%)Title                                    : potroksWriting library                          : x264 core 130 r2273 b3065e6Encoding settings                        : cabac=1 / ref=4 / deblock=1:-3:-3 / analyse=0x3:0x133 / me=umh / subme=11 / psy=1 / psy_rd=1.00:0.05 / mixed_ref=1 / me_range=48 / chroma_me=1 / trellis=2 / 8x8dct=1 / cqm=0 / deadzone=21,11 / fast_pskip=0 / chroma_qp_offset=-3 / threads=9 / lookahead_threads=8 / sliced_threads=0 / nr=0 / decimate=0 / interlaced=0 / bluray_compat=0 / constrained_intra=0 / bframes=7 / b_pyramid=2 / b_adapt=2 / b_bias=0 / direct=3 / weightb=1 / open_gop=0 / weightp=2 / keyint=250 / keyint_min=23 / scenecut=40 / intra_refresh=0 / rc_lookahead=60 / rc=2pass / mbtree=0 / bitrate=8850 / ratetol=1.0 / qcomp=0.71 / qpmin=0 / qpmax=69 / qpstep=4 / cplxblur=20.0 / qblur=0.5 / vbv_maxrate=50000 / vbv_bufsize=62500 / nal_hrd=none / ip_ratio=1.35 / pb_ratio=1.25 / aq=1:0.70Language                                 : EnglishDefault                                  : YesForced                                   : No

Audio #1ID                                       : 2Format                                   : DTSFormat/Info                              : Digital Theater SystemsCodec ID                                 : A_DTSDuration                                 : 1h 32mnBit rate mode                            : ConstantBit rate                                 : 755 KbpsChannel(s)                               : 6 channelsChannel positions                        : Front: L C R, Side: L R, LFESampling rate                            : 48.0 KHzBit depth                                : 24 bitsCompression mode                         : LossyStream size                              : 497 MiB (5%)Title                                    : Dub | DTS 5.1 @ 768 kbps - Blu-Ray CEELanguage                                 : RussianDefault                                  : YesForced                                   : No

Audio #2ID                                       : 3Format                                   : DTSFormat/Info                              : Digital Theater SystemsCodec ID                                 : A_DTSDuration                                 : 1h 32mnBit rate mode                            : ConstantBit rate                                 : 1 510 KbpsChannel(s)                               : 6 channelsChannel positions                        : Front: L C R, Side: L R, LFESampling rate                            : 48.0 KHzBit depth                                : 24 bitsCompression mode                         : LossyStream size                              : 995 MiB (11%)Title                                    : AVO | DTS 5.1 @ 1509 kbps - S.VizgunovLanguage                                 : RussianDefault                                  : NoForced                                   : No

Audio #3ID                                       : 4Format                                   : DTSFormat/Info                              : Digital Theater SystemsCodec ID                                 : A_DTSDuration                                 : 1h 32mnBit rate mode                            : ConstantBit rate                                 : 1 510 KbpsChannel(s)                               : 6 channelsChannel positions                        : Front: L C R, Side: L R, LFESampling rate                            : 48.0 KHzBit depth                                : 24 bitsCompression mode                         : LossyStream size                              : 995 MiB (11%)Title                                    : AVO | DTS 5.1 @ 1509 kbps - D.YesarevLanguage                                 : RussianDefault                                  : NoForced                                   : No

Audio #4ID                                       : 5Format                                   : DTSFormat/Info                              : Digital Theater SystemsCodec ID                                 : A_DTSDuration                                 : 1h 32mnBit rate mode                            : ConstantBit rate                                 : 1 510 KbpsChannel(s)                               : 6 channelsChannel positions                        : Front: L C R, Side: L R, LFESampling rate                            : 48.0 KHzBit depth                                : 24 bitsCompression mode                         : LossyStream size                              : 995 MiB (11%)Title                                    : Original | DTS 5.1 @ 1509 kbpsLanguage                                 : EnglishDefault                                  : NoForced                                   : No

Text #1ID                                       : 6Format                                   : UTF-8Codec ID                                 : S_TEXT/UTF8Codec ID/Info                            : UTF-8 Plain TextTitle                                    : ForcedLanguage                                 : RussianDefault                                  : YesForced                                   : No

Text #2ID                                       : 7Format                                   : UTF-8Codec ID                                 : S_TEXT/UTF8Codec ID/Info                            : UTF-8 Plain TextTitle                                    : Blu-RayLanguage                                 : RussianDefault                                  : NoForced                                   : No

Text #3ID                                       : 8Format                                   : UTF-8Codec ID                                 : S_TEXT/UTF8Codec ID/Info                            : UTF-8 Plain TextTitle                                    : VoronineLanguage                                 : RussianDefault                                  : NoForced                                   : No

Text #4ID                                       : 9Format                                   : UTF-8Codec ID                                 : S_TEXT/UTF8Codec ID/Info                            : UTF-8 Plain TextTitle                                    : vl_levLanguage                                 : RussianDefault                                  : NoForced                                   : No

Text #5ID                                       : 10Format                                   : UTF-8Codec ID                                 : S_TEXT/UTF8Codec ID/Info                            : UTF-8 Plain TextTitle                                    : ForcedLanguage                                 : UkrainianDefault                                  : NoForced                                   : No

Text #6ID                                       : 11Format                                   : UTF-8Codec ID                                 : S_TEXT/UTF8Codec ID/Info                            : UTF-8 Plain TextTitle                                    : Blu-RayLanguage                                 : UkrainianDefault                                  : NoForced                                   : No

Text #7ID                                       : 12Format                                   : UTF-8Codec ID                                 : S_TEXT/UTF8Codec ID/Info                            : UTF-8 Plain TextTitle                                    : ForcedLanguage                                 : EnglishDefault                                  : NoForced                                   : No

Text #8ID                                       : 13Format                                   : UTF-8Codec ID                                 : S_TEXT/UTF8Codec ID/Info                            : UTF-8 Plain TextTitle                                    : FullLanguage                                 : EnglishDefault                                  : NoForced                                   : No

Text #9ID                                       : 14Format                                   : UTF-8Codec ID                                 : S_TEXT/UTF8Codec ID/Info                            : UTF-8 Plain TextTitle                                    : SDHLanguage                                 : EnglishDefault                                  : NoForced                                   : No

Text #10ID                                       : 15Format                                   : UTF-8Codec ID                                 : S_TEXT/UTF8Codec ID/Info                            : UTF-8 Plain TextTitle                                    : SDH-ColoredLanguage                                 : EnglishDefault                                  : NoForced                                   : No

Menu00:00:00.000                             : en:(01)00:00:00:00000:04:07.288                             : en:(02)00:04:07:28800:07:20.565                             : en:(03)00:07:20:56500:11:32.817                             : en:(04)00:11:32:81700:16:30.698                             : en:(05)00:16:30:69800:22:53.663                             : en:(06)00:22:53:66300:30:23.446                             : en:(07)00:30:23:44600:34:16.763                             : en:(08)00:34:16:76300:38:57.043                             : en:(09)00:38:57:04300:43:00.369                             : en:(10)00:43:00:36900:47:03.737                             : en:(11)00:47:03:73700:53:16.735                             : en:(12)00:53:16:73500:57:39.831                             : en:(13)00:57:39:83101:00:47.310                             : en:(14)01:00:47:31001:04:30.032                             : en:(15)01:04:30:03201:09:12.189                             : en:(16)01:09:12:18901:12:47.613                             : en:(17)01:12:47:61301:17:11.877                             : en:(18)01:17:11:87701:21:52.657                             : en:(19)01:21:52:65701:25:02.555                             : en:(20)01:25:02:55501:32:08.147                             : en:(21)01:32:08:147

piratbit.ru


Смотрите также