Жизнь адель скачать через торрент в хорошем качестве


Скачать фильм Жизнь Адель (2013) через торрент

gig-torrent.net

10 февраля 2016 12:18 Жизнь Адель / La vie dAdele - Chapitres 1 et 2 / Blue Is the Warmest Color (2013) BDRip 1080p от NNNB .torrent   [Информация о файле (нажмите для просмотра)] Перевод: Дублированный - [Лицензия]Качество: BDRip 1080p (исходник Blu-ray)Формат: AVC (библиотека кодирования x.264)Видео: 1920x804 (2.40:1), 7931 Кбит/сек, 24 кадр/сек, 0,214 Бит/[Пиксели*Кадры]Аудио №1: русский / AC3 / 5.1 / 48 kHz / 640 kbps / 16 bit|Дублированный - [Лицензия]| Аудио №2: французский / AC3 / 5.1 / 48 kHz / 640 kbps / 16 bit 11,55 Gb 40 4
10 февраля 2016 12:18 Жизнь Адель / Blue Is the Warmest Color / La vie dAdle - Chapitres 1 et 2 (2013) BDRip-AVC от HELLYWOOD | Лицензия .torrent   [Информация о файле (нажмите для просмотра)] Перевод: Профессиональный (полное дублирование)Субтитры: Русские, английскиеКачество: BDRip-AVCФормат: MKVВидео: х.264, 1032x432 (2,40:1), 23,976 fps, 1422 Кbps, 0.133 bit/pixelАудио#1: 48 kHz, AC3 Dolby Digital, 3/2 (L,C,R,l,r) + LFE ch, 448.00 kbps |RUSАудио#2: 48 kHz, AC3 Dolby Digital, 3/2 (L,C,R,l,r) + LFE ch, 448.00 kbps |FRE 2,92 Gb 72 4
10 февраля 2016 12:18 Жизнь Адель / Blue Is the Warmest Color / La vie dAdle - Chapitres 1 et 2 (2013) BDRip от HQCLUB | Лицензия .torrent   [Информация о файле (нажмите для просмотра)] Перевод: Профессиональный (полное дублирование)Субтитры: русские (2 вида), английскиеФормат: AVIКачество: BDRip (источник:Видео: 720x304 (2.37:1), 23.976 fps, XviD build 65 ~1850 kbps avg, 0.35 bit/pixelАудио #1: 48 kHz, AC3 Dolby Digital, 3/2 (L,C,R,l,r) + LFE ch, ~448 kbps avg (DUB)Аудио #2: 48 kHz, AC3 Dolby Digital, 3/2 (L,C,R,l,r) + LFE ch, ~448 kbps avg (DVO.GREEN.TEA)(отдельно)Аудио #3: 48 kHz, AC3 Dolby Digital, 3/2 (L,C,R,l,r) + LFE ch, ~448 kbps avg (VO.DOCTOR.JOKER)(отдельно)Аудио #4: 48 kHz, AC3 Dolby Digital, 3/2 (L,C,R,l,r) + LFE ch, ~448 kbps avg (FRE)(отдельно) 2,9 Gb 42 4
10 февраля 2016 12:18 Жизнь Адель / La vie dAdle - Chapitres 1 et 2 / Blue Is the Warmest Color (2013) BDRip 1080p от CINEMANIA | D, L2, A .torrent   [Информация о файле (нажмите для просмотра)] Формат: MKVКачество: BDRip 1080p[CtrlHD]Видео: 12200 kb/s, 1920x804Аудио: Russian [Лицензия]: AC3, 640 kb/s (6 ch) Russian [Green Tea]: DTS, 1510 kb/s (6 ch) Russian [А.Матвеев]: DTS, 1510 kb/s (6 ch) French: DTS, 1510 kb/s (6 ch) Субтитры: Russian[R5] / [ Inkantatem ( +18) ], EnglishВидео: Идентификатор : 1 Формат : AVC Формат/Информация : Advanced Video Codec Профиль формата : [email protected] Параметр CABAC формата : Да Параметр ReFrames формата : 5 кадров Идентификатор кодека : V_MPEG4/ISO/AVC Продолжительность : 3 ч. 0 м. Битрейт : 12,2 Мбит/сек Ширина : 1920 пикселей Высота : 804 пикселя Соотношение сторон : 2,40:1 Режим частоты кадров : Постоянный Частота кадров : 23,976 кадра/сек Цветовое пространство : YUV Субдискретизация насыщенности : 4:2:0 Битовая глубина : 8 бит Тип развёртки : Прогрессивная Бит/(Пиксели*Кадры) : 0.331 Размер потока : 15,4 Гбайт (69%) Заголовок : Release Group CINEMANIA Библиотека кодирования : x264 core 140 r2377+40 929f149 tMod [[email protected]:2:0 X86] Настройки программы : cabac=1 / ref=5 / deblock=1:-3:-3 / analyse=0x3:0x113 / me=tesa / subme=10 / psy=1 / fade_compensate=0.00 / psy_rd=1.10:0.10 / mixed_ref=1 / me_range=32 / chroma_me=1 / trellis=2 / 8x8dct=1 / cqm=0 / deadzone=21,11 / fast_pskip=0 / chroma_qp_offset=-5 / threads=12 / lookahead_threads=2 / sliced_threads=0 / nr=0 / decimate=0 / interlaced=0 / bluray_compat=0 / constrained_intra=0 / fgo=0 / bframes=8 / b_pyramid=2 / b_adapt=2 / b_bias=0 / direct=3 / weightb=1 / open_gop=0 / weightp=2 / keyint=250 / keyint_min=23 / scenecut=40 / intra_refresh=0 / rc=crf / mbtree=0 / crf=16.5000 / qcomp=0.70 / qpmin=0:0:0 / qpmax=69:69:69 / qpstep=4 / ip_ratio=1.20 / pb_ratio=1.30 / aq=1:0.85 / aq-sensitivity=10.00 / aq-factor=1.00:1.00:1.00 / aq2=0 / aq3=0 Язык : English Default : Да Forced : Нет Аудио #1: Идентификатор : 2 Формат : AC-3 Формат/Информация : Audio Coding 3 Расширение режима : CM (complete main) Параметр Endianness формата : Big Идентификатор кодека : A_AC3 Продолжительность : 3 ч. 0 м. Вид битрейта : Постоянный Битрейт : 640 Кбит/сек Каналы : 6 каналов Расположение каналов : Front: L C R, Side: L R, LFE Частота : 48,0 КГц Битовая глубина : 16 бит Метод сжатия : С потерями Размер потока : 825 Мбайт (4%) Заголовок : Дубляж, Лицензия, BluRay Rus| Язык : Russian Default : Да Forced : Да Аудио #2: Идентификатор : 3 Формат : DTS Формат/Информация : Digital Theater Systems Режим : 16 Параметр Endianness формата : Big Идентификатор кодека : A_DTS Продолжительность : 3 ч. 0 м. Вид битрейта : Постоянный Битрейт : 1509 Кбит/сек Каналы : 6 каналов Расположение каналов : Front: L C R, Side: L R, LFE Частота : 48,0 КГц Битовая глубина : 24 бит Метод сжатия : С потерями Размер потока : 1,90 Гбайт (8%) Заголовок : GREENTEA Язык : Russian Default : Нет Forced : Нет Аудио #3: Идентификатор : 4 Формат : DTS Формат/Информация : Digital Theater Systems Режим : 16 Параметр Endianness формата : Big Идентификатор кодека : A_DTS Продолжительность : 3 ч. 0 м. Вид битрейта : Постоянный Битрейт : 1510 Кбит/сек Каналы : 6 каналов Расположение каналов : Front: L C R, Side: L R, LFE Частота : 48,0 КГц Битовая глубина : 24 бит Метод сжатия : С потерями Размер потока : 1,90 Гбайт (8%) Заголовок : А.Матвеев Язык : Russian Default : Нет Forced : Нет Аудио #4: Идентификатор : 5 Формат : DTS Формат/Информация : Digital Theater Systems Режим : 16 Параметр Endianness формата : Big Идентификатор кодека : A_DTS Продолжительность : 3 ч. 0 м. Вид битрейта : Постоянный Битрейт : 1509 Кбит/сек Каналы : 6 каналов Расположение каналов : Front: L C R, Side: L R, LFE Частота : 48,0 КГц Битовая глубина : 24 бит Метод сжатия : С потерями Размер потока : 1,90 Гбайт (8%) Язык : French Default : Нет Forced : Нет 22,36 Gb 6 1
10 февраля 2016 12:18 Жизнь Адель / La vie dAdle - Chapitres 1 et 2 / Blue Is the Warmest Color (2013) BDRip 720p от CINEMANIA | D, L2, A .torrent   [Информация о файле (нажмите для просмотра)] Формат: MKVКачество: BDRip 720p[CtrlHD]Видео: 5721 kb/s, 1280x538Аудио: Russian [Лицензия]: AC3, 640 kb/s (6 ch) Russian [Green Tea]: DTS, 1510 kb/s (6 ch) Russian [А.Матвеев]: DTS, 1510 kb/s (6 ch) French: DTS, 1510 kb/s (6 ch) Субтитры: Russian[R5] / [ Inkantatem ( +18) ], EnglishВидео: Идентификатор : 1 Формат : AVC Формат/Информация : Advanced Video Codec Профиль формата : [email protected] Параметр CABAC формата : Да Параметр ReFrames формата : 12 кадров Идентификатор кодека : V_MPEG4/ISO/AVC Продолжительность : 3 ч. 0 м. Битрейт : 5721 Кбит/сек Ширина : 1280 пикселей Высота : 538 пикселей Соотношение сторон : 2,40:1 Режим частоты кадров : Постоянный Частота кадров : 23,976 кадра/сек Цветовое пространство : YUV Субдискретизация насыщенности : 4:2:0 Битовая глубина : 8 бит Тип развёртки : Прогрессивная Бит/(Пиксели*Кадры) : 0.347 Размер потока : 7,20 Гбайт (51%) Заголовок : Release Group CINEMANIA Библиотека кодирования : x264 core 142 r2389kMod 956c8d8 Настройки программы : cabac=1 / ref=12 / deblock=1:-3:-3 / analyse=0x3:0x133 / me=umh / subme=10 / psy=1 / fade_compensate=0.00 / psy_rd=1.05:0.00 / mixed_ref=1 / me_range=16 / chroma_me=1 / trellis=2 / 8x8dct=1 / cqm=0 / deadzone=21,11 / fast_pskip=0 / chroma_qp_offset=-2 / threads=6 / lookahead_threads=1 / sliced_threads=0 / nr=0 / decimate=0 / interlaced=0 / bluray_compat=0 / constrained_intra=0 / fgo=0 / bframes=6 / b_pyramid=2 / b_adapt=2 / b_bias=0 / direct=3 / weightb=1 / open_gop=0 / weightp=2 / keyint=250 / keyint_min=23 / scenecut=40 / intra_refresh=0 / rc=crf / mbtree=0 / crf=15.0000 / qcomp=0.80 / qpmin=0 / qpmax=69 / qpstep=4 / ip_ratio=1.10 / pb_ratio=1.10 / aq=1:0.80 Язык : French Default : Да Forced : Нет Аудио #1: Идентификатор : 2 Формат : AC-3 Формат/Информация : Audio Coding 3 Расширение режима : CM (complete main) Параметр Endianness формата : Big Идентификатор кодека : A_AC3 Продолжительность : 3 ч. 0 м. Вид битрейта : Постоянный Битрейт : 640 Кбит/сек Каналы : 6 каналов Расположение каналов : Front: L C R, Side: L R, LFE Частота : 48,0 КГц Битовая глубина : 16 бит Метод сжатия : С потерями Размер потока : 825 Мбайт (6%) Заголовок : Дубляж, Лицензия, BluRay Rus| Язык : Russian Default : Да Forced : Да Аудио #2: Идентификатор : 3 Формат : DTS Формат/Информация : Digital Theater Systems Режим : 16 Параметр Endianness формата : Big Идентификатор кодека : A_DTS Продолжительность : 3 ч. 0 м. Вид битрейта : Постоянный Битрейт : 1509 Кбит/сек Каналы : 6 каналов Расположение каналов : Front: L C R, Side: L R, LFE Частота : 48,0 КГц Битовая глубина : 24 бит Метод сжатия : С потерями Размер потока : 1,90 Гбайт (14%) Заголовок : GREENTEA Язык : Russian Default : Нет Forced : Нет Аудио #3: Идентификатор : 4 Формат : DTS Формат/Информация : Digital Theater Systems Режим : 16 Параметр Endianness формата : Big Идентификатор кодека : A_DTS Продолжительность : 3 ч. 0 м. Вид битрейта : Постоянный Битрейт : 1510 Кбит/сек Каналы : 6 каналов Расположение каналов : Front: L C R, Side: L R, LFE Частота : 48,0 КГц Битовая глубина : 24 бит Метод сжатия : С потерями Размер потока : 1,90 Гбайт (14%) Заголовок : А.Матвеев Язык : Russian Default : Нет Forced : Нет Аудио #4: Идентификатор : 5 Формат : DTS Формат/Информация : Digital Theater Systems Режим : 16 Параметр Endianness формата : Big Идентификатор кодека : A_DTS Продолжительность : 3 ч. 0 м. Вид битрейта : Постоянный Битрейт : 1509 Кбит/сек Каналы : 6 каналов Расположение каналов : Front: L C R, Side: L R, LFE Частота : 48,0 КГц Битовая глубина : 24 бит Метод сжатия : С потерями Размер потока : 1,90 Гбайт (14%) Язык : French Default : Нет Forced : Нет 13,98 Gb 5 2
10 февраля 2016 12:18 Жизнь Адель / La vie dAdle - Chapitres 1 et 2 (2013) BDRip 720p от Leonardo and Scarabey | Лицензия .torrent   [Информация о файле (нажмите для просмотра)] Перевод: Профессиональный (полное дублирование) ЛицензияФормат: MKVВидео кодек: MPEG-4 AVC Аудио кодек: AC3Видео: AVC, 1280x536 (2.40:1) at 23.976 fps, AVC at 3188 kbps avg, 0.189 bit/pixelАудио: Русский; AC3 5.1; 448 kbps; 48 kHz; профессиональный, полное дублированиеАудио: Французский; AC3 5.1; 448 kbps; 48 kHz; оригиналСубтитры: Русские, английские 5,14 Gb 120 5
10 февраля 2016 12:18 Жизнь Адель / La vie dAdle - Chapitres 1 et 2 (2013) BDRip-AVC от Leonardo and Scarabey | Лицензия .torrent   [Информация о файле (нажмите для просмотра)] Перевод: Профессиональный (полное дублирование) ЛицензияФормат: MKVВидео кодек: MPEG-4 AVC Аудио кодек: AC3Видео: AVC, 960x402 (2.40:1) at 23.976 fps, AVC at 1932 kbps avg, 0.204 bit/pixelАудио: Русский; AC3 5.1; 448 kbps; 48 kHz; профессиональный, полное дублированиеСубтитры: Русские, английские 3 Gb 20 7
10 февраля 2016 12:18 Жизнь Адель / La vie dAdle - Chapitres 1 et 2 (2013) HDRip от Scarabey | Лицензия .torrent   [Информация о файле (нажмите для просмотра)] Перевод: Профессиональный (полное дублирование) - ЛицензияКачество: HDRipФормат: AVIВидео: 720x304 (2.37:1), 23.976 fps, XviD build 50 ~1017 kbps avg, 0.19 bit/pixelАудио: 48 kHz, MPEG Layer 3, 2 ch, ~128.00 kbps avg 1,45 Gb 418 19
10 февраля 2016 12:18 Жизнь Адель / La vie dAdle - Chapitres 1 et 2 (2013) HDRip от Scarabey | Лицензия .torrent   [Информация о файле (нажмите для просмотра)] Перевод: Профессиональный (полное дублирование) - ЛицензияКачество: HDRipФормат: AVIВидео: 720x304 (2.37:1), 23.976 fps, XviD build 50 ~1530 kbps avg, 0.29 bit/pixelАудио: 48 kHz, AC3 Dolby Digital, 2/0 (L,R) ch, ~192.00 kbps avg 2,18 Gb 15 1
10 февраля 2016 12:18 Жизнь Адель / La vie dAdle - Chapitres 1 et 2 (2013) BDRip 720p | Лицензия .torrent   [Информация о файле (нажмите для просмотра)] Формат: MKVКачество: BDRip 720pВидео: 4695 kb/s, 1280x536Аудио: Russian / French: AC3, 448 kb/s (6 ch) 7,17 Gb 17 2
10 февраля 2016 12:18 Жизнь Адель / La vie dAdle - Chapitres 1 et 2 (2013) HDRip | Лицензия .torrent   [Информация о файле (нажмите для просмотра)] Формат: AVI (XviD)Качество: HDRip [Рип с BDRip 720p]Видео: 1284 kb/s, 720x304Аудио: AC3, 448 kb/s (6 ch) 2,19 Gb 59 7
10 февраля 2016 12:18 Жизнь Адель / La vie dAdle - Chapitres 1 et 2 (2013) HDRip | Лицензия .torrent   [Информация о файле (нажмите для просмотра)] Формат: AVI (XviD)Качество: HDRip [рип с BDRip 720p]Видео: 1027 kb/s, 720x304Аудио: MP3, 128 kb/s (2 ch) 1,46 Gb 65 4
10 февраля 2016 12:18 Жизнь Адель / Blue is the Warmest Color / La vie dAdle - Chapitres 1 et 2 (2013) BDRip 1080p от GORESEWAGE | Line, L2, 2xL1 .torrent   [Информация о файле (нажмите для просмотра)] Перевод 1: Профессиональный (дублированный) LineПеревод 2: Любительский (двухголосый закадровый) GREEN TEAПеревод 3: Любительский (одноголосый закадровый) Алексей Матвеев (Doctor_Joker)Перевод 4: Любительский (одноголосый закадровый) PashaupСубтитры: Russian (Full Inkantatem), English (Full), Portuguese (Full), Vietnamese (Full Colored)Качество: BDRip 1080p(HDMaNiAcS)Контейнер: MKVВидео: MPEG-4 AVC Video / 14500 kbps / 1920x804p / 23,976 fps / 2.40:1 / High Profile 4.1Аудио 1: Russian / AC3 / 2.0 / 48 kHz / 192 kbps / 16-bit | Dub LineАудио 2: Russian / DTS / 5.1 / 48 kHz / 1536 kbps / 24-bit | DVO GREEN TEAАудио 3: Russian / DTS / 5.1 / 48 kHz / 1536 kbps / 24-bit | VO Алексей Матвеев (Doctor_Joker)Аудио 4: Russian / DTS / 5.1 / 48 kHz / 1536 kbps / 24-bit | VO PashaupАудио 5: French / DTS / 5.1 / 48 kHz / 1536 kbps / 24-bit | Original 26,08 Gb 20 5
10 февраля 2016 12:18 Жизнь Адель / Blue is the Warmest Color / La vie dAdle - Chapitres 1 et 2 (2013) BDRip 720p от GORESEWAGE | Line, L2, 2xL1 .torrent   [Информация о файле (нажмите для просмотра)] Перевод 1: Профессиональный (дублированный) LineПеревод 2: Любительский (двухголосый закадровый) GREEN TEAПеревод 3: Любительский (одноголосый закадровый) Алексей Матвеев (Doctor_Joker)Перевод 4: Любительский (одноголосый закадровый) PashaupСубтитры: Russian (Full Inkantatem), English (Full), Portuguese (Full), Vietnamese (Full Colored)Качество: BDRip 720p(CHD)Контейнер: MKVВидео: MPEG-4 AVC Video / 6040 kbps / 1280x536p / 23,976 fps / 2.40:1 / High Profile 4.1Аудио 1: Russian / AC3 / 2.0 / 48 kHz / 192 kbps / 16-bit | Dub LineАудио 2: Russian / DTS / 5.1 / 48 kHz / 1536 kbps / 24-bit | DVO GREEN TEAАудио 3: Russian / DTS / 5.1 / 48 kHz / 1536 kbps / 24-bit | VO Алексей Матвеев (Doctor_Joker)Аудио 4: Russian / DTS / 5.1 / 48 kHz / 1536 kbps / 24-bit | VO PashaupАудио 5: French / DTS / 5.1 / 48 kHz / 1536 kbps / 24-bit | Original 15,44 Gb 5 7
10 февраля 2016 12:18 Жизнь Адель / Blue Is the Warmest Color / La vie dAdle - Chapitres 1 et 2 (2013) BDRip-AVC от potroks | А.Матвеев .torrent   [Информация о файле (нажмите для просмотра)] Перевод: Любительский (одноголосый закадровый)Субтитры: Русские, английскиеКачество: BDRip-AVCФормат: MKVВидео: х.264, 1032x432 (2,40:1), 23,976 fps, 1422 Кbps, 0.133 bit/pixelАудио#1: 48 kHz, AC3 Dolby Digital, 3/2 (L,C,R,l,r) + LFE ch, 448.00 kbps |RUSАудио#2: 48 kHz, AC3 Dolby Digital, 3/2 (L,C,R,l,r) + LFE ch, 448.00 kbps |FRE 2,92 Gb 4 1
10 февраля 2016 12:18 Жизнь Адель / Blue Is the Warmest Color / La vie dAdle - Chapitres 1 et 2 (2013) BDRip 720р от R.G.TorrBy | Матвеев .torrent   [Информация о файле (нажмите для просмотра)] Перевод: одноголосый закадровый (Алексей "Doctor Joker" Матвеев)Качество: BDRip 720pФормат: MKVВидео: x264 [email protected], 1280x538, 23,976 fps, 5835 kbps, 0.353 bit/pixelАудио #1: DTS, 5.1 ch, 48 kHz, 1510 kbps[Russian]Аудио #2: DTS, 5.1 ch, 48 kHz, 1509 kbps[French]Видео: Идентификатор : 1 Формат : AVC Формат/Информация : Advanced Video Codec Профиль формата : [email protected] Параметр CABAC формата : Да Параметр ReFrames формата : 12 кадров Идентификатор кодека : V_MPEG4/ISO/AVC Продолжительность : 3 ч. 0 м. Битрейт : 5835 Кбит/сек Ширина : 1280 пикселей Высота : 538 пикселей Соотношение сторон : 2,40:1 Режим частоты кадров : Постоянный Частота кадров : 23,976 кадра/сек Цветовое пространство : YUV Субдискретизация насыщенности : 4:2:0 Битовая глубина : 8 бит Тип развёртки : Прогрессивная Бит/(Пиксели*Кадры) : 0.353 Размер потока : 7,34 Гбайт (65%) Заголовок : CINEMANIA Библиотека кодирования : x264 core 142 r2389kMod 956c8d8 Настройки программы : cabac=1 / ref=12 / deblock=1:-3:-3 / analyse=0x3:0x133 / me=umh / subme=10 / psy=1 / fade_compensate=0.00 / psy_rd=1.05:0.00 / mixed_ref=1 / me_range=16 / chroma_me=1 / trellis=2 / 8x8dct=1 / cqm=0 / deadzone=21,11 / fast_pskip=0 / chroma_qp_offset=-2 / threads=6 / lookahead_threads=1 / sliced_threads=0 / nr=0 / decimate=0 / interlaced=0 / bluray_compat=0 / constrained_intra=0 / fgo=0 / bframes=6 / b_pyramid=2 / b_adapt=2 / b_bias=0 / direct=3 / weightb=1 / open_gop=0 / weightp=2 / keyint=250 / keyint_min=23 / scenecut=40 / intra_refresh=0 / rc=crf / mbtree=0 / crf=15.0000 / qcomp=0.80 / qpmin=0 / qpmax=69 / qpstep=4 / ip_ratio=1.10 / pb_ratio=1.10 / aq=1:0.80 Default : Нет Forced : НетАудио #1: Идентификатор : 2 Формат : DTS Формат/Информация : Digital Theater Systems Режим : 16 Параметр Endianness формата : Big Идентификатор кодека : A_DTS Продолжительность : 3 ч. 0 м. Вид битрейта : Постоянный Битрейт : 1510 Кбит/сек Каналы : 6 каналов Расположение каналов : Front: L C R, Side: L R, LFE Частота : 48,0 КГц Битовая глубина : 24 бит Метод сжатия : С потерями Размер потока : 1,90 Гбайт (17%) Заголовок : Алексей "Doctor Joker" Матвеев Язык : Russian Default : Да Forced : НетАудио #2: Идентификатор : 3 Формат : DTS Формат/Информация : Digital Theater Systems Режим : 16 Параметр Endianness формата : Big Идентификатор кодека : A_DTS Продолжительность : 3 ч. 0 м. Вид битрейта : Постоянный Битрейт : 1509 Кбит/сек Каналы : 6 каналов Расположение каналов : Front: L C R, Side: L R, LFE Частота : 48,0 КГц Битовая глубина : 24 бит Метод сжатия : С потерями Размер потока : 1,90 Гбайт (17%) Язык : French Default : Нет Forced : Нет 11,37 Gb 7 3
10 февраля 2016 12:18 Жизнь Адель / La vie dAdle (2013) HDRip-AVC | Pashaup | iPhone .torrent   [Информация о файле (нажмите для просмотра)] Перевод: Любительский (одноголосый)[Pashaup]Качество: HDRipФормат: MP4Видео: 480x200, 24 fps, 640 kbps, 0.278 bit/pixelАудио: 48 kHz, 2 ch, 128 kbps 996,39 Mb 9 2

Жизнь Адель 2013 - скачать бесплатно через торрент в хорошем качестве. Без регистрации

www.kinovit.net

Название: Жизнь Адель / Blue Is the Warmest Color / La vie d'Adèle - Chapitres 1 et 2 (2013) BDRip от HQCLUB | Лицензия
Качество видео: BDRip (источник: MooN_WalkeR / Blu-Ray Remux [USA-Transfer] / 1080р)
Перевод: Профессиональный (полное дублирование)
Формат видео: AVI
Видео: 720x304 (2.37:1), 23.976 fps, XviD build 65 ~1850 kbps avg, 0.35 bit/pixel
Аудио: + Любительский (двухголосый, закадровый) GREEN TEA48 kHz, AC3 Dolby Digital, 3/2 (L,C,R,l,r) + LFE ch, ~448 kbps avg (DUB)48 kHz, AC3 Dolby Digital, 3/2 (L,C,R,l,r) + LFE ch, ~448 kbps avg (DVO.GREEN.TEA) (отдельно)48 kHz, AC3 Dolby Digital, 3/2 (L,C,R,l,r) + LFE ch, ~448 kbps avg (VO.DOCTOR.JOKER) (отдельно)48 kHz, AC3 Dolby Digital, 3/2 (L,C,R,l,r) + LFE ch, ~448 kbps avg (FRE) (отдельно)
Скачать

Загрузка начнется в течение 5 сек.

2.90 GB

Название: Жизнь Адель / La vie d'Adèle - Chapitres 1 et 2 (2013) BDRip 720p от Leonardo and Scarabey | Лицензия
Качество видео: BDRip 720p Исходник: Blu-ray
Перевод: Профессиональный (полное дублирование) Лицензия
Формат видео: MKV Видео кодек: MPEG-4 AVC Аудио кодек: AC3
Видео: AVC, 1280x536 (2.40:1) at 23.976 fps, AVC at 3188 kbps avg, 0.189 bit/pixel
Аудио: Русский; AC3 5.1; 448 kbps; 48 kHz; профессиональный, полное дублированиеФранцузский; AC3 5.1; 448 kbps; 48 kHz; оригинал
Скачать

Загрузка начнется в течение 5 сек.

5.14 GB

Название: Жизнь Адель / La vie d'Adèle - Chapitres 1 et 2 (2013) BDRip-AVC от Leonardo and Scarabey | Лицензия
Качество видео: BDRip-AVC Исходник: Blu-ray
Перевод: Профессиональный (полное дублирование) Лицензия
Формат видео: MKV Видео кодек: MPEG-4 AVC Аудио кодек: AC3
Видео: AVC, 960x402 (2.40:1) at 23.976 fps, AVC at 1932 kbps avg, 0.204 bit/pixel
Аудио: Русский; AC3 5.1; 448 kbps; 48 kHz; профессиональный, полное дублирование
Скачать

Загрузка начнется в течение 5 сек.

3.00 GB

Название: Жизнь Адель / La vie d'Adèle - Chapitres 1 et 2 (2013) HDRip от Scarabey | Лицензия
Качество видео: HDRip
Перевод: Профессиональный (полное дублирование) - Лицензия
Формат видео: AVI
Видео: 720x304 (2.37:1), 23.976 fps, XviD build 50 ~1017 kbps avg, 0.19 bit/pixel
Аудио: 48 kHz, MPEG Layer 3, 2 ch, ~128.00 kbps avg
Скачать

Загрузка начнется в течение 5 сек.

1.45 GB

Название: Жизнь Адель / La vie d'Adèle - Chapitres 1 et 2 (2013) HDRip от Scarabey | Чистый Звук
Качество видео: HDRip
Перевод: Профессиональный (полное дублирование) - Чистый звук
Формат видео: AVI
Видео: 720x304 (2.37:1), 23.976 fps, XviD build 50 ~1530 kbps avg, 0.29 bit/pixel
Аудио: 48 kHz, AC3 Dolby Digital, 2/0 (L,R) ch, ~192.00 kbps avg
Скачать

Загрузка начнется в течение 5 сек.

2.18 GB

Название: Жизнь Адель / La vie d'Adèle - Chapitres 1 et 2 (2013) HDRip | Чистый Звук
Качество видео: HDRip [рип с BDRip 720p]
Перевод: Дублированное [Чистый Звук]
Формат видео: AVI (XviD)
Видео: 1027 kb/s, 720x304
Аудио: MP3, 128 kb/s (2 ch)
Скачать

Загрузка начнется в течение 5 сек.

1.47 GB

Название: Жизнь Адель / La vie d'Adèle - Chapitres 1 et 2 (2013) BDRip 720p | Чистый Звук
Качество видео: BDRip 720p
Перевод: Дублированное [Чистый Звук]
Формат видео: MKV
Видео: 4695 kb/s, 1280x536
Аудио: Russian: AC3, 192 kb/s (2 ch) / French: AC3, 448 kb/s (6 ch)
Скачать

Загрузка начнется в течение 5 сек.

6.85 GB

Название: Жизнь Адель / La vie d'Adèle - Chapitres 1 et 2 (2013) HDRip | Чистый Звук
Качество видео: HDRip [Рип с BDRip 720p]
Перевод: Дублированное [Чистый Звук]
Формат видео: AVI (XviD)
Видео: 1435 kb/s, 720x304
Аудио: AC3, 192 kb/s (2 ch)
Скачать

Загрузка начнется в течение 5 сек.

2.06 GB

Название: Жизнь Адель / La vie d'Adèle - Chapitres 1 et 2 / Blue Is the Warmest Color (2013) BDRip 720p от CINEMANIA | L1
Качество видео: BDRip 720p [CtrlHD]
Перевод: Любительское (одноголосое) [Pashaup]
Формат видео: MKV
Видео: 1280x538, 5861 kb/s
Аудио: Русский: AC3, 192 kb/s (2 ch)Французский: DTS, 1510 kb/s (6 ch)
Скачать

Загрузка начнется в течение 5 сек.

9.71 GB

Название: Жизнь Адель / La vie d'Adèle - Chapitres 1 et 2 / Blue Is the Warmest Color (2013) BDRip 1080p от CINEMANIA | L1
Качество видео: BDRip 1080p [CtrlHD]
Перевод: Любительское (одноголосое) [Pashaup]
Формат видео: MKV
Видео: 1920x804, 12458 kb/s
Аудио: Русский: AC3, 192 kb/s (2 ch)Французский: DTS, 1510 kb/s (6 ch)
Скачать

Загрузка начнется в течение 5 сек.

18.09 GB

Название: Жизнь Адель / La vie d'Adèle - Chapitres 1 et 2 (2013) HDRip | L1
Качество видео: HDRip [Рип с BDRip 720p]
Перевод: Любительский (одноголосый) [Pashaup]
Формат видео: AVI (XviD)
Видео: 1435 kb/s, 720x304
Аудио: AC3, 192 kb/s (2 ch)
Скачать

Загрузка начнется в течение 5 сек.

2.06 GB

Название: Жизнь Адель / La vie d'Adèle - Chapitres 1 et 2 (2013) BDRip 720p | L1
Качество видео: BDRip 720p
Перевод: Любительский (одноголосый) [Pashaup]
Формат видео: MKV
Видео: 4695 kb/s, 1280x536
Аудио: Russian: AC3, 192 kb/s (2 ch) / French: AC3, 448 kb/s (6 ch)
Скачать

Загрузка начнется в течение 5 сек.

6.85 GB

Название: Жизнь Адель / La vie d'Adèle - Chapitres 1 et 2 (2013) HDRip | L1
Качество видео: HDRip
Перевод: Любительский одноголосый [Pashaup]
Видео: XviD, 1027 Кбит/с, 720x304
Аудио: MP3, 2 ch, 128 Кбит/с
Скачать

Загрузка начнется в течение 5 сек.

1.47 GB

Название: Жизнь Адель / La vie d'Adèle - Chapitres 1 et 2 (2013) HDRip | Sub
Качество видео: HDRip
Перевод: Субтитры
Формат видео: AVI (XviD)
Видео: 1027 kb/s, 720x304
Аудио: French: AC3, 128 kb/s (2 ch)
Скачать

Загрузка начнется в течение 5 сек.

1.47 GB

Скачать фильм Жизнь Адель через торрент в хорошем качестве бесплатно 1080p

Format                                   : MatroskaFormat version                           : Version 2File size                                : 11.6 GiBDuration                                 : 2h 59mnOverall bit rate                         : 9 209 KbpsMovie name                               : Zhizn' Adel'.(2013).BDRip.1080p.[denis100]Encoded date                             : UTC 2014-12-09 07:16:32Writing application                      : mkvmerge v5.8.0 ('No Sleep / Pillow') built on Sep  2 2012 15:37:04Writing library                          : libebml v1.2.3 + libmatroska v1.3.0

VideoID                                       : 1Format                                   : AVCFormat/Info                              : Advanced Video CodecFormat profile                           : [email protected] settings, CABAC                   : YesFormat settings, ReFrames                : 5 framesCodec ID                                 : V_MPEG4/ISO/AVCDuration                                 : 2h 59mnBit rate                                 : 7 931 KbpsWidth                                    : 1 920 pixelsHeight                                   : 804 pixelsDisplay aspect ratio                     : 2.40:1Frame rate                               : 24.000 fpsColor space                              : YUVChroma subsampling                       : 4:2:0Bit depth                                : 8 bitsScan type                                : ProgressiveBits/(Pixel*Frame)                       : 0.214Stream size                              : 9.72 GiB (84%)Title                                    : Zhizn' Adel'.(2013).BDRip.1080p.[denis100]Writing library                          : x264 core 142 r2491 24e4fedEncoding settings                        : cabac=1 / ref=5 / deblock=1:-3:-3 / analyse=0x3:0x133 / me=umh / subme=11 / psy=1 / psy_rd=1.00:0.10 / mixed_ref=1 / me_range=32 / chroma_me=1 / trellis=2 / 8x8dct=1 / cqm=0 / deadzone=21,11 / fast_pskip=0 / chroma_qp_offset=-3 / threads=6 / lookahead_threads=1 / sliced_threads=0 / nr=0 / decimate=1 / interlaced=0 / bluray_compat=0 / constrained_intra=0 / bframes=8 / b_pyramid=2 / b_adapt=2 / b_bias=0 / direct=3 / weightb=1 / open_gop=0 / weightp=2 / keyint=240 / keyint_min=24 / scenecut=40 / intra_refresh=0 / rc=2pass / mbtree=0 / bitrate=7931 / ratetol=1.0 / qcomp=0.60 / qpmin=0 / qpmax=69 / qpstep=4 / cplxblur=20.0 / qblur=0.5 / ip_ratio=1.40 / pb_ratio=1.30 / aq=1:0.90Language                                 : EnglishDefault                                  : YesForced                                   : No

Audio #1ID                                       : 2Format                                   : AC-3Format/Info                              : Audio Coding 3Mode extension                           : CM (complete main)Codec ID                                 : A_AC3Duration                                 : 2h 59mnBit rate mode                            : ConstantBit rate                                 : 640 KbpsChannel(s)                               : 6 channelsChannel positions                        : Front: L C R, Side: L R, LFESampling rate                            : 48.0 KHzBit depth                                : 16 bitsCompression mode                         : LossyStream size                              : 822 MiB (7%)Title                                    : ДублированныйLanguage                                 : RussianDefault                                  : YesForced                                   : No

Audio #2ID                                       : 3Format                                   : AC-3Format/Info                              : Audio Coding 3Mode extension                           : CM (complete main)Codec ID                                 : A_AC3Duration                                 : 2h 59mnBit rate mode                            : ConstantBit rate                                 : 640 KbpsChannel(s)                               : 6 channelsChannel positions                        : Front: L C R, Side: L R, LFESampling rate                            : 48.0 KHzBit depth                                : 16 bitsCompression mode                         : LossyStream size                              : 822 MiB (7%)Title                                    : EnglishLanguage                                 : EnglishDefault                                  : NoForced                                   : No

Menu00:00:00.000                             : en:00:00:00.00000:00:11.500                             : en:00:00:11.50000:11:48.583                             : en:00:11:48.58300:38:28.542                             : en:00:38:28.54200:57:45.333                             : en:00:57:45.33301:14:29.500                             : en:01:14:29.50001:34:26.500                             : en:01:34:26.50001:58:41.125                             : en:01:58:41.12502:23:53.833                             : en:02:23:53.833

piratbit.ru

Скачать фильм Жизнь Адель через торрент в хорошем качестве бесплатно HDRip

piratbit.ru

Раздают: 1 [ 0 KB/s ]
Размер: 1.46 GB | Добавлен: 3 года 7 мес. назад | Торрент скачан:581 раз
Реклама Дарим 3000 рублей за регистрацию, не упусти свой шанс получить шикарный бонус!!!

15-03-2014 09:29 Жизнь Адель Скачать торрент  

Жизнь Адель / La vie d'Adèle - Chapitres 1 et 2 Год выпуска: 2013Страна: Франция, Бельгия, ИспанияЖанр: драма, мелодрама

Продолжительность: 02:59:48Перевод: Профессиональный [Дубляж - Лицензия]Субтитры: Нет

Режиссер: Абделатиф Кешиш / Abdelatif KechicheВ ролях: Адель Экзаркопулос (Adèle), Леа Сейду (Emma), Салим Кешьюш (Samir), Орельен Рекуан (Père Adèle), Кэтрин Сали (Mère Adèle), Бенжамин Сиксу (Antoine), Мона Валравенс (Lise), Альма Жодоровски (Béatrice), Жереми Лаэрт (Thomas), Энн Лорье (Mère Emma), Бенуа Пилот (Beau Père Emma), Сандор Фюнтек (Valentin)Описание: 15-летняя Адель мечтает о вечной любви и встречает очаровательного парня, который тут же влюбляется в неё. Но неожиданно для неё самой, Адель начинает видеть странные сны с участием загадочной девушки с синими волосами, которую случайно встретила на улице. Юная Адель начинает понимать, что её манят не просто синие волосы, её привлекает сама незнакомка.Рейтингkinopoisk.ru: 7.520 (5552)imdb.com: 8.00 (30 201)MPAA: NC-17 - Лицам до 17 лет просмотр запрещенКачество: HDRipФормат: AVIВидео кодек: XviDАудио кодек: MP3 Видео: XviD, 720x304 (2.35:1), 1028 kbps, 23,976 fps, 0,196 bppАудио: MP3 / 2.0 / 48 kHz / 128 kbps / GeneralComplete name : D:ТорентыZhiznj.Adelj.2013.D.HDRip.1.46GB.aviFormat : AVIFormat/Info : Audio Video InterleaveFile size : 1.46 GiBDuration : 2h 59mnOverall bit rate : 1 166 KbpsWriting application : VirtualDubMod 1.5.10.2 (build 2540/release)Writing library : VirtualDubMod build 2540/release

VideoID : 0Format : MPEG-4 VisualFormat profile : Advanced [email protected] settings, BVOP : 1Format settings, QPel : NoFormat settings, GMC : No warppointsFormat settings, Matrix : CustomCodec ID : XVIDCodec ID/Hint : XviDDuration : 2h 59mnBit rate : 1 029 KbpsWidth : 720 pixelsHeight : 304 pixelsDisplay aspect ratio : 2.35:1Frame rate : 23.976 fpsColor space : YUVChroma subsampling : 4:2:0Bit depth : 8 bitsScan type : ProgressiveCompression mode : LossyBits/(Pixel*Frame) : 0.196Stream size : 1.29 GiB (88%)Writing library : XviD 73

AudioID : 1Format : MPEG AudioFormat version : Version 1Format profile : Layer 3Mode : Joint stereoCodec ID : 55Codec ID/Hint : MP3 Duration : 2h 59mnBit rate mode : ConstantBit rate : 128 KbpsChannel(s) : 2 channelsSampling rate : 48.0 KHzCompression mode : LossyStream size : 165 MiB (11%)Alignment : Aligned on interleavesInterleave, duration : 42 ms (1.00 video frame)Interleave, preload duration : 504 ms

Скачать Жизнь Адель через торрент http://i4.imageban.ru/out/2014/03/15/9818e7d03719de09bca7fd2b1e5318cc.jpg Скачать фильм Жизнь Адель через торрент бесплантно в хорошем качестве Описание: 15-летняя Адель мечтает о вечной любви и встречает очаровательного парня, который тут же влюбляется в неё. Но неожиданно для неё ... 2014-03-15 09:29 10 10 23

Loading...

Loading...

Рекламный пират

15-03-2014 09:53 Жизнь Адель Скачать торрент  

очередной"гимн"педо-юропейским"ценностям"

15-03-2014 10:50 Жизнь Адель Скачать торрент  

Stopper68 писал(а):

очередной"гимн"педо-юропейским"ценностям"

да вы остряк, у вас секса нет, не было и не будет, ну разве что порнуху одним глазком и передернуть, и потом поп-ь о ценностях и духовности, валите в церковь и не парте мозг. вон у вас есть чем заняться эротических обоев куча, и дебильных комедий.

15-03-2014 10:59 Жизнь Адель Скачать торрент  

MalekUA писал(а):

Stopper68 писал(а):

очередной"гимн"педо-юропейским"ценностям"

да вы остряк, у вас секса нет, не было и не будет, ну разве что порнуху одним глазком и передернуть, и потом поп-ь о ценностях и духовности, валите в церковь и не парте мозг. вон у вас есть чем заняться эротических обоев куча, и дебильных комедий.:rofle:

15-03-2014 14:37 Жизнь Адель Скачать торрент  

MalekUA писал(а):

Stopper68 писал(а):

очередной"гимн"педо-юропейским"ценностям"

да вы остряк, у вас секса нет, не было и не будет, ну разве что порнуху одним глазком и передернуть, и потом поп-ь о ценностях и духовности, валите в церковь и не парте мозг. вон у вас есть чем заняться эротических обоев куча, и дебильных комедий.Да не гони, чувак все прально написал, запарили с этим тупым извратом ЗЫ все хорошо с сексом

15-03-2014 23:15 Жизнь Адель Скачать торрент  

фильм посмотрела, как жизнь прожила. интимно, откровенно, честно, больно и - любя. жизнь не имеет пола. как и любовь.этот фильм - не кино.. это - замочная скважина и лакмусовая бумажка. для каждого своя

16-03-2014 04:49 Жизнь Адель Скачать торрент  

MalekUA писал(а):

Stopper68 писал(а):

очередной"гимн"педо-юропейским"ценностям"

да вы остряк, у вас секса нет, не было и не будет, ну разве что порнуху одним глазком и передернуть, и потом поп-ь о ценностях и духовности, валите в церковь и не парте мозг. вон у вас есть чем заняться эротических обоев куча, и дебильных комедий.За меня не переживай,я столько за свою жизнь пере..б.А тебе что, к пи..рам сильно хочется в юропу?скоро тебе предоставят такую возможность,не сцы!Да,я лучше передёрну,чем как ты,ж..пу свою подставлять пи...расам.

17-03-2014 19:35 Жизнь Адель Скачать торрент  

Stopper68Как будто у нас пассивных мало, тебя , вон, хотя б взять ?)) Чем тебе Европа не мила ? Небось своих детей учить да заиметь дачку ты мечтаешь где-нибудь в Верхней Пышме ?))

Дорогой пользователь! Огромная просьба, поблагодарите релизера, оцените раздачу и оставьте свои комментарий, если Вы скачали Жизнь Адель через торрент бесплатно! Внесите свою лепту в развитие PiratBit!

Комментировать посты могут только пользователи прошедшие не сложную регистрацию

Жизнь Адель через торрент Скачать бесплатно Жизнь Адель Жизнь Адель скачать торрент Жизнь Адель смотреть онлайн Cкачать фильм Жизнь Адель бесплатно Жизнь Адель скачать торрент в хорошем качестве Жизнь Адель смотреть онлайн бесплатно в хорошем качестве

Вы не можете начинать темыВы не можете отвечать на сообщенияВы не можете редактировать свои сообщенияВы не можете удалять свои сообщенияВы не можете голосовать в опросахВы не можете прикреплять файлы к сообщениямВы можете скачивать файлы

Скачать фильм Жизнь Адель через торрент в хорошем качестве бесплатно HDRip

piratbit.ru

Размер: 2.19 GB | Добавлен: 3 года 7 мес. назад | Торрент скачан:352 раза
Реклама Дарим 3000 рублей за регистрацию, не упусти свой шанс получить шикарный бонус!!!

15-03-2014 09:31 Жизнь Адель Скачать торрент  

Жизнь Адель / La vie d'Adèle - Chapitres 1 et 2 Год выпуска: 2013Страна: Франция, Бельгия, ИспанияЖанр: драма, мелодрама

Продолжительность: 03:00:08Перевод: Профессиональный [Дубляж - Лицензия]Субтитры: Нет

Режиссер: Абделатиф Кешиш / Abdelatif KechicheВ ролях: Адель Экзаркопулос (Adèle), Леа Сейду (Emma), Салим Кешьюш (Samir), Орельен Рекуан (Père Adèle), Кэтрин Сали (Mère Adèle), Бенжамин Сиксу (Antoine), Мона Валравенс (Lise), Альма Жодоровски (Béatrice), Жереми Лаэрт (Thomas), Энн Лорье (Mère Emma), Бенуа Пилот (Beau Père Emma), Сандор Фюнтек (Valentin)Описание: 15-летняя Адель мечтает о вечной любви и встречает очаровательного парня, который тут же влюбляется в неё. Но неожиданно для неё самой, Адель начинает видеть странные сны с участием загадочной девушки с синими волосами, которую случайно встретила на улице. Юная Адель начинает понимать, что её манят не просто синие волосы, её привлекает сама незнакомка.Рейтингkinopoisk.ru: 7.520 (5552)imdb.com: 8.00 (30 201)MPAA: NC-17 - Лицам до 17 лет просмотр запрещенКачество: HDRipФормат: AVIВидео кодек: XviDАудио кодек: AC3Видео: XviD, 720x304 (2.35:1), 1279 kbps, 23,976 fps, 0,244 bppАудио: AC3 / 5.1 / 48 kHz / 448 kbps / 16 bit GeneralComplete name : D:ТорентыZhiznj.Adelj.2013.D.HDRip.2100MB.aviFormat : AVIFormat/Info : Audio Video InterleaveFormat profile : OpenDMLFile size : 2.19 GiBDuration : 3h 0mnOverall bit rate : 1 740 KbpsWriting application : VirtualDubMod 1.5.10.2 (build 2540/release)Writing library : VirtualDubMod build 2540/release

VideoID : 0Format : MPEG-4 VisualFormat profile : Advanced [email protected] settings, BVOP : 2Format settings, QPel : NoFormat settings, GMC : No warppointsFormat settings, Matrix : Default (MPEG)Codec ID : XVIDCodec ID/Hint : XviDDuration : 3h 0mnBit rate : 1 280 KbpsWidth : 720 pixelsHeight : 304 pixelsDisplay aspect ratio : 2.35:1Frame rate : 23.976 fpsColor space : YUVChroma subsampling : 4:2:0Bit depth : 8 bitsScan type : ProgressiveCompression mode : LossyBits/(Pixel*Frame) : 0.244Stream size : 1.61 GiB (74%)Writing library : XviD 1.2.1 (UTC 2008-12-04)

AudioID : 1Format : AC-3Format/Info : Audio Coding 3Mode extension : CM (complete main)Codec ID : 2000Duration : 3h 0mnBit rate mode : ConstantBit rate : 448 KbpsChannel(s) : 6 channelsChannel positions : Front: L C R, Side: L R, LFESampling rate : 48.0 KHzBit depth : 16 bitsCompression mode : LossyStream size : 577 MiB (26%)Alignment : Split accross interleavesInterleave, duration : 42 ms (1.00 video frame)Interleave, preload duration : 500 ms

Скачать Жизнь Адель через торрент http://i4.imageban.ru/out/2014/03/15/b6b3772fd880756976f6d50a0c27cea4.jpg Скачать фильм Жизнь Адель через торрент бесплантно в хорошем качестве Описание: 15-летняя Адель мечтает о вечной любви и встречает очаровательного парня, который тут же влюбляется в неё. Но неожиданно для неё ... 2014-03-15 09:31 10 10 18

Loading...

Loading...

Рекламный пират

15-03-2014 09:51 Жизнь Адель Скачать торрент  

вот она,гей-юропа,во всей своей "красе"

15-03-2014 10:01 Жизнь Адель Скачать торрент  

В европе то хоть геи, а в россии -удалено :)Устное!

15-03-2014 10:12 Жизнь Адель Скачать торрент  

В мире существовал только один гей - Фредди Меркьюри, а все остальные - удалено.Устное!

15-03-2014 12:23 Жизнь Адель Скачать торрент  

И при чем тут геи? Тут милые лесби, а они тут собрались, геев обсуждать

Дорогой пользователь! Огромная просьба, поблагодарите релизера, оцените раздачу и оставьте свои комментарий, если Вы скачали Жизнь Адель через торрент бесплатно! Внесите свою лепту в развитие PiratBit!

Комментировать посты могут только пользователи прошедшие не сложную регистрацию

Жизнь Адель через торрент Скачать бесплатно Жизнь Адель Жизнь Адель скачать торрент Жизнь Адель смотреть онлайн Cкачать фильм Жизнь Адель бесплатно Жизнь Адель скачать торрент в хорошем качестве Жизнь Адель смотреть онлайн бесплатно в хорошем качестве

Вы не можете начинать темыВы не можете отвечать на сообщенияВы не можете редактировать свои сообщенияВы не можете удалять свои сообщенияВы не можете голосовать в опросахВы не можете прикреплять файлы к сообщениямВы можете скачивать файлы

Жизнь Адель торрент скачать | Скачать торренты в BDRip и HDRip качестве

Жизнь Адель / Blue Is the Warmest Color / La vie d'Adèle - Chapitres 1 et 2 (Абделатиф Кешиш / Abdellatif Kechiche) [2013, Франция, Тунис, Бельгия, Испания, драма, мелодрама, BDRip-AVC] Dub + Sub Rus, Eng + Original Fre1.55 GBЖизнь Адель / Blue Is the Warmest Color / La vie d'Adèle - Chapitres 1 et 2 (2013) BDRip-AVC | D1.45 GBЖизнь Адель / Adèle's Life / Blue Is the Warmest Color / La vie d'Adèle - Chapitres 1 et 2 (Абделатиф Кешиш / Abdellatif Kechiche) [2013, Франция, Бельгия, Испания, драма, мелодрама, BDRip-AVC] Dub + Sub (Rus, Eng) + Original (Fre)3.4 GBЖизнь Адель / La vie d'Adèle - Chapitres 1 et 2 / 2013 / ДБ / HDRip / 1.46 ГБ1.46 GBЖизнь Адель / La vie d'Adèle - Chapitres 1 et 2 / Blue Is the Warmest Color (Абделатиф Кешиш / Abdelatif Kechiche) [2013, Франция, Бельгия, Испания, драма, мелодрама, BDRip] Dub + Original Fre + Subs2.91 GBЖизнь Адель / La vie d'Adèle - Chapitres 1 et 2 / Blue Is the Warmest Color (Абделатиф Кешиш / Abdelatif Kechiche) [2013, Франция, Бельгия, Испания, драма, мелодрама, BDRip] Dub BD2.18 GBЖизнь Адель / Blue Is the Warmest Color / La vie d'Adèle - Chapitres 1 et 2 (2013) BDRip-AVC от HELLYWOOD | Лицензия2.92 GBЖизнь Адель / La vie d'Adèle - Chapitres 1 et 2 / 2013 / ДБ, АП (Матвеев (Doctor Joker)), ЛД, СТ / BDRip (1080p) / 22.36 ГБ22.36 GBЖизнь Адель / La vie d'Adèle - Chapitres 1 et 2 (2013) BDRip 720p | Лицензия7.17 GBЖизнь Адель / La vie d'Adèle - Chapitres 1 et 2 / Blue Is the Warmest Color (Абделатиф Кешиш / Abdelatif Kechiche) [2013, Франция, Бельгия, Испания, драма, мелодрама, BDRemux 1080p] Dub + DVO + VO + Original Fre + Subs (rus, eng)50.92 GBЖизнь Адель / La vie d'Adèle - Chapitres 1 et 2 / 2013 / ДБ / BDRip (AVC) / 3.08 ГБ3.08 GBЖизнь Адель / La vie d'Adele - Chapitres 1 et 2 / Blue Is The Warmest Color (2013) [720p]7.12 GBЖизнь Адель / La vie d'Adèle - Chapitres 1 et 2 / 2013 / ДБ / HDRip / 2.91 ГБ2.91 GBЖизнь Адель / La vie d'Adele - Chapitres 1 et 2 / Blue Is The Warmest Color (2013) [1080p]20.7 GBЖизнь Адель / La vie d'Adèle - Chapitres 1 et 2 (2013) BDRip 720p от Leonardo and Scarabey | Лицензия5.14 GB[Soundtrack / Unofficial] Жизнь Адель / La vie d'Adele (Blue Is the Warmest Color) - 2013, MP3, 320 kbps165.8 MBЖизнь Адель / La vie d'Adèle - Chapitres 1 et 2 (Абделатиф Кешиш / Abdelatif Kechiche) [2013, Франция, Бельгия, Испания, драма, мелодрама, Blu-ray disc] Dub + Sub Rus + Original Fre25.36 GBЖизнь Адель / La vie d'Adele - Chapitres 1 et 2 / Blue Is The Warmest Color (2013) HDRip2.91 GBЖизнь Адель / La vie d'Adèle - Chapitres 1 et 2 / 2013 / ДБ, АП (Матвеев (Doctor Joker)), ЛД, СТ / BDRip (720p) / 13.98 ГБ13.98 GBЖизнь Адель / La vie d'Adele - Chapitres 1 et 2 (Абделатиф Кешиш / Abdellatif Kechiche) [2013, Франция, Бельгия, Испания, драма, мелодрама, DVD9] R5 Dub + Sub Rus + Original Fre7.79 GBЖизнь Адель / Blue Is the Warmest Color / La vie d'Adèle - Chapitres 1 et 2 (2013) BDRip от HQCLUB | Лицензия2.9 GBЖизнь Адель / La vie dAdele - Chapitres 1 et 2 / Blue Is the Warmest Color (2013) BDRip 1080p от NNNB11.55 GBЖизнь Адель / La vie d'Adele - Chapitres 1 et 2 / Blue Is The Warmest Color (2013) HDRip [Line]2.05 GBЖизнь Адель / La vie d'Adele - Chapitres 1 et 2 / Blue Is the Warmest Color (Абделатиф Кешиш / Abdellatif Kechiche) [2013, Франция, Бельгия, Испания, Драма, Мелодрама, DVD9 (Custom)] Dub + Sub Eng, Rus + Original Fre / Criterion Collection#6957.93 GBЖизнь Адель / La vie d'Adele - Chapitres 1 et 2 / Blue Is The Warmest Color (2013) HDRip2.91 GBЖизнь Адель / La vie d'Adèle - Chapitres 1 et 2 (2013) HDRip от Scarabey | Лицензия2.18 GBЖизнь Адель / La vie d'Adèle - Chapitres 1 et 2 (2013) HDRip от Scarabey | Лицензия2.18 GBЖизнь Адель / La vie d'Adèle - Chapitres 1 et 2 / 2013 / 2 x ЛО, СТ / BDRip (720p) / 11.61 ГБ11.61 GBЖизнь Адель / La vie d'Adèle - Chapitres 1 et 2 / 2013 / СТ / BDRip / 1.47 ГБ1.47 GBЖизнь Адель / Blue is the Warmest Color / La vie d'Adèle - Chapitres 1 et 2 (2013) BDRip 1080p от GORESEWAGE | Line, L2, 2xL126.08 GBЖизнь Адель / La vie d'Adele - Chapitres 1 et 2 (Абделатиф Кешиш / Abdelatif Kechiche) [2013 г., драма, мелодрама, BDRip 720p] Dub + Original (Fre) + Sub (Eng)7.17 GBЖизнь Адель / La vie d'Adele - Chapitres 1 et 2 (Абделатиф Кешиш / Abdelatif Kechiche) [2013 г., драма, мелодрама, BDRip 1080p] Dub + DVO (Green Tea) + AVO (Матвеев) + Original (Fre) + Sub (Rus, Eng)22.36 GBЖизнь Адель / La vie d'Adele - Chapitres 1 et 2 (Абделатиф Кешиш / Abdelatif Kechiche) [2013 г., драма, мелодрама, HDRip] Dub1.46 GBЖизнь Адель / La vie d'Adèle (2013) HDRip-AVC | Pashaup | iPhone996.39 MBЖизнь Адель / Blue Is the Warmest Color / La vie d'Adele (Абделатиф Кешиш) [2013, Драма | Мелодрама, BDRip 720p] дополнительные материалы434.7 MBЖизнь Адель / Blue Is the Warmest Color / La vie d'Adèle - Chapitres 1 et 2 (2013) BDRip 720р от R.G.TorrBy | Матвеев11.37 GBЖизнь Адель / La vie d'Adele - Chapitres 1 et 2 (Абделатиф Кешиш / Abdelatif Kechiche) [2013 г., драма, мелодрама, HDRip] Original (Fre) + Sub (Rus)1.47 GBЖизнь Адель / La vie d'Adele - Chapitres 1 et 2 (Абделатиф Кешиш / Abdelatif Kechiche) [2013 г., драма, мелодрама, HDRip] Dub1.46 GBЖизнь Адель / La vie d'Adèle - Chapitres 1 et 2 / Blue Is the Warmest Color (2013) BDRip 1080p от CINEMANIA | D, L2, A22.36 GBЖизнь Адель / Blue Is the Warmest Color / La vie d'Adèle - Chapitres 1 et 2 (2013) BDRip-AVC от potroks | А.Матвеев2.92 GBЖизнь Адель / La vie d'Adèle - Chapitres 1 et 2 / Blue Is the Warmest Color (Абделатиф Кешиш / Abdelatif Kechiche) [2013, Франция, Бельгия, Испания, драма, мелодрама, BDRip] Dub BD2.18 GBЖизнь Адель / La vie d'Adèle - Chapitres 1 et 2 / 2013 / ДБ, АП (Матвеев (Doctor Joker)), ЛД, ЛО, СТ / Blu-Ray Remux (1080p) / 49.51 ГБ49.51 GBЖизнь Адель / La vie d'Adèle - Chapitres 1 et 2 (2013) HDRip | Лицензия2.19 GBЖизнь Адель / Blue is the Warmest Color / La vie d'Adèle - Chapitres 1 et 2 (2013) BDRip 720p от GORESEWAGE | Line, L2, 2xL115.44 GBЖизнь Адель / La vie d'Adele - Chapitres 1 et 2 (Абделатиф Кешиш / Abdelatif Kechiche) [2013 г., драма, мелодрама, BDRip 720p] Dub + DVO (Green Tea) + AVO (Матвеев) + Original (Fre) + Sub (Rus, Eng)13.98 GBЖизнь Адель / La vie d'Adèle - Chapitres 1 et 2 / 2013 / ДБ / HDRip / 2.19 ГБ2.19 GBЖизнь Адель / La vie d'Adele - Chapitres 1 et 2 / Blue Is The Warmest Color (2013) BDRip [1080p] [Fr / EN Sub]12 GBЖизнь Адель / La vie d'Adele - Chapitres 1 et 2 / Blue Is The Warmest Color (2013) HDRip [Line]1.46 GBЖизнь Адель / La vie d'Adèle - Chapitres 1 et 2 / 2013 / ДБ, СТ / DVD-9 / 7.93 ГБ7.93 GBЖизнь Адель / La vie d'Adele - Chapitres 1 et 2 (Абделатиф Кешиш / Abdelatif Kechiche) [2013 г., драма, мелодрама, BDRip-AVC] Dub + Sub (Rus, Eng)3 GB tparser.org – торрент поисковик по популярным торрент трекерам. Находить и скачивать новинки кино в HDRip и BDRip качестве через tparser намного проще! Добро пожаловать на крупный торрент архив фильмов и игр tparser.org. Вам больше не придется искать торренты на основных торрент трекерах в поисках нужной раздачи – мы предлагаем найти и скачать фильмы в хорошем качестве прямо на нашем сайте. Наш сервис поиска торрентов в реальном времени собирает информацию с крупных торрент трекеров и сортирует полученные результаты в удобную таблицу. Скачивайте торренты без ограничений и без всяких регистраций на трекерах. Начните скачивать торрент Жизнь Адель прямо сейчас!

tparser.org


Смотрите также