Затерянный город z скачать торрент в хорошем качестве


Скачать фильм Затерянный город Z через торрент в хорошем качестве бесплатно 720p

x264 [info]: frame I:1300 Avg QP:11.72 size:121339x264 [info]: frame P:38460 Avg QP:14.98 size: 43126x264 [info]: frame B:163425 Avg QP:16.24 size: 14885

GeneralUnique ID : 252048957144870794957179635667564952781 (0xBD9EDD07E49E0BA9A2F1C3223D46FCCD)Complete name : D:\download\The.Lost.City.of.Z.2016.BDRip 720p by schultz R.G.Resident.mkvFormat : MatroskaFormat version : Version 4 / Version 2File size : 5.83 GiBDuration : 2 h 21 minOverall bit rate : 5 906 kb/sEncoded date : UTC 2017-07-06 14:15:42Writing application : mkvmerge v8.9.0 ('Father Daughter') 64bitWriting library : libebml v1.3.3 + libmatroska v1.4.4

VideoID : 1Format : AVCFormat/Info : Advanced Video CodecFormat profile : [email protected] settings, CABAC : YesFormat settings, ReFrames : 11 framesCodec ID : V_MPEG4/ISO/AVCDuration : 2 h 21 minBit rate : 4 016 kb/sWidth : 1 280 pixelsHeight : 536 pixelsDisplay aspect ratio : 2.40:1Frame rate mode : ConstantFrame rate : 23.976 (23976/1000) FPSColor space : YUVChroma subsampling : 4:2:0Bit depth : 8 bitsScan type : ProgressiveBits/(Pixel*Frame) : 0.244Stream size : 3.96 GiB (68%)Writing library : x264 core 146 r2538 121396cEncoding settings : cabac=1 / ref=11 / deblock=1:-3:-3 / analyse=0x3:0x113 / me=umh / subme=11 / psy=1 / psy_rd=1.00:0.15 / mixed_ref=1 / me_range=48 / chroma_me=1 / trellis=2 / 8x8dct=1 / cqm=0 / deadzone=21,11 / fast_pskip=0 / chroma_qp_offset=-3 / threads=12 / lookahead_threads=3 / sliced_threads=0 / nr=0 / decimate=0 / interlaced=0 / bluray_compat=0 / constrained_intra=0 / bframes=10 / b_pyramid=2 / b_adapt=2 / b_bias=0 / direct=3 / weightb=1 / open_gop=0 / weightp=2 / keyint=240 / keyint_min=23 / scenecut=40 / intra_refresh=0 / rc_lookahead=40 / rc=2pass / mbtree=0 / bitrate=4016 / ratetol=1.0 / qcomp=0.60 / qpmin=0 / qpmax=69 / qpstep=4 / cplxblur=20.0 / qblur=0.5 / vbv_maxrate=50000 / vbv_bufsize=62500 / nal_hrd=none / filler=0 / ip_ratio=1.40 / pb_ratio=1.30 / aq=1:1.00Language : EnglishDefault : YesForced : NoColor range : LimitedColor primaries : BT.709Transfer characteristics : BT.709Matrix coefficients : BT.709

Audio #1ID : 2Format : AC-3Format/Info : Audio Coding 3Mode extension : CM (complete main)Format settings, Endianness : BigCodec ID : A_AC3Duration : 2 h 21 minBit rate mode : ConstantBit rate : 384 kb/sChannel(s) : 6 channelsChannel positions : Front: L C R, Side: L R, LFESampling rate : 48.0 kHzFrame rate : 31.250 FPS (1536 spf)Compression mode : LossyStream size : 388 MiB (6%)Language : RussianDefault : YesForced : No

Audio #2ID : 3Format : DTSFormat/Info : Digital Theater SystemsMode : 16Format settings, Endianness : BigCodec ID : A_DTSDuration : 2 h 21 minBit rate mode : ConstantBit rate : 1 509 kb/sChannel(s) : 6 channelsChannel positions : Front: L C R, Side: L R, LFESampling rate : 48.0 kHzFrame rate : 93.750 FPS (512 spf)Bit depth : 24 bitsCompression mode : LossyStream size : 1.49 GiB (26%)Language : EnglishDefault : NoForced : No

TextID : 4Format : UTF-8Codec ID : S_TEXT/UTF8Codec ID/Info : UTF-8 Plain TextDuration : 2 h 8 minBit rate : 43 b/sCount of elements : 1380Stream size : 41.5 KiB (0%)Title : FullLanguage : EnglishDefault : NoForced : No

Menu00:00:00.000 : en:00:00:00.00000:08:21.751 : en:00:08:21.75100:15:32.849 : en:00:15:32.84900:21:29.038 : en:00:21:29.03800:27:10.045 : en:00:27:10.04500:34:57.637 : en:00:34:57.63700:44:59.113 : en:00:44:59.11300:49:36.432 : en:00:49:36.43200:58:25.919 : en:00:58:25.91901:04:43.338 : en:01:04:43.33801:11:10.600 : en:01:11:10.60001:21:22.294 : en:01:21:22.29401:27:42.424 : en:01:27:42.42401:30:42.854 : en:01:30:42.85401:39:46.230 : en:01:39:46.23001:43:59.984 : en:01:43:59.98401:51:40.193 : en:01:51:40.19301:56:11.089 : en:01:56:11.08902:01:43.046 : en:02:01:43.04602:08:34.373 : en:02:08:34.373

piratbit.ru

Скачать торрент Затерянный город Z / The Lost City of Z (2016) WEB-DL 1080p от ExKinoRay | Локализованная версия

Информация о фильмеНазвание: Затерянный город ZОригинальное название: The Lost City of ZГод выхода: 2016Жанр: Боевик, драма, приключения, биография, историяРежиссер: Джеймс ГрэйВ ролях: Чарли Ханнэм, Сиенна Миллер, Роберт Паттинсон, Том Холланд (II), Эдвард Эшли, Энгус Макфадьен, Иен МакДермид, Клайв Фрэнсис, Педро Коэльо, Мэтью Сандерлэнд

О фильме:Фильм про полковника Фоссета, который хотел найти затерянный город. Фоссет является членом Географического Королевского общества, и его считали одним из лучших исследователей Южной Америки, во времена ХХ века. Он многие годы посвятил своим изучением, новым открытиям и написанию разных доводов. Но почему-то, больше всего его интересовали регионы Бразилии, он туда направлялся несколько раз, ездил примерно между 19, собрался разыскать потерянный город, который должен был находиться на территории Мату-Гроссо ( штат). Но странно то, что перед своим отъездом, он просил: « Если его исследовательская группа, не вернется к сроку, который назначен, искать их не нужно». Именно так и случилось, его группа не вернулась… Очень много раз, пытались соединится, связаться с группой Форесса, но по сей день маршрут экспедиции не установлен. Возможно, группа нашла этот город, и осталась там? Это нужно узнать обязательно

Страна: СШАСтудия: Keep Your Head, MadRiver Pictures, MICA EntertainmentПродолжительность: 02:14:58Перевод: Дублированный | iTunes

ФайлКачество: WEB-DL 1080p | Локализованный видеорядВидео: MPEG-4 AVC, 1920x804, 4534 Kbit/s, 25.000 fpsЗвук: 48 kHz, AC3, 5.1, 384 Kbps | Дублированный | iTunes | RUS |

MI

General Unique ID : 246664994100994821824736410325449294376 (0xB991F3288689DACCADEB2C721455C228) Complete name : C:UsersbattiDesktopThe.Lost.City.of.Z.2016.WEB-DL.1080p.ExKinoRay.mkv Format : Matroska Format version : Version 4 / Version 2 File size : 4.64 GiB Duration : 2 h 14 min Overall bit rate : 4 920 kb/s Encoded date : UTC 2017-06-19 22:26:02 Writing application : mkvmerge v12.0.0 ('Trust / Lust') 64bit Writing library : libebml v1.3.4 + libmatroska v1.4.5

Video ID : 1 Format : AVC Format/Info : Advanced Video Codec Format profile : [email protected] Format settings, CABAC : Yes Format settings, ReFrames : 5 frames Codec ID : V_MPEG4/ISO/AVC Duration : 2 h 14 min Bit rate : 4 534 kb/s Width : 1 920 pixels Height : 804 pixels Display aspect ratio : 2.40:1 Frame rate mode : Constant Frame rate : 25.000 FPS Color space : YUV Chroma subsampling : 4:2:0 Bit depth : 8 bits Scan type : Progressive Bits/(Pixel*Frame) : 0.117 Stream size : 4.27 GiB (92%) Language : English Default : Yes Forced : No Color range : Limited Color primaries : BT.709 Transfer characteristics : BT.709 Matrix coefficients : BT.709

Audio ID : 2 Format : AC-3 Format/Info : Audio Coding 3 Format settings, Endianness : Big Codec ID : A_AC3 Duration : 2 h 14 min Bit rate mode : Constant Bit rate : 384 kb/s Channel(s) : 6 channels Channel positions : Front: L C R, Side: L R, LFE Sampling rate : 48.0 kHz Frame rate : 31.250 FPS (1536 spf) Bit depth : 16 bits Compression mode : Lossy Stream size : 371 MiB (8%) Title : iTunes Language : Russian Service kind : Complete Main Default : Yes Forced : No

Menu 00:00:00.000 : en:Глава 1 00:07:40.240 : en:Глава 2 00:14:33.680 : en:Глава 3 00:19:50.680 : en:Глава 4 00:25:42.320 : en:Глава 5 00:31:17.120 : en:Глава 6 00:35:51.200 : en:Глава 7 00:42:47.600 : en:Глава 8 00:47:13.560 : en:Глава 9 00:55:41.360 : en:Глава 10 01:01:43.320 : en:Глава 11 01:07:54.720 : en:Глава 12 01:14:15.160 : en:Глава 13 01:19:22.200 : en:Глава 14 01:26:38.960 : en:Глава 15 01:35:19.999 : en:Глава 16 01:42:32.759 : en:Глава 17 01:48:52.319 : en:Глава 18 01:53:46.799 : en:Глава 19 02:02:57.439 : en:Глава 20

Релиз от: Автор релиза: Подпишись на меня, кликни по картинке > :

krutor.org

Затерянный город Z (2016) HD 1080p скачать торрент в хорошем качестве

Информация о фильмеНазвание: Затерянный город ZОригинальное название: The Lost City of ZГод выхода: 2016Жанр: Боевик, драма, приключения, биография, историяРежиссер: Джеймс ГрэйВ ролях: Чарли Ханнэм, Сиенна Миллер, Роберт Паттинсон, Том Холланд (II), Эдвард Эшли, Энгус Макфадьен, Иен МакДермид, Клайв Фрэнсис, Педро Коэльо, Мэтью Сандерлэнд

О фильме: Фильм про полковника Фоссета, который хотел найти затерянный город. Фоссет является членом Географического Королевского общества, и его считали одним из лучших исследователей Южной Америки, во времена ХХ века. Он многие годы посвятил своим изучением, новым открытиям и написанию разных доводов. Но почему-то, больше всего его интересовали регионы Бразилии, он туда направлялся несколько раз, ездил примерно между 19, собрался разыскать потерянный город, который должен был находиться на территории Мату-Гроссо ( штат). Но странно то, что перед своим отъездом, он просил: « Если его исследовательская группа, не вернется к сроку, который назначен, искать их не нужно». Именно так и случилось, его группа не вернулась… Очень много раз, пытались соединится, связаться с группой Форесса, но по сей день маршрут экспедиции не установлен. Возможно, группа нашла этот город, и осталась там? Это нужно узнать обязательно

Страна: СШАСтудия: Keep Your Head, MadRiver Pictures, MICA EntertainmentПродолжительность: 02:14:58Перевод: Дублированный | iTunes

ФайлКачество: WEB-DL 1080pВидео: MPEG-4 AVC, 1920x804, 4534 Kbit/s, 25.000 fpsЗвук: 48 kHz, AC3, 5.1, 384 Kbps | Дублированный | iTunes | RUS |

GeneralUnique ID : 246664994100994821824736410325449294376 (0xB991F3288689DACCADEB2C721455C228)Complete name : C:UsersbattiDesktopThe.Lost.City.of.Z.2016.WEB-DL.1080p.ExKinoRay.mkvFormat : MatroskaFormat version : Version 4 / Version 2File size : 4.64 GiBDuration : 2 h 14 minOverall bit rate : 4 920 kb/sEncoded date : UTC 2017-06-19 22:26:02Writing application : mkvmerge v12.0.0 ('Trust / Lust') 64bitWriting library : libebml v1.3.4 + libmatroska v1.4.5

VideoID : 1Format : AVCFormat/Info : Advanced Video CodecFormat profile : [email protected] settings, CABAC : YesFormat settings, ReFrames : 5 framesCodec ID : V_MPEG4/ISO/AVCDuration : 2 h 14 minBit rate : 4 534 kb/sWidth : 1 920 pixelsHeight : 804 pixelsDisplay aspect ratio : 2.40:1Frame rate mode : ConstantFrame rate : 25.000 FPSColor space : YUVChroma subsampling : 4:2:0Bit depth : 8 bitsScan type : ProgressiveBits/(Pixel*Frame) : 0.117Stream size : 4.27 GiB (92%)Language : EnglishDefault : YesForced : NoColor range : LimitedColor primaries : BT.709Transfer characteristics : BT.709Matrix coefficients : BT.709

AudioID : 2Format : AC-3Format/Info : Audio Coding 3Format settings, Endianness : BigCodec ID : A_AC3Duration : 2 h 14 minBit rate mode : ConstantBit rate : 384 kb/sChannel(s) : 6 channelsChannel positions : Front: L C R, Side: L R, LFESampling rate : 48.0 kHzFrame rate : 31.250 FPS (1536 spf)Bit depth : 16 bitsCompression mode : LossyStream size : 371 MiB (8%)Title : iTunesLanguage : RussianService kind : Complete MainDefault : YesForced : No

Menu00:00:00.000 : en:Глава 100:07:40.240 : en:Глава 200:14:33.680 : en:Глава 300:19:50.680 : en:Глава 400:25:42.320 : en:Глава 500:31:17.120 : en:Глава 600:35:51.200 : en:Глава 700:42:47.600 : en:Глава 800:47:13.560 : en:Глава 900:55:41.360 : en:Глава 1001:01:43.320 : en:Глава 1101:07:54.720 : en:Глава 1201:14:15.160 : en:Глава 1301:19:22.200 : en:Глава 1401:26:38.960 : en:Глава 1501:35:19.999 : en:Глава 1601:42:32.759 : en:Глава 1701:48:52.319 : en:Глава 1801:53:46.799 : en:Глава 1902:02:57.439 : en:Глава 20

rutorg2.ru

478
469
20-06-2017, 08:53
4.64 GB
Связанные раздачи

Скачать фильм Затерянный город Z (2016) торрент бесплатно в хорошем качестве

Скачал сам?! Дай скачать другим, не уходи с раздачи!!!

Затерянный город Z / The Lost City of Z«Основано на реальной, но невероятной истории»

Год выпуска: 2016Страна: СШАПроизводство: Keep Your Head, MadRiver Pictures, MICA EntertainmentЖанр: Боевик, драма, приключения, биография, история

Режиссёр: Джеймс ГрэйВ ролях: Чарли Ханнэм, Сиенна Миллер, Роберт Паттинсон, Том Холланд (II), Эдвард Эшли, Энгус Макфадьен, Иен МакДермид, Клайв Фрэнсис, Педро Коэльо, Мэтью Сандерлэнд

Перевод: Дублированный | iTunesСубтитры: НетРеклама: Нет

Описание: Затерянный город Z - речь в фильме пойдет о таинственной столице инков, Эльдорадо, так называемый город Z. Но существовал ли он на самом деле или это просто легенда? В далеком 1925 на поиски таинственного города отправилась экспедиция полковника Фоссета, члена Королевского Географического общества, но последнее, что о них известно, так это то, что они пропали в джунглях Амазонки...

Качество: WEB-DLRip-AVCПродолжительность: 02:10:38

Формат: MKVВидео кодек: MPEG-4 AVCАудио кодек: AC3Видео: 720x304 (2.40:1), 23,976 fps, x264 ~1164 kbps avg, 0.213 bit/pixelАудио: 48 kHz, AC3 Dolby Digital, 3/2 (L,C,R,l,r) + LFE ch, ~384.00 kbps avg | RUS (iTunes)

Дата премьеры (мир): 15 октября 2016Дата премьеры (РФ): 27 апреля 2017, «Парадиз»

ОбщееУникальный идентификатор : 227462347078526825381237028444644829208 (0xAB1FA790522D3453BF99FAB8242BE818)Полное имя : D:The.Lost.City.of.Z.2016.WEB-DLRip(AVC).OlLanDGroup.mkvФормат : MatroskaВерсия формата : Version 2Размер файла : 1,46 ГбайтПродолжительность : 2 ч. 14 м.Общий поток : 1549 Кбит/секНазвание фильма : The.Lost.City.of.Z.2016 #TorpedoUK#Дата кодирования : UTC 2017-06-20 15:36:58Программа кодирования : mkvmerge v7.8.0 ('River Man') 32bit built on Apr 3 2015 12:11:22Библиотека кодирования : libebml v1.3.1 + libmatroska v1.4.2

ВидеоИдентификатор : 1Формат : AVCФормат/Информация : Advanced Video CodecПрофиль формата : [email protected]Параметр CABAC формата : ДаПараметр ReFrames формата : 10 кадровИдентификатор кодека : V_MPEG4/ISO/AVCПродолжительность : 2 ч. 14 м.Битрейт : 1164 Кбит/секШирина : 720 пикселейВысота : 304 пикселяСоотношение сторон : 2,35:1Режим частоты кадров : ПостоянныйЧастота кадров : 25,000 кадров/секЦветовое пространство : YUVСубдискретизация насыщенности : 4:2:0Битовая глубина : 8 битТип развёртки : ПрогрессивнаяБит/(Пиксели*Кадры) : 0.213Размер потока : 1,07 Гбайт (73%)Библиотека кодирования : x264 core 146 r2538 121396cНастройки программы : cabac=1 / ref=10 / deblock=1:-3:-3 / analyse=0x3:0x133 / me=umh / subme=11 / psy=1 / psy_rd=1.00:0.07 / mixed_ref=1 / me_range=48 / chroma_me=1 / trellis=2 / 8x8dct=1 / cqm=0 / deadzone=21,11 / fast_pskip=0 / chroma_qp_offset=-3 / threads=6 / lookahead_threads=1 / sliced_threads=0 / nr=0 / decimate=0 / interlaced=0 / bluray_compat=0 / constrained_intra=0 / bframes=10 / b_pyramid=2 / b_adapt=2 / b_bias=0 / direct=3 / weightb=1 / open_gop=0 / weightp=2 / keyint=250 / keyint_min=25 / scenecut=40 / intra_refresh=0 / rc_lookahead=40 / rc=2pass / mbtree=0 / bitrate=1164 / ratetol=1.0 / qcomp=0.60 / qpmin=0 / qpmax=69 / qpstep=4 / cplxblur=20.0 / qblur=0.5 / vbv_maxrate=50000 / vbv_bufsize=62500 / nal_hrd=none / filler=0 / ip_ratio=1.40 / pb_ratio=1.30 / aq=1:1.00Default : ДаForced : Нет

АудиоИдентификатор : 2Формат : AC-3Формат/Информация : Audio Coding 3Расширение режима : CM (complete main)Параметр Endianness формата : BigИдентификатор кодека : A_AC3Продолжительность : 2 ч. 14 м.Вид битрейта : ПостоянныйБитрейт : 384 Кбит/секКаналы : 6 каналовРасположение каналов : Front: L C R, Side: L R, LFEЧастота : 48,0 КГцЧастота кадров : 31,250 кадров/сек (1536 spf)Битовая глубина : 16 битМетод сжатия : С потерямиРазмер потока : 371 Мбайт (25%)Default : ДаForced : Нет

Меню00:00:00.000 : en:Chapter 0100:07:40.240 : en:Chapter 0200:14:33.680 : en:Chapter 0300:19:50.680 : en:Chapter 0400:25:42.320 : en:Chapter 0500:31:17.120 : en:Chapter 0600:35:51.200 : en:Chapter 0700:42:47.600 : en:Chapter 0800:47:13.560 : en:Chapter 0900:55:41.360 : en:Chapter 1001:01:43.320 : en:Chapter 1101:07:54.720 : en:Chapter 1201:14:15.160 : en:Chapter 1301:19:22.200 : en:Chapter 1401:26:38.960 : en:Chapter 1501:35:19.999 : en:Chapter 1601:42:32.759 : en:Chapter 1701:48:52.319 : en:Chapter 1801:53:46.799 : en:Chapter 1902:02:57.439 : en:Chapter 20

Размер файла: 1.46 GB

Поиск торрент раздач, пожалуйста подождите!

ufreetorrent.ru

Затерянный город Z (2016) скачать торрент в хорошем качестве бесплатно

Описание фильма "Затерянный город Z"

Затерянный город Z - американская приключенческая драма от кинорежиссера Джеймса Грэя, основанная на биографии подполковника Персиваля Фоссета, который являлся археологом и членом Королевского Географического общества. Большую часть своей жизни Персиваль потратил на поиски затерянных городов в Бразилии, которые, по его мнению, были остатками высокоразвитой цивилизации - Атлантиды. Главный герой собирает экспедицию и отправляется на поиски загадочного Затерянного города.

Итак, здесь повествуется об одном из наиболее выдающихся исследователей и путешественников Южной Америки двадцатого века. В период с 1906 по 1924 годы Фоссет совершал экспедицию по регионам Бразилии более чем семь раз. В 1925 году подполковник Персиваль руководил группой исследователей, которые отправились на поиски таинственного Затерянного города. Их маршрут проходил через штат Мату-Гроссо, в котором, согласно легенде, находилась та самая легендарная древняя столица инков.

Перед тем, как начать экспедицию, Персиваль подстраховался и позаботился о том, чтобы в случае исчезновения членов его группы, были организованы их поиски. Вскоре группа исследователей действительно пропадает. Они находятся где-то в джунглях Бразилии, но все попытки найти подполковника или членов его группы, оказываются тщетными.

Интересно отметить, что при написании романа "Затерянный Мир", источником вдохновения для писателя А. Конан Дойля, стали рассказы Персиваля о его прошлых экспедициях.

Скачать Затерянный город Z через торрент

Сиды Качество Перевод Размер Видео Аудио
Скачать Загрузка... BDRemux Дублированный | iTunes 40,65 Гб MPEG-4 AVC, 1920x1080, 34.2 Мbit/s, 23.976 fps 48 kHz, DTS-HD MA, 5.1, 3840 Kbps | Оригинал |
Скачать Загрузка... BDRip1080 Дубляж [Blu-ray RUS] 8,54 Гб AVC, 1920x804 (2,40:1), 6809 kbps, 24 fps AC3 / 5.1 / 48 kHz / 640 kbps / 16 bit |
Скачать Загрузка... BDRip1080 Профессиональный (полное дублирование) 23,31 Гб 1920x1080 (16:9), 24 fps, MPEG-4 AVC Video ~ 16579 kbps avg, High Profile 4.0 DTS-HD Master Audio Russian 4034 kbps 5.1 / 48 kHz / 4034 kbps / 24-bit (DTS Core: 5.1 / 48 kHz / 1509 kbps / 24-bit) /
Скачать Загрузка... BDRip720 Профессиональный (полное дублирование) | 8,90 Гб 1280x536 (2.40:1), 23,976 fps, MPEG-4 AVC ~ 7124 Kbps avg, 0.433 bit/pixel АС3, 48 kHz, 6 ch, ~640.00 kbps avg | английский | Оригинал
Скачать Загрузка... BDRip720 Дублированный | 4,62 Гб AVC, 1280x536 (2.40:1), 23.976 fps, 3 534 Kbps (0.215 bit/pixel) AC-3, 48.0 KHz, 6 ch, 448 Kbps, CBR (English)
Скачать Загрузка... WEB-DL Дублированный (BD RUS) 2,34 Гб 720 x 304; 23.976 fps; 1751 kbps; 0.334 bit/pixel AC3 Dolby Digital; 448 Kbps; 6 channels; 48 KHz
Скачать Загрузка... WEB-DL Профессиональный (Полное дублирование) BD RUS + Оригинальная звуковая дорожка 3,13 Гб 720x304 (2.37:1), 23.976 fps, XviD build 66 ~2048 kbps avg, 0.39 bit/pixel 48 kHz, AC3 Dolby Digital, 3/2 (L,C,R,l,r) + LFE ch, ~448.00 kbps avg

У нас вы можете легко скачать Затерянный город Z через торрент бесплатно в хорошем качестве, оставляйте комментарии и делитесь впечатлениями!

kino.kak.to


Смотрите также