Занесло скачать через торрент в хорошем качестве


Скачать фильм Занесло через торрент в хорошем качестве бесплатно WEB-DLRip

piratbit.ru

Размер: 1.37 GB | Добавлен: 2 года 10 мес. назад | Торрент скачан:4412 раз
Реклама Дарим 3000 рублей за регистрацию, не упусти свой шанс получить шикарный бонус!!!

25-12-2014 06:37 Занесло Скачать торрент  

Занесло / Redirected

Год выпуска: 2014Страна: Великобритания, ЛитваЖанр: боевик, триллер, комедия, криминалПродолжительность: 01:39:03Перевод: Любительский многоголосый [Студия "Paradox"]

Режиссер: Эмилис ВеливисПродюссер: Daiva Jovaisiene, Аста Лиукайтите, Андрюс ПаулавичюсСценарий: Йонас Банис, Льюис Бритнелл, Эмилис ВеливисПремьера в мире: 10 января 2014

IMDB 8.20 (13 810)

В ролях: Винни Джонс, Скот Уильямс, Гил Дарнелл, Оливер Джексон, Энтони Страхан, Андрюс Жюраускас, Витаутас Шапранаускас, Артур Смольянинов, Вита Сяусюнайте, Моника

Описание: Картина повествует о необычайных приключениях в Литве четырёх англичан — Майкла, Джонни, Бена и Тима. После удачного налёта в Лондоне на нелегальное казино, «славная четвёрка» садится в самолет, летящий в Малайзию. Кажется, все идёт по плану. Но... Никто не мог предусмотреть проделок вулкана Эйяфьядлайёкюдля, извержение которого вынудило самолет с англичанами сесть в Вильнюсе. Мало того, помимо местных разборок и приключений на все части тела, друзьям приходится спасаться от жаждущего мести владельца ограбленного казино.

Доп. информация: Фильм озвучен студией "Paradox" При поддержке онлайн-кинотеатра O-NLINE.WS

Качество: WEB-DLRipФормат: AVIВидео кодек: XviDАудио кодек: AC3Видео: XviD, 1773 Кбит/с, 720x304, 23.976 fpsАудио: AC3, 2 ch, 192 Кбит/с, 48.0 KHz

GeneralComplete name : /home/sb1855/files/ZanesL0.2014.MVO.WEB-DLRip.1400Mb_EPIDEMZ.NET.aviFormat : AVIFormat/Info : Audio Video InterleaveFile size : 1.37 GiBDuration : 1h 39mnOverall bit rate : 1 975 KbpsWriting application : VirtualDubMod 1.5.10.2 (build 2540/release)Writing library : VirtualDubMod build 2540/release

VideoID : 0Format : MPEG-4 VisualFormat profile : Advanced [email protected] settings, BVOP : 2Format settings, QPel : NoFormat settings, GMC : No warppointsFormat settings, Matrix : Default (MPEG)Codec ID : XVIDCodec ID/Hint : XviDDuration : 1h 39mnBit rate : 1 774 KbpsWidth : 720 pixelsHeight : 304 pixelsDisplay aspect ratio : 2.35:1Frame rate : 23.976 fpsColor space : YUVChroma subsampling : 4:2:0Bit depth : 8 bitsScan type : ProgressiveCompression mode : LossyBits/(Pixel*Frame) : 0.338Stream size : 1.23 GiB (90%)Writing library : XviD 1.2.1 (UTC 2008-12-04)

AudioID : 1Format : MPEG AudioFormat version : Version 1Format profile : Layer 3Codec ID : 55Codec ID/Hint : MP3Duration : 1h 39mnBit rate mode : ConstantBit rate : 192 KbpsChannel(s) : 2 channelsSampling rate : 48.0 KHzCompression mode : LossyStream size : 136 MiB (10%)Alignment : Aligned on interleavesInterleave, duration : 42 ms (1.00 video frame)Interleave, preload duration : 504 msWriting library : L3.99rEncoding settings : -m s -V 4 -q 2 -lowpass 18.6 -b 192

         Скачать Занесло через торрент http://pic.pb.wtf/images/8/xkdjo.jpg Скачать фильм Занесло через торрент бесплантно в хорошем качестве Описание: Картина повествует о необычайных приключениях в Литве четырёх англичан — Майкла, Джонни, Бена и Тима. После удачного налёта в ... 2014-12-25 06:37 9.6 10 61

Loading...

Loading...

Рекламный пират

25-12-2014 07:42 Занесло Скачать торрент  

одноголосный перевод в разы лучше

25-12-2014 09:30 Занесло Скачать торрент  

Народ отпишитесь как фильм? А то зеро 2 оч понравился.

25-12-2014 10:28 Занесло Скачать торрент  

gidings писал(а):

Народ отпишитесь как фильм? А то зеро 2 оч понравился.

офигенный фильм

25-12-2014 17:09 Занесло Скачать торрент  

25-12-2014 19:35 Занесло Скачать торрент  

помотрите не пожалеете :jest3:

26-12-2014 07:29 Занесло Скачать торрент  

Я сам в Литве живу-это жесть 90процентов правды.

26-12-2014 16:27 Занесло Скачать торрент  

26-12-2014 20:40 Занесло Скачать торрент  

Карты, деньги, два ствола и Зеро в одном флаконе. Улетный фильм.

Pекламный агент PB

27-12-2014 16:18 Занесло Скачать торрент  

Сильно наиграно.

27-12-2014 22:08 Занесло Скачать торрент  

Момент с радиатором, аж до слез))) в целом зачет.

30-12-2014 03:35 Занесло Скачать торрент  

классный фильмец-посмеялся от души-сразу пересмотрел зеро 2-одноголосый перевод-прелесть

02-01-2015 18:42 Занесло Скачать торрент  

как по мне так слишком перегнули. И мата черезчур много.Понимаю что из песни слов не выкинеш - но через слово это черезчур.Вобщем мне не понравился фильм

03-01-2015 14:59 Занесло Скачать торрент  

ххехехехехехе круто

06-01-2015 14:43 Занесло Скачать торрент  

фильм ваще огонь))))

07-01-2015 13:40 Занесло Скачать торрент  

Может быть отдельный жанр придумать типа винегрет,чем все вписывать в отношении одного фильма.(Жанр: боевик, триллер, комедия, криминал)-УЖАС!

08-01-2015 06:18 Занесло Скачать торрент  

AlexML писал(а):

AlexML

Rasist_UA писал(а):

Rasist_UA

поддержу обоих, много всего и перегнуто, хотя, думаю, если под настроение и под большим количеством смотреть по приколу, но не более :)

Pекламный агент PB

10-01-2015 19:11 Занесло Скачать торрент  

в духе Тарантино. Надо смотреть.

22-01-2015 20:35 Занесло Скачать торрент  

Там наш артур смольянинов снимаеться,удивило

27-01-2015 09:46 Занесло Скачать торрент  

killermax2013 писал(а):

одноголосный перевод в разы лучше

это перевод с матами?

20-03-2015 06:16 Занесло Скачать торрент  

поражает сколько людей скачало да еще и похвалило эту галиматью. с гаем ричи даже не сравнивайте - иной уровень

14-08-2017 16:26 Занесло Скачать торрент  

Отличный фильм для взрослых людей с хорошим чувством юмора. То что некоторые комментаторы называют наигранностью на самом деле гротеск и гиперболизация, законные художественные приемы. Качество хорошее, спасибо за раздачу.

Дорогой пользователь! Огромная просьба, поблагодарите релизера, оцените раздачу и оставьте свои комментарий, если Вы скачали Занесло через торрент бесплатно! Внесите свою лепту в развитие PiratBit!

Комментировать посты могут только пользователи прошедшие не сложную регистрацию

Занесло через торрент Скачать бесплатно Занесло Занесло скачать торрент Занесло смотреть онлайн Cкачать фильм Занесло бесплатно Занесло скачать торрент в хорошем качестве Занесло смотреть онлайн бесплатно в хорошем качестве

Вы не можете начинать темыВы не можете отвечать на сообщенияВы не можете редактировать свои сообщенияВы не можете удалять свои сообщенияВы не можете голосовать в опросахВы не можете прикреплять файлы к сообщениямВы можете скачивать файлы

Занесло / Redirected [2014 BDRip] [DUB] скачать через торрент

piratbit.ru

Размер: 1.45 GB | Добавлен: 2 года 7 мес. назад | Торрент скачан:175 раз
Реклама Дарим 3000 рублей за регистрацию, не упусти свой шанс получить шикарный бонус!!!

15-03-2015 12:53 Занесло Скачать торрент  

Занесло / Redirected Год выпуска: 2014Страна: Великобритания, ЛитваЖанр: боевик, триллер, драмаПродолжительность: 01:39:08Перевод : Украинский (профессиональный, дублированный)Cубтитры: нет

Режиссер: Эмилис Веливис

В ролях: Винни Джонс, Скот Уильямс, Гил Дарнелл, Оливер Джексон, Энтони Страхан, Андрюс Жюраускас, Витаутас Шапранаускас, Артур Смольянинов, Вита Сяусюнайте, Моника

Описание: Картина повествует о необычайных приключениях в Литве четырёх англичан — Майкла, Джонни, Бена и Тима. После удачного налёта в Лондоне на нелегальное казино, «славная четвёрка» садится в самолет, летящий в Малайзию. Кажется, все идёт по плану. Но… Никто не мог предусмотреть проделок вулкана Эйяфьядлайёкюдля, извержение которого вынудило самолет с англичанами сесть в Вильнюсе. Мало того, помимо местных разборок и приключений на все части тела, друзьям приходится спасаться от жаждущего мести владельца ограбленного казино.

Качество: BDRip

Формат: AVIВидео кодек: XvIDАудио кодек: AC3Видео: XviD, 720x304 (2.35:1), 23.976 fps, 1906 Kbps (0.304 bit/pixel)Аудио: AC3, 48.0 KHz, 2 ch, 192 Kbps, CBR Скачать Занесло через торрент http://i63.fastpic.ru/big/2014/1222/73/26e9b2daf37a0c273f08540b6e04d273.jpg Скачать фильм Занесло через торрент бесплантно в хорошем качестве Описание: Картина повествует о необычайных приключениях в Литве четырёх англичан — Майкла, Джонни, Бена и Тима. После удачного налёта в ... 2015-03-15 12:53 7.2 10 15

Loading...

Loading...

% Раздел Тема Автор DL S | L
T Фильмы 2014 [DVDrip, WEB-DLRip, HDrip] [ 1.37 GB ] Занесло / Redirected [2014 WEB-DLRip Любительский многоголосый [Студия "Paradox"] Neftannik Скачать
Фильмы [HD 720p, 1080p] (Хороший звук DUB, MVO) [ 6.96 GB ] Занесло / Redirected [2014 BDRip 720p] 2xAVO MVO _denis_100 Скачать
Фильмы (Blu-ray, BD-Remux, HDDVD) [ 25.63 GB ] Занесло / Redirected [2014 Blu-ray Remux MVO+AVO] Ворон Скачать
Фильмы [HD 720p, 1080p] (Хороший звук DUB, MVO) [ 9.22 GB ] Занесло / Redirected [2014 BDRip 720p MVO+AVO] Ворон Скачать
T Фильмы с авторской озвучкой [ 3 GB ] Занесло / Redirected [2014 WEBRip 720p Авторский Ворон Скачать
Фильмы с авторской озвучкой [ 1.46 GB ] Занесло / Redirected [2014 WEB-DLRip Авторский Ворон Скачать
T Фильмы 2014 (Звук TS, Cam, VO, DVO) [ 947 MB ] Занесло / Redirected [2014 WebRip Любительский одноголосый][RAIM] Ворон Скачать

Рекламный пират

15-03-2015 13:23 Занесло Скачать торрент  

блин, а как его слушай то , он же на украинском. НЕ в обиду языку, я его уважаю и он мне очень нравится, но так смешно смотреть дубляжи в украинском, если его не знаешь, но понимаешь на уровне русского

15-03-2015 13:48 Занесло Скачать торрент  

Jeck2000, вы разделом вообще то ошиблись, либо проблемы со зрением.Смотреть нужно в каком разделе фильм а потом писать никому не нужный тут комментарий

15-03-2015 14:41 Занесло Скачать торрент  

killermax2013 писал(а):

Jeck2000, вы разделом вообще то ошиблись, либо проблемы со зрением.Смотреть нужно в каком разделе фильм а потом писать никому не нужный тут комментарий

Автор, а ничего, что он вылез в ленте новых раздач в главном окне главной страницы и там не написано, что он именно с украинским переводом?Название раздачи просто «Занесло / Redirected (Эмилис Веливис) [2014, боевик, триллер, драма, BDRip] [DUB]». Где указано в названии, что тут именно украинский дубляж? Это видно уже, когда заходишь на раздачу на саму. [DUB]. Что [DUB]? Просто дубляж и всё.

15-03-2015 15:36 Занесло Скачать торрент  

kostak7 писал(а):

Автор, а ничего, что он вылез в ленте новых раздач в главном окне главной страницы и там не написано, что он именно с украинским переводом?

все тут нормально видно  Раздел для того и создан

Дорогой пользователь! Огромная просьба, поблагодарите релизера, оцените раздачу и оставьте свои комментарий, если Вы скачали Занесло через торрент бесплатно! Внесите свою лепту в развитие PiratBit!

Комментировать посты могут только пользователи прошедшие не сложную регистрацию

Занесло через торрент Скачать бесплатно Занесло Занесло скачать торрент Занесло смотреть онлайн Cкачать фильм Занесло бесплатно Занесло скачать торрент в хорошем качестве Занесло смотреть онлайн бесплатно в хорошем качестве

Вы не можете начинать темыВы не можете отвечать на сообщенияВы не можете редактировать свои сообщенияВы не можете удалять свои сообщенияВы не можете голосовать в опросахВы не можете прикреплять файлы к сообщениямВы можете скачивать файлы

Занесло торрент скачать | Скачать торренты в BDRip и HDRip качестве

Занесло / Redirected (2014) WEB-DLRip | L11.37 GBЗанесло / Redirected (2014) WEB-DLRip | А.Матвеев1.46 GBЗанесло / Redirected (2014) WEB-DL 720p | L3.4 GBЗанесло / Redirected / 2014 / ПМ / HDRip / 1.46 ГБ1.46 GBЗанесло / Redirected (2014) WEB-DLRip | L1.46 GBЗанесло / Redirected (2014) BDRip от Twi7ter | A1.46 GBЗанесло / Redirected (2014) HDRip | L1.46 GBЗанесло / Rеdirected (2014) BDRip от AleksSin | L1.46 GBЗанесло / Redirected (2014) HDRip | А. Матвеев1.46 GBЗанесло / Redirected (2014) BDRip 720p от Leonardo and Scarabey4.14 GBЗанесло / Redirected (2014) BDRip 720p от NNNB6.96 GBЗанесло / Redirected (2014) WEB-DL 720p | А.Матвеев3 GBЗанесло / Redirected (2014) BDRip-AVC от HELLYWOOD | A2.18 GBЗанесло / Перенаправленный / Redirected (Эмилис Веливис / Emilis Velyvis) [2014, Литва, Великобритания, боевик, триллер, комедия, криминал, BDRip 1080p] MVO (Paradox) + 2x VO (Котов, Матвеев) + Sub Rus, Eng + Original Eng7.54 GBЗанесло / Redirected (Эмилис Веливис / Emilis Velyvis) [2014, Великобритания, Литва, Боевик, WEB-DLRip] VO + Original Eng1.47 GBЗанесло / Redirected (2014) BDRip-AVC от MediaClub4.13 GBЗанесло / Redirected (2014) WEB-DLRip от BitTracker | L1699.98 MBЗанесло / Redirected (2014) WEB-DLRip от Scarabey | А. Матвеев744.68 MBЗанесло / Redirected (2014) BDRip-AVC от Leonardo and Scarabey | A1.66 GBЗанесло / Rеdirected (2014) WEB-DLRip-AVC | L, L12.1 GBЗанесло / Перенаправленный / Убойный план / Redirected / Flight Redirected (Эмилис Веливис / Emilis Velyvis) [2014, Великобритания, Литва, комедия, криминал, боевик, HDRip] VO (Котов)745.6 MBЗанесло / Redirected (2014) BDRip | A2.06 GBЗанесло / Redirected (2014) BDRip от Twi7ter | L2, A1.46 GBЗанесло / Redirected (2014) BDRip | L, L12.06 GBЗанесло / Redirected (2014) BDRemux 1080p от MediaClub | L, A25.63 GBЗанесло / Redirected (2014) WEB-DLRip | MP4 | L1632.78 MBЗанесло / Redirected / 2014 / ПМ, ЛО, СТ / WEB-DL (1080p) / 3.73 ГБ3.73 GBЗанесло / Redirected (2014) WEB-DLRip от Scarabey | А1.45 GBЗанесло / Redirected (2014) WEB-DLRip1.37 GBЗанесло / Redirected (2014) WEB-DL [H.264/720p-LQ] [VO]3.27 GBЗанесло / Redirected / 2014 / ПМ, ЛО, АП (Матвеев, Котов, Гаевский), СТ / BDRip (720p) / 10.74 ГБ10.74 GBЗанесло / Redirected / 2014 / ПМ, ЛО, АП (Матвеев, Котов, Гаевский), СТ / BDRip (1080p) / 16.27 ГБ16.27 GBЗанесло / Redirected (2014) WEB-DLRip [H.264]2.19 GBЗанесло / Redirected / 2014 / СТ / WEB-DLRip / 1.31 ГБ1.31 GBЗанесло / Redirected / 2014 / ПМ, ЛО, СТ / WEB-DL (720p) / 3.4 ГБ3.4 GBЗанесло / Redirected / 2014 / АП (Гаевский) / BDRip / 1.46 ГБ1.46 GBЗанесло / Redirected / 2014 / ПМ, АП (Матвеев (Doctor Joker), Котов), СТ / Blu-Ray Remux (1080p) / 25.63 ГБ25.63 GBЗанесло / Redirected (2014) BDRip [AVO]745 MBЗанесло / Redirected (2014) WEB-DL [H.264/1080p-LQ]3.73 GBЗанесло / Redirected / 2014 / АП (Матвеев, Котов, Гаевский), ПМ, ЛО, СТ / BDRip (AVC) / 4.13 ГБ4.13 GBЗанесло / Redirected (2014) BDRip [720p]10.7 GBЗанесло / Redirected / 2014 / АП (Матвеев, Котов, Гаевский), ЛМ, ЛО, СТ / Blu-Ray (1080p) / 27.69 ГБ27.69 GBЗанесло / Redirected (Эмилис Веливис / Emilis Velyvis) [2014 г., боевик, триллер, драма, комедия, BDRip] MVO ("Paradox") + AVO (Матвеев)1.46 GBЗанесло / Redirected (Эмилис Веливис) [2014 г., боевик, триллер, комедия, WEB-DLRip] AVO [Алексей Матвеев aka Doctor Joker]1.46 GBЗанесло / Rеdirected (2014) WEBRiр | L1946.93 MB[FMV] Литовская свадьба. (Redirected (Занесло) (Kommando Sonne-Nmilch - Ottawa)78.1 MBЗанесло / Redirected (Эмилис Веливис / Emilis Velyvis) [2014 г., боевик, триллер, драма, комедия, WEB-DLRip] MVO ("Paradox") + Original (Eng)1.46 GBЗанесло / Redirected (Эмилис Веливис / Emilis Velyvis) [2014 г., боевик, триллер, драма, комедия, BDRip 720p] 2xAVO (Матвеев, Гаевский) + MVO ("Paradox") + Original (Eng) + Sub (Rus)6.96 GBЗанесло / Redirected (Эмилис Веливис / Emilis Velyvis) [2014 г., боевик, триллер, драма, комедия, WEB-DLRip] VO (R.A.I.M)1.37 GBЗанесло / Redirected (Эмилис Веливис / Emilis Velyvis) [2014 г., боевик, триллер, драма, комедия, BDRip-AVC] MVO ("Paradox") + 3xAVO (Матвеев, Гаевский, Котов) + Original (Eng) + Sub (Rus, Eng)4.13 GB tparser.org – торрент поисковик по популярным торрент трекерам. Находить и скачивать новинки кино в HDRip и BDRip качестве через tparser намного проще! Добро пожаловать на крупный торрент архив фильмов и игр tparser.org. Вам больше не придется искать торренты на основных торрент трекерах в поисках нужной раздачи – мы предлагаем найти и скачать фильмы в хорошем качестве прямо на нашем сайте. Наш сервис поиска торрентов в реальном времени собирает информацию с крупных торрент трекеров и сортирует полученные результаты в удобную таблицу. Скачивайте торренты без ограничений и без всяких регистраций на трекерах. Начните скачивать торрент Занесло прямо сейчас!

tparser.org

Скачать фильм Занесло через торрент в хорошем качестве бесплатно 2014 г.

piratbit.ru

Размер: 947 MB | Добавлен: 2 года 10 мес. назад | Торрент скачан:339 раз
Реклама Дарим 3000 рублей за регистрацию, не упусти свой шанс получить шикарный бонус!!!

22-12-2014 11:22 Занесло Скачать торрент  

Занесло / Redirected

Год выпуска: 2014Страна: Великобритания, Литва, Kinokultas, Wellington FilmsЖанр: боевик, триллер, драма, комедияПродолжительность: 99 мин. / 01:39Перевод: Любительский одноголосый Озвучка RAIM по переводу Сергея Гиллана

Режиссер: Эмилис ВеливисПродюссер: Daiva Jovaisiene, Аста Лиукайтите, Андрюс ПаулавичюсСценарий: Йонас Банис, Льюис Бритнелл, Эмилис Веливис

Премьера в мире: 10 января 2014

IMDB 8.30 (13 349)

В ролях: Винни Джонс, Скот Уильямс, Гил Дарнелл, Оливер Джексон, Энтони Страхан, Андрюс Жюраускас, Витаутас Шапранаускас, Артур Смольянинов, Вита Сяусюнайте, Моника

Описание: Картина повествует о необычайных приключениях в Литве четырёх англичан — Майкла, Джонни, Бена и Тима. После удачного налёта в Лондоне на нелегальное казино, «славная четвёрка» садится в самолет, летящий в Малайзию. Кажется, все идёт по плану. Но... Никто не мог предусмотреть проделок вулкана Эйяфьядлайёкюдля, извержение которого вынудило самолет с англичанами сесть в Вильнюсе. Мало того, помимо местных разборок и приключений на все части тела, друзьям приходится спасаться от жаждущего мести владельца ограбленного казино.

Качество: WebRipФормат: AVIВидео кодек: XviDАудио кодек: MP3Видео: 1199 Кбит/с, 720x304, 23,976 fpsАудио#1: MP3 , 2 ch, 128 Кбит/с, 48 kHz

Занесло скачать торрент

Скачать Занесло через торрент http://i64.fastpic.ru/big/2014/1222/8c/f12eda56dd573bb320174ee45f99f18c.png Скачать фильм Занесло через торрент бесплантно в хорошем качестве Описание: Картина повествует о необычайных приключениях в Литве четырёх англичан — Майкла, Джонни, Бена и Тима. После удачного налёта в ... 2014-12-22 11:22 9.7 10 11

Loading...

Loading...

Рекламный пират

22-12-2014 11:56 Занесло Скачать торрент  

озвучка норм качнем пожалуй

22-12-2014 13:24 Занесло Скачать торрент  

Мега ржака респект раздающему

22-12-2014 18:24 Занесло Скачать торрент  

Классный фильм.Чувак с батареей ваще угар.

08-01-2015 20:23 Занесло Скачать торрент  

фильм - нормолёк

Дорогой пользователь! Огромная просьба, поблагодарите релизера, оцените раздачу и оставьте свои комментарий, если Вы скачали Занесло через торрент бесплатно! Внесите свою лепту в развитие PiratBit!

Комментировать посты могут только пользователи прошедшие не сложную регистрацию

Занесло через торрент Скачать бесплатно Занесло Занесло скачать торрент Занесло смотреть онлайн Cкачать фильм Занесло бесплатно Занесло скачать торрент в хорошем качестве Занесло смотреть онлайн бесплатно в хорошем качестве

Вы не можете начинать темыВы не можете отвечать на сообщенияВы не можете редактировать свои сообщенияВы не можете удалять свои сообщенияВы не можете голосовать в опросахВы не можете прикреплять файлы к сообщениямВы можете скачивать файлы

Скачать фильм Занесло через торрент в хорошем качестве бесплатно WEB-DLRip

piratbit.ru

Размер: 1.37 GB | Добавлен: 2 года 10 мес. назад | Торрент скачан:584 раза
Реклама Дарим 3000 рублей за регистрацию, не упусти свой шанс получить шикарный бонус!!!

22-12-2014 15:14 Занесло Скачать торрент  

Занесло / Перенаправленный / Redirected

Год выпуска: 2014Страна: Великобритания, Литва, Kinokultas, Wellington FilmsЖанр: боевик, триллер, драма, комедияПродолжительность: 99 мин. / 01:39Перевод: Любительский одноголосый Озвучка RAIM по переводу Сергея Гиллана

Режиссер: Эмилис ВеливисПродюссер: Daiva Jovaisiene, Аста Лиукайтите, Андрюс ПаулавичюсСценарий: Йонас Банис, Льюис Бритнелл, Эмилис Веливис

Премьера в мире: 10 января 2014

IMDB 8.30 (13 349)

В ролях: Винни Джонс, Скот Уильямс, Гил Дарнелл, Оливер Джексон, Энтони Страхан, Андрюс Жюраускас, Витаутас Шапранаускас, Артур Смольянинов, Вита Сяусюнайте, Моника

Описание: Картина повествует о необычайных приключениях в Литве четырёх англичан — Майкла, Джонни, Бена и Тима. После удачного налёта в Лондоне на нелегальное казино, «славная четвёрка» садится в самолет, летящий в Малайзию. Кажется, все идёт по плану. Но... Никто не мог предусмотреть проделок вулкана Эйяфьядлайёкюдля, извержение которого вынудило самолет с англичанами сесть в Вильнюсе. Мало того, помимо местных разборок и приключений на все части тела, друзьям приходится спасаться от жаждущего мести владельца ограбленного казино.

Качество: WEB-DLRipФормат: AVIВидео кодек: XviDАудио кодек: AC3Видео: 1581 Kb/s, 720x304, 23,976 fpsАудио#1: AC3, 384 Kb/s (6 ch), 48 kHz

Занесло скачать торрент

Скачать Занесло через торрент http://i66.fastpic.ru/big/2014/1222/e9/5df0761faaa9f54781160fd4e9a1c5e9.png Скачать фильм Занесло через торрент бесплантно в хорошем качестве Описание: Картина повествует о необычайных приключениях в Литве четырёх англичан — Майкла, Джонни, Бена и Тима. После удачного налёта в ... 2014-12-22 15:14 9.6 10 16

Loading...

Loading...

Рекламный пират

22-12-2014 19:47 Занесло Скачать торрент  

Мата много,толку мало... С нормальным переводом может и посмотрел бы, а так хватило 5 минут

23-12-2014 16:36 Занесло Скачать торрент  

Фильм великолепен! Это просто шедевр. Стиль "Карты,деньги, два ствола", но этот реально и смешной и с такой чернухой, очень клёво.

Дорогой пользователь! Огромная просьба, поблагодарите релизера, оцените раздачу и оставьте свои комментарий, если Вы скачали Занесло через торрент бесплатно! Внесите свою лепту в развитие PiratBit!

Комментировать посты могут только пользователи прошедшие не сложную регистрацию

Занесло через торрент Скачать бесплатно Занесло Занесло скачать торрент Занесло смотреть онлайн Cкачать фильм Занесло бесплатно Занесло скачать торрент в хорошем качестве Занесло смотреть онлайн бесплатно в хорошем качестве

Вы не можете начинать темыВы не можете отвечать на сообщенияВы не можете редактировать свои сообщенияВы не можете удалять свои сообщенияВы не можете голосовать в опросахВы не можете прикреплять файлы к сообщениямВы можете скачивать файлы

Скачать фильм Занесло через торрент в хорошем качестве бесплатно 1080p

ОбщееУникальный идентификатор : 173974414874965384619304291970218726597 (0x82E240E674FC6FBCBC5367826CB014C5)Полное имя : E:\Torrents\Redirected.2014.WEB-DL.1080p.CINEMANIA.mkvФормат : MatroskaВерсия формата : Version 4 / Version 2Размер файла : 3,73 ГбайтПродолжительность : 1 ч. 39 м.Общий поток : 5394 Кбит/секНазвание фильма : Release Group CINEMANIA Дата кодирования : UTC 2014-12-29 23:39:32Программа кодирования : mkvmerge v7.4.0 ('Circles') 64bit built on Dec 12 2014 12:19:56Библиотека кодирования : libebml v1.3.0 + libmatroska v1.4.1

ВидеоИдентификатор : 1Формат : AVCФормат/Информация : Advanced Video CodecПрофиль формата : [email protected]Параметр CABAC формата : ДаПараметр ReFrames формата : 5 кадровИдентификатор кодека : V_MPEG4/ISO/AVCПродолжительность : 1 ч. 39 м.Битрейт : 4327 Кбит/секШирина : 1912 пикселейВысота : 800 пикселейСоотношение сторон : 2,40:1Режим частоты кадров : ПостоянныйЧастота кадров : 23,976 кадра/секЦветовое пространство : YUVСубдискретизация насыщенности : 4:2:0Битовая глубина : 8 битТип развёртки : ПрогрессивнаяБит/(Пиксели*Кадры) : 0.118Размер потока : 2,99 Гбайт (80%)Заголовок : Release Group CINEMANIAЯзык : EnglishDefault : ДаForced : НетОсновные цвета : BT.709Характеристики трансфера : BT.709Коэффициенты матрицы : BT.709

Аудио #1Идентификатор : 2Формат : AC-3Формат/Информация : Audio Coding 3Расширение режима : CM (complete main)Параметр Endianness формата : BigИдентификатор кодека : A_AC3Продолжительность : 1 ч. 39 м.Вид битрейта : ПостоянныйБитрейт : 192 Кбит/секКаналы : 2 каналаРасположение каналов : Front: L RЧастота : 48,0 КГцБитовая глубина : 16 битМетод сжатия : С потерямиРазмер потока : 136 Мбайт (4%)Заголовок : студия "Paradox"Язык : RussianDefault : ДаForced : Да

Аудио #2Идентификатор : 3Формат : AC-3Формат/Информация : Audio Coding 3Расширение режима : CM (complete main)Параметр Endianness формата : BigИдентификатор кодека : A_AC3Продолжительность : 1 ч. 39 м.Вид битрейта : ПостоянныйБитрейт : 384 Кбит/секКаналы : 6 каналовРасположение каналов : Front: L C R, Side: L R, LFEЧастота : 48,0 КГцБитовая глубина : 16 битМетод сжатия : С потерямиРазмер потока : 272 Мбайт (7%)Заголовок : RAIMЯзык : RussianDefault : НетForced : Нет

Аудио #3Идентификатор : 4Формат : AC-3Формат/Информация : Audio Coding 3Расширение режима : CM (complete main)Параметр Endianness формата : BigИдентификатор кодека : A_AC3Продолжительность : 1 ч. 39 м.Вид битрейта : ПостоянныйБитрейт : 384 Кбит/секКаналы : 6 каналовРасположение каналов : Front: L C R, Side: L R, LFEЧастота : 48,0 КГцБитовая глубина : 16 битМетод сжатия : С потерямиРазмер потока : 272 Мбайт (7%)Язык : EnglishDefault : НетForced : Нет

Текст #1Идентификатор : 5Формат : UTF-8Идентификатор кодека : S_TEXT/UTF8Идентификатор кодека/Информация : UTF-8 Plain TextЯзык : RussianDefault : ДаForced : Да

Текст #2Идентификатор : 6Формат : UTF-8Идентификатор кодека : S_TEXT/UTF8Идентификатор кодека/Информация : UTF-8 Plain TextЗаголовок : Keith]Язык : RussianDefault : НетForced : Нет

Текст #3Идентификатор : 7Формат : UTF-8Идентификатор кодека : S_TEXT/UTF8Идентификатор кодека/Информация : UTF-8 Plain TextЯзык : EnglishDefault : НетForced : Нет

Меню00:00:00.000 : en:100:08:22.000 : en:200:20:00.000 : en:300:28:31.000 : en:400:35:29.000 : en:500:42:18.000 : en:600:51:32.000 : en:700:59:33.000 : en:801:12:11.000 : en:901:19:25.000 : en:1001:32:16.000 : en:11

piratbit.ru


Смотрите также