Вокруг света в 80 дней мультфильм скачать торрент в хорошем качестве


Вокруг света за 80 дней с Вилли Фогом Скачать Торрент

Vokrug.sveta.s.Villi.Fogom.za.80.dnei.(1-26.serii.iz.26).1986.XviD.DVDRip (26 файлов)

Vokrug.sveta.s.Villi.Fogom.za.80.dnei.01.serija.iz.26.1986.XviD.DVDRip.avi (324.83 MB) Vokrug.sveta.s.Villi.Fogom.za.80.dnei.017.serija.iz.26.1986.XviD.DVDRip.avi (324.84 MB) Vokrug.sveta.s.Villi.Fogom.za.80.dnei.02.serija.iz.26.1986.XviD.DVDRip.avi (322.86 MB) Vokrug.sveta.s.Villi.Fogom.za.80.dnei.03.serija.iz.26.1986.XviD.DVDRip.avi (322.85 MB) Vokrug.sveta.s.Villi.Fogom.za.80.dnei.04.serija.iz.26.1986.XviD.DVDRip.avi (324.85 MB) Vokrug.sveta.s.Villi.Fogom.za.80.dnei.05.serija.iz.26.1986.XviD.DVDRip.avi (326.84 MB) Vokrug.sveta.s.Villi.Fogom.za.80.dnei.06.serija.iz.26.1986.XviD.DVDRip.avi (324.85 MB) Vokrug.sveta.s.Villi.Fogom.za.80.dnei.07.serija.iz.26.1986.XviD.DVDRip.avi (324.87 MB) Vokrug.sveta.s.Villi.Fogom.za.80.dnei.08.serija.iz.26.1986.XviD.DVDRip.avi (324.85 MB) Vokrug.sveta.s.Villi.Fogom.za.80.dnei.09.serija.iz.26.1986.XviD.DVDRip.avi (323.85 MB) Vokrug.sveta.s.Villi.Fogom.za.80.dnei.10.serija.iz.26.1986.XviD.DVDRip.avi (323.84 MB) Vokrug.sveta.s.Villi.Fogom.za.80.dnei.11.serija.iz.26.1986.XviD.DVDRip.avi (324.84 MB) Vokrug.sveta.s.Villi.Fogom.za.80.dnei.12.serija.iz.26.1986.XviD.DVDRip.avi (323.85 MB) Vokrug.sveta.s.Villi.Fogom.za.80.dnei.13.serija.iz.26.1986.XviD.DVDRip.avi (324.85 MB) Vokrug.sveta.s.Villi.Fogom.za.80.dnei.14.serija.iz.26.1986.XviD.DVDRip.avi (323.84 MB) Vokrug.sveta.s.Villi.Fogom.za.80.dnei.15.serija.iz.26.1986.XviD.DVDRip.avi (324.84 MB) Vokrug.sveta.s.Villi.Fogom.za.80.dnei.16.serija.iz.26.1986.XviD.DVDRip.avi (324.84 MB) Vokrug.sveta.s.Villi.Fogom.za.80.dnei.18.serija.iz.26.1986.XviD.DVDRip.avi (324.85 MB) Vokrug.sveta.s.Villi.Fogom.za.80.dnei.19.serija.iz.26.1986.XviD.DVDRip.avi (324.85 MB) Vokrug.sveta.s.Villi.Fogom.za.80.dnei.20.serija.iz.26.1986.XviD.DVDRip.avi (324.84 MB) Vokrug.sveta.s.Villi.Fogom.za.80.dnei.21.serija.iz.26.1986.XviD.DVDRip.avi (324.83 MB) Vokrug.sveta.s.Villi.Fogom.za.80.dnei.22.serija.iz.26.1986.XviD.DVDRip.avi (324.84 MB) Vokrug.sveta.s.Villi.Fogom.za.80.dnei.23.serija.iz.26.1986.XviD.DVDRip.avi (324.84 MB) Vokrug.sveta.s.Villi.Fogom.za.80.dnei.24.serija.iz.26.1986.XviD.DVDRip.avi (321.85 MB) Vokrug.sveta.s.Villi.Fogom.za.80.dnei.25.serija.iz.26.1986.XviD.DVDRip.avi (324.83 MB) Vokrug.sveta.s.Villi.Fogom.za.80.dnei.26.serija.iz.26.1986.XviD.DVDRip.avi (318.85 MB)

www.gvirt.com

Вокруг света за 80 дней через торрент

piratbit.ru

Размер: 2.05 GB | Добавлен: 4 года 2 мес. назад | Торрент скачан:161 раз
Реклама Дарим 3000 рублей за регистрацию, не упусти свой шанс получить шикарный бонус!!!

15-08-2013 21:50 Вокруг света за 80 дней Скачать торрент  

Вокруг света за 80 дней / Around the World in 80 Days

Год выпуска: 2004Страна: США, Германия, Ирландия, ВеликобританияЖанр: боевик, мелодрама, комедия, приключения, семейный, вестерн,Продолжительность: 02:00:06Перевод: Дубляж

Режиссер: Фрэнк КорачиПродюссер: Филлис Алиа, Билл Бадалато, Стивен БаркерСценарий: Дэвид Н. Титчер, Дэвид Бенулло, Дэвид Эндрю Голдстин

Бюджет: $110 000 000Премьера в мире: 13 июня 2004

рекомендуется присутствие родителей

В ролях: Джеки Чан, Стив Куган, Роберт Файф, Джим Броудбент, Иэн МакНис, Дэвид Райалл, Роджер Хэммонд, Адам Годли, Карен Мок, Ховард Купер,

Описание: Непризнанный гений, лондонский чудак-изобретатель Филеас Фогг раскрыл тайны полетов и электричества, но общество не принимает его, считая сумасшедшим. Как часто такое случалось в истории! Только спустя долгое время люди понимали, как они были не правы. Но Филеас Фогг - крепкий орешек. Чтобы реабилитировать себя, он заключает необычное пари с лордом Келвином, главой Королевской академии наук, обещая за 80 дней обогнуть земной шар. Сказано - сделано. Вместе с Филеасом в необычное путешествие отправляются его преданный слуга Паспарту и жаждущая острых ощущений французская художница Моник Леруж. Герои пускаются в безумную, захватывающую кругосветную гонку по суше, морю и воздуху.

Качество: HDRipФормат: AVIВидео кодек: XviDАудио кодек: AC3Видео: XviD, 720x304 (2.35:1), 23.976 fps, 1 655 Kbps (0.315 bit/pixel)Аудио#1: AC-3, 48.0 KHz, 6 ch, 384 Kbps, CBR [Rus]Аудио#2: AC-3, 48.0 KHz, 6 ch, 384 Kbps, CBR [Eng]Релиз от: xGhost

Скачать Вокруг света за 80 дней через торрент http://i29.fastpic.ru/big/2011/1010/f2/f81e5a9d895d8f481ad16336cfbba3f2.png Скачать фильм Вокруг света за 80 дней через торрент бесплантно в хорошем качестве Описание: Непризнанный гений, лондонский чудак-изобретатель Филеас Фогг раскрыл тайны полетов и электричества, но общество не принимает ... 2013-08-15 21:50 9.5 10 6

Loading...

Loading...

Рекламный пират

РусскийСамаритянин

16-08-2013 05:02 Вокруг света за 80 дней Скачать торрент  

Дорогой пользователь! Огромная просьба, поблагодарите релизера, оцените раздачу и оставьте свои комментарий, если Вы скачали Вокруг света за 80 дней через торрент бесплатно! Внесите свою лепту в развитие PiratBit!

Комментировать посты могут только пользователи прошедшие не сложную регистрацию

Вокруг света за 80 дней через торрент Скачать бесплатно Вокруг света за 80 дней Вокруг света за 80 дней скачать торрент Вокруг света за 80 дней смотреть онлайн Cкачать фильм Вокруг света за 80 дней бесплатно Вокруг света за 80 дней скачать торрент в хорошем качестве Вокруг света за 80 дней смотреть онлайн бесплатно в хорошем качестве

Вы не можете начинать темыВы не можете отвечать на сообщенияВы не можете редактировать свои сообщенияВы не можете удалять свои сообщенияВы не можете голосовать в опросахВы не можете прикреплять файлы к сообщениямВы можете скачивать файлы

Вокруг света за 80 дней через торрент

ОбщееУникальный идентификатор : 224571312210713959559025735203519079678 (0xA8F2DC8A320798BEB0817F2735B624FE)Полное имя : D:\Video\Вокруг света за 80 дней.2004.BDRip.1080p.mkvФормат : MatroskaВерсия формата : Version 4 / Version 2Размер файла : 15,3 ГбайтПродолжительность : 2 ч. 0 м.Общий поток : 18,2 Мбит/секДата кодирования : UTC 2016-08-06 05:53:40Программа кодирования : mkvmerge v8.2.0 ('World of Adventure') 64bitБиблиотека кодирования : libebml v1.3.1 + libmatroska v1.4.2

ВидеоИдентификатор : 1Формат : AVCФормат/Информация : Advanced Video CodecПрофиль формата : [email protected]Параметр CABAC формата : ДаПараметр ReFrames формата : 4 кадраИдентификатор кодека : V_MPEG4/ISO/AVCПродолжительность : 2 ч. 0 м.Битрейт : 14,8 Мбит/секШирина : 1920 пикселейВысота : 818 пикселейСоотношение сторон : 2,35:1Режим частоты кадров : ПостоянныйЧастота кадров : 23,976 (24000/1001) кадра/секЦветовое пространство : YUVСубдискретизация насыщенности : 4:2:0Битовая глубина : 8 битТип развёртки : ПрогрессивнаяБит/(Пиксели*Кадры) : 0.393Размер потока : 12,4 Гбайт (81%)Библиотека кодирования : x264 core 146 r2538 121396cНастройки программы : cabac=1 / ref=4 / deblock=1:-1:-1 / analyse=0x3:0x113 / me=umh / subme=10 / psy=1 / psy_rd=1.00:0.15 / mixed_ref=1 / me_range=32 / chroma_me=1 / trellis=2 / 8x8dct=1 / cqm=0 / deadzone=21,11 / fast_pskip=1 / chroma_qp_offset=-3 / threads=6 / lookahead_threads=1 / sliced_threads=0 / nr=0 / decimate=1 / interlaced=0 / bluray_compat=0 / constrained_intra=0 / bframes=9 / b_pyramid=2 / b_adapt=2 / b_bias=0 / direct=1 / weightb=1 / open_gop=0 / weightp=2 / keyint=230 / keyint_min=23 / scenecut=40 / intra_refresh=0 / rc_lookahead=40 / rc=crf / mbtree=0 / crf=18.5 / qcomp=0.60 / qpmin=0 / qpmax=69 / qpstep=4 / vbv_maxrate=40000 / vbv_bufsize=50000 / crf_max=0.0 / nal_hrd=none / filler=0 / ip_ratio=1.40 / pb_ratio=1.30 / aq=1:1.00Язык : EnglishDefault : ДаForced : Нет

Аудио #1Идентификатор : 2Формат : AC-3Формат/Информация : Audio Coding 3Расширение режима : CM (complete main)Параметр Endianness формата : BigИдентификатор кодека : A_AC3Продолжительность : 2 ч. 0 м.Вид битрейта : ПостоянныйБитрейт : 384 Кбит/секКаналы : 6 каналовРасположение каналов : Front: L C R, Side: L R, LFEЧастота : 48,0 КГцЧастота кадров : 31,250 кадров/сек (1536 spf)Метод сжатия : С потерямиРазмер потока : 330 Мбайт (2%)Заголовок : DUB (R5, Нева фильм)Язык : RussianDefault : ДаForced : Нет

Аудио #2Идентификатор : 3Формат : DTSФормат/Информация : Digital Theater SystemsПрофиль формата : ES Discrete / CoreРежим : 16Параметр Endianness формата : BigИдентификатор кодека : A_DTSПродолжительность : 2 ч. 0 м.Вид битрейта : ПостоянныйБитрейт : 1510 Кбит/секКаналы : 7 каналов / 6 каналовРасположение каналов : Front: L C R, Side: L R, Back: C, LFE / Front: L C R, Side: L R, LFEЧастота : 48,0 КГцЧастота кадров : 93,750 кадра/сек (512 spf)Битовая глубина : 16 битМетод сжатия : С потерямиРазмер потока : 1,27 Гбайт (8%)Заголовок : DVO (Tycoon)Язык : RussianDefault : НетForced : Нет

Аудио #3Идентификатор : 4Формат : DTSФормат/Информация : Digital Theater SystemsПрофиль формата : ES Discrete / CoreРежим : 16Параметр Endianness формата : BigИдентификатор кодека : A_DTSПродолжительность : 2 ч. 0 м.Вид битрейта : ПостоянныйБитрейт : 1509 Кбит/секКаналы : 7 каналов / 6 каналовРасположение каналов : Front: L C R, Side: L R, Back: C, LFE / Front: L C R, Side: L R, LFEЧастота : 48,0 КГцЧастота кадров : 93,750 кадра/сек (512 spf)Битовая глубина : 16 битМетод сжатия : С потерямиРазмер потока : 1,27 Гбайт (8%)Заголовок : originalЯзык : EnglishDefault : НетForced : Нет

Текст #1Идентификатор : 5Формат : UTF-8Идентификатор кодека : S_TEXT/UTF8Идентификатор кодека/Информация : UTF-8 Plain TextПродолжительность : 1 ч. 52 м.Битрейт : 87 бит/секCount of elements : 1155Размер потока : 71,8 Кбайт (0%)Заголовок : русскиеЯзык : RussianDefault : НетForced : Нет

Текст #2Идентификатор : 6Формат : UTF-8Идентификатор кодека : S_TEXT/UTF8Идентификатор кодека/Информация : UTF-8 Plain TextПродолжительность : 1 ч. 58 м.Битрейт : 53 бит/секCount of elements : 1424Размер потока : 46,3 Кбайт (0%)Заголовок : английскиеЯзык : EnglishDefault : НетForced : Нет

piratbit.ru

Вокруг света за 80 дней через торрент

piratbit.ru

Размер: 4.74 GB | Добавлен: 6 лет 6 мес. назад | Торрент скачан:74 раза
Реклама Дарим 3000 рублей за регистрацию, не упусти свой шанс получить шикарный бонус!!!

21-07-2010 23:13 Вокруг света за 80 дней Скачать торрент  

Вокруг света за 80 дней / Around the world in eighty days(16 серий из 16)

Год выпуска: 1972Страна: АвстралияЖанр: МультсериалПродолжительность:16серий X 00:21:00Перевод: Полное дублированиеРежиссер: Лиф Грэм

Описание: Это удивительная история Жюль Верна рассказывает о замечательном путешествии вокруг света. Отважный Филеас Фогг и его слуга Паспарту отправляются в путешествия по всем континентам, посещая самые замечательные города мира, пересекая океаны, горы и пустыни. Детектив из Скотланд - Ярда преследует их на всем пути: из Англии в Каир, затем Бомбей и Гонконг. Эта история очень увлекательна, она очаровывает всех детей..

Качество: DVDRipФормат: AVIВидео кодек: XviDАудио кодек: AC3Видео: 704x528 (1.31:1), 25 fps, DivX Codec 6.2.5 ~1725 kbps avg, 0.18 bit/pixelАудио: 48 kHz, AC3, 2 ch, ~192.00 kbps avg

Скачать Вокруг света за 80 дней через торрент http://piratbit.in.ua/f3410e30308214452bc4939c38cd7c51.jpg Скачать фильм Вокруг света за 80 дней через торрент бесплантно в хорошем качестве Описание: Это удивительная история Жюль Верна рассказывает о замечательном путешествии вокруг света. Отважный Филеас Фогг и его слуга ... 2011-04-03 11:54 10 10 4

Loading...

Loading...

Последний раз редактировалось: alexx (2011-04-03 15:21), всего редактировалось 4 раз(а)

Рекламный пират

10-08-2010 21:33 Вокруг света за 80 дней Скачать торрент  

Брат. Дай скачать мультик пожалуйста!

12-08-2010 02:20 Вокруг света за 80 дней Скачать торрент  

ни че так муль супер

03-04-2011 13:44 Вокруг света за 80 дней Скачать торрент  

alexxВ шапке укажи количество серийПеревод?Скриншоты не соответствуют заявленному размеру.

Как сделать скриншот?

10-04-2011 06:25 Вокруг света за 80 дней Скачать торрент  

Лучший мультик из детства!

24-12-2011 09:41 Вокруг света за 80 дней Скачать торрент  

Огромное благодарю!Самый любимый фильм в детстве был. По искал в Рунете, нашёл только тут.

24-12-2011 13:23 Вокруг света за 80 дней Скачать торрент  

08-03-2015 07:28 Вокруг света за 80 дней Скачать торрент  

Спасибо. В детстве ждал каждую серию

Дорогой пользователь! Огромная просьба, поблагодарите релизера, оцените раздачу и оставьте свои комментарий, если Вы скачали Вокруг света за 80 дней через торрент бесплатно! Внесите свою лепту в развитие PiratBit!

Комментировать посты могут только пользователи прошедшие не сложную регистрацию

Вокруг света за 80 дней через торрент Скачать бесплатно Вокруг света за 80 дней Вокруг света за 80 дней скачать торрент Вокруг света за 80 дней смотреть онлайн Cкачать фильм Вокруг света за 80 дней бесплатно Вокруг света за 80 дней скачать торрент в хорошем качестве Вокруг света за 80 дней смотреть онлайн бесплатно в хорошем качестве

Вы не можете начинать темыВы не можете отвечать на сообщенияВы не можете редактировать свои сообщенияВы не можете удалять свои сообщенияВы не можете голосовать в опросахВы не можете прикреплять файлы к сообщениямВы можете скачивать файлы

Вокруг света за 80 дней 2004

www.kinovit.net

Название: Вокруг света за 80 дней / Around the World in 80 Days (2004) BDRip 720p от Leonardo and Scarabey
Качество видео: BDRip 720p Исходник: Blu-ray
Перевод: Профессиональный (полное дублирование) Лицензия
Формат видео: MKV Видео кодек: MPEG-4 AVC Аудио кодек: AC3
Видео: AVC, 1280x546 (2.35:1) at 23.976 fps, AVC at 4262 kbps avg, 0.254 bit/pixel
Аудио: Russian; AC3; 384 Kbps; CBR; 6 ch; 16 bit; Dub
Скачать

Загрузка начнется в течение 5 сек.

3.98 GB

Название: Вокруг света за 80 дней / Around the World in 80 Days (2004) BDRip-AVC от MediaClub | D, P2
Качество видео: BDRip-AVC
Перевод: Дублированный, профессиональный двухголосый
Видео: MPEG-4 AVC 3500 Кбит/с, 1024x436, 23.976 кадр/с
Аудио: Русский (AC3, 6 ch, 448 Кбит/с) / Профессиональный двухголосый (Tycoon-Studio)Украинский (AC3, 2 ch, 192 Кбит/с)Английский (AC3, 6 ch, 448 Кбит/с)
Скачать

Загрузка начнется в течение 5 сек.

4.18 GB

Название: Вокруг света за 80 дней / Around the World in 80 Days (2004) BDRip 720 от SuperMin
Качество видео: BDRip 720 от SuperMin
Перевод: Дублированный (Невафильм)
Видео: h364 1280x544 (2.35:1), 3500 kbps, 23.976 fps, 0.210 bit/pixel
Аудио: Русский (AC-3, 6ch, 384 kbps)
Скачать

Загрузка начнется в течение 5 сек.

3.26 GB

Название: Вокруг света за 80 дней / Around the World in 80 Days (2004) Blu-Ray Remux 1080p от ivandubskoj | GER Transfer
Качество видео: Blu-Ray Remux 1080p [Исходник: Blu-ray GER 1080p AVC DTS-HD MA 6.1]
Перевод: Дублированный (Невафильм), профессиональный двухголосый (Tycoon-Studio)
Видео: MPEG-4 AVC MPEG-4 AVC, 29990 Кбит/с, 1920x1080 (16:9), 23.976 кадр/с
Аудио: АнглийскаяРусский, Dolby AC3, 48000 Гц, 384 Кбит/с, 6 каналов (5.1) - DUB, R5 [Невафильм]Русский, DTS-ES, 48000 Гц, 1510 Кбит/с, 7 каналов (7.1) - DVO, R7 [Tycoon-Studio]Английский, DTS-HD MA, 48000 Гц, 2605 Кбит/с, 7 каналов (7.1) - Оригинал
Скачать

Загрузка начнется в течение 5 сек.

28.96 GB

Название: Вокруг света за 80 дней / Around the World in 80 Days (2004) BDRip-AVC
Качество видео: BDRip-AVC
Перевод: Профессиональный (Дублированный)
Формат видео: MKV
Видео: x264 1136x480, 23.976 fps, 2143 kbps,
Аудио: AC3 6ch Front: L C R, Side: L R, LFE, 448 kbps
Скачать

Загрузка начнется в течение 5 сек.

2.17 GB

Название: Вокруг Света за 80 Дней / Around the World in 80 Days (2004) HDRip от Scarabey | D
Качество видео: HDRip
Перевод: Профессиональный (полное дублирование)
Формат видео: AVI
Видео: 720x304 (2.37:1), 23.976 fps, XviD build 50 ~1272 kbps avg, 0.24 bit/pixel
Аудио: 48 kHz, AC3 Dolby Digital, 3/2 (L,C,R,l,r) + LFE ch, ~448.00 kbps avg
Скачать

Загрузка начнется в течение 5 сек.

1.45 GB

Название: Вокруг Света за 80 Дней / Around the World in 80 Days (2004) HDRip от Scarabey | D
Качество видео: HDRip
Перевод: Профессиональный (полное дублирование)
Формат видео: AVI
Видео: 640x272 (2.35:1), 23.976 fps, XviD build 50 ~728 kbps avg, 0.17 bit/pixel
Аудио: 48 kHz, MPEG Layer 3, 2 ch, ~128.00 kbps avg
Скачать

Загрузка начнется в течение 5 сек.

743.82 MB

Название: Вокруг Света за 80 Дней / Around the World in 80 Days (2004) BDRip от Rulya74
Качество видео: BDRip
Перевод: Дубляж + Профессиональный (двухголосый закадровый)Tycoon / внешняя + Оригинал (Английский) внешняя
Видео: XVID 720x304 (2.37:1), 23.976 fps, XviD MPEG-4 ~1533 kbps avg, 0.292 bit/pixel
Аудио: 48 kHz, AC3 Dolby Digital 2 ch, 192.00 kbps / Дубляж48 kHz, AC3 Dolby Digital 2 ch, 192.00 kbps / Профессиональный (двухголосый закадровый)Tycoon / внешняя48 kHz, AC3 Dolby Digital 2 ch, 192.00 kbps / Оригинал (Английский) внешняя
Скачать

Загрузка начнется в течение 5 сек.

1.78 GB

Название: Вокруг света за 80 дней / Around the World in 80 Days (2004) BDRip 1080p
Качество видео: BDRip 1080p
Перевод: Профессиональный (Дублированный)
Формат видео: MKV
Видео: x264 AVC ([email protected]) 1920x816 (2.35:1), 23.976 fps, 6426 kbps, 0,171 Bits/Pixel
Аудио: Dolby Digital (AC-3) 5.1 ch, 448 kbps
Скачать

Загрузка начнется в течение 5 сек.

5.76 GB

Вокруг света за 80 дней через торрент

ОбщееУникальный идентификатор : 250586862131202916666546582095605118572 (0xBC85462E5B6585CA90DF18DA71C9B66C)Полное имя : D:\Video\Вокруг света за 80 дней.2004.BDRip.720p.mkvФормат : MatroskaВерсия формата : Version 4 / Version 2Размер файла : 4,88 ГбайтПродолжительность : 2 ч. 0 м.Общий поток : 5810 Кбит/секДата кодирования : UTC 2016-08-04 03:33:45Программа кодирования : mkvmerge v8.2.0 ('World of Adventure') 64bitБиблиотека кодирования : libebml v1.3.1 + libmatroska v1.4.2

ВидеоИдентификатор : 1Формат : AVCФормат/Информация : Advanced Video CodecПрофиль формата : [email protected]Параметр CABAC формата : ДаПараметр ReFrames формата : 9 кадровИдентификатор кодека : V_MPEG4/ISO/AVCПродолжительность : 2 ч. 0 м.Битрейт : 4527 Кбит/секШирина : 1280 пикселейВысота : 546 пикселейСоотношение сторон : 2,35:1Режим частоты кадров : ПостоянныйЧастота кадров : 23,976 (24000/1001) кадра/секЦветовое пространство : YUVСубдискретизация насыщенности : 4:2:0Битовая глубина : 8 битТип развёртки : ПрогрессивнаяБит/(Пиксели*Кадры) : 0.270Размер потока : 3,80 Гбайт (78%)Библиотека кодирования : x264 core 146 r2538 121396cНастройки программы : cabac=1 / ref=9 / deblock=1:-1:-1 / analyse=0x3:0x113 / me=umh / subme=10 / psy=1 / psy_rd=1.00:0.15 / mixed_ref=1 / me_range=32 / chroma_me=1 / trellis=2 / 8x8dct=1 / cqm=0 / deadzone=21,11 / fast_pskip=1 / chroma_qp_offset=-3 / threads=6 / lookahead_threads=1 / sliced_threads=0 / nr=0 / decimate=1 / interlaced=0 / bluray_compat=0 / constrained_intra=0 / bframes=9 / b_pyramid=2 / b_adapt=2 / b_bias=0 / direct=1 / weightb=1 / open_gop=0 / weightp=2 / keyint=230 / keyint_min=23 / scenecut=40 / intra_refresh=0 / rc_lookahead=40 / rc=crf / mbtree=0 / crf=19.0 / qcomp=0.60 / qpmin=0 / qpmax=69 / qpstep=4 / vbv_maxrate=40000 / vbv_bufsize=50000 / crf_max=0.0 / nal_hrd=none / filler=0 / ip_ratio=1.40 / pb_ratio=1.30 / aq=1:1.00Язык : EnglishDefault : ДаForced : Нет

Аудио #1Идентификатор : 2Формат : AC-3Формат/Информация : Audio Coding 3Расширение режима : CM (complete main)Параметр Endianness формата : BigИдентификатор кодека : A_AC3Продолжительность : 2 ч. 0 м.Вид битрейта : ПостоянныйБитрейт : 384 Кбит/секКаналы : 6 каналовРасположение каналов : Front: L C R, Side: L R, LFEЧастота : 48,0 КГцЧастота кадров : 31,250 кадров/сек (1536 spf)Метод сжатия : С потерямиРазмер потока : 330 Мбайт (7%)Заголовок : DUB (R5, Нева фильм)Язык : RussianDefault : ДаForced : Нет

Аудио #2Идентификатор : 3Формат : AC-3Формат/Информация : Audio Coding 3Расширение режима : CM (complete main)Параметр Endianness формата : BigИдентификатор кодека : A_AC3Продолжительность : 2 ч. 0 м.Вид битрейта : ПостоянныйБитрейт : 448 Кбит/секКаналы : 6 каналовРасположение каналов : Front: L C R, Side: L R, LFEЧастота : 48,0 КГцЧастота кадров : 31,250 кадров/сек (1536 spf)Метод сжатия : С потерямиРазмер потока : 385 Мбайт (8%)Заголовок : DVO (Tycoon)Язык : RussianDefault : НетForced : Нет

Аудио #3Идентификатор : 4Формат : AC-3Формат/Информация : Audio Coding 3Расширение режима : CM (complete main)Параметр Endianness формата : BigИдентификатор кодека : A_AC3Продолжительность : 2 ч. 0 м.Вид битрейта : ПостоянныйБитрейт : 448 Кбит/секКаналы : 6 каналовРасположение каналов : Front: L C R, Side: L R, LFEЧастота : 48,0 КГцЧастота кадров : 31,250 кадров/сек (1536 spf)Метод сжатия : С потерямиРазмер потока : 385 Мбайт (8%)Заголовок : originalЯзык : EnglishDefault : НетForced : Нет

Текст #1Идентификатор : 5Формат : UTF-8Идентификатор кодека : S_TEXT/UTF8Идентификатор кодека/Информация : UTF-8 Plain TextПродолжительность : 1 ч. 52 м.Битрейт : 87 бит/секCount of elements : 1155Размер потока : 71,8 Кбайт (0%)Заголовок : русскиеЯзык : RussianDefault : НетForced : Нет

Текст #2Идентификатор : 6Формат : UTF-8Идентификатор кодека : S_TEXT/UTF8Идентификатор кодека/Информация : UTF-8 Plain TextПродолжительность : 1 ч. 58 м.Битрейт : 53 бит/секCount of elements : 1424Размер потока : 46,3 Кбайт (0%)Заголовок : английскиеЯзык : EnglishDefault : НетForced : Нет

piratbit.ru


Смотрите также