Вход в никуда скачать торрент в хорошем качестве


Скачать фильм Вход в никуда (2010) через торрент

26 апреля 2016 08:48 Вход в никуда / Enter Nowhere (2011) DVDRip | L1 .torrent   [Информация о файле (нажмите для просмотра)] Перевод: Любительский (одноголосый)Формат: AVIКачество: DVDRipВидео: XviD 64, ~2800 Кбит/с, 720x304Аудио: Russian AC3, 448 Кбит/с (6 ch)Видео: Идентификатор : 0 Формат : MPEG-4 Visual Профиль формата : Advanced [email protected] Параметр BVOP формата : 2 Параметр QPel формата : Нет Параметр GMC формата : Без точки перехода Параметр матрицы формата : Default (H.263) Режим смешивания : Сжатый битовый поток Идентификатор кодека : XVID Идентификатор кодека/Подсказка : XviD Продолжительность : 1 ч. 29 м. Битрейт : 2828 Кбит/сек Ширина : 720 пикселей Высота : 304 пикселя Соотношение сторон : 2,35:1 Частота кадров : 23,976 кадра/сек Цветовое пространство : YUV Субдискретизация насыщенности : 4:2:0 Битовая глубина : 8 бит Тип развёртки : Чересстрочная Порядок развёртки : Верхнее поле первое Метод сжатия : С потерями Бит/(Пиксели*Кадры) : 0.539 Размер потока : 1,77 Гбайт (86%) Библиотека кодирования : XviD 64Аудио: Идентификатор : 1 Формат : AC-3 Формат/Информация : Audio Coding 3 Расширение режима : CM (complete main) Параметр Endianness формата : Big Идентификатор кодека : 2000 Продолжительность : 1 ч. 29 м. Вид битрейта : Постоянный Битрейт : 448 Кбит/сек Каналы : 6 каналов Расположение каналов : Front: L C R, Side: L R, LFE Частота : 48,0 КГц Битовая глубина : 16 бит Метод сжатия : С потерями Размер потока : 287 Мбайт (14%) Выравнивание : Соединение по промежуткам Продолжительность промежутка : 42 мс. (1,00 видеокадр) Время предзагрузки промежутка : 512 мс.Скриншоты 2,05 Gb 6 1 26 апреля 2016 08:48 Войти в никуда / Enter Nowhere (2011) DVDRemux | L1 .torrent   [Информация о файле (нажмите для просмотра)] Перевод: Любительский одноголосый закадровый(den904) Перевод на русский: (janetta, vovmen, Serj2, Leviathana) Кодек: V_MPEG2Качество: DVDRipВидео: 720x480, 29.97, 4402 kbpsЗвук: Русский, 48 KHz, Dolby Digital, 6 ch, 448 kbps Английский, 48 KHz, Dolby Digital, 6 ch, 448 kbpsСубтитры: Английские, русские 3,37 Gb 3 5 26 апреля 2016 08:48 Вход в никуда / Enter Nowhere (2011) DVDRemux | L1 .torrent   [Информация о файле (нажмите для просмотра)] Перевод: Любительский (одноголосый)Кодек: MPEG-2Качество: DVDRemux, mkvВидео: 720x480(853x480), 16:9, 4393 kb/sЗвук: Русский, английский (AC3, 6 ch, 448 Кбит/с)Субтитры: Русские, английские 3,37 Gb 4 1 26 апреля 2016 08:48 Вход в никуда / Enter Nowhere (2011) DVDRip | L1 .torrent   [Информация о файле (нажмите для просмотра)] Качество: DVDRipВидео: 640x272 (2.35:1), 23.976 fps, DivX Codec 5.x or 6.x ~948 kbps avg, 0.23 bit/pixelАудио: 48 kHz, MPEG Layer 3, 2 ch, ~128.00 kbps avgПеревод: Любительский (одноголосый) 697,68 Mb 8 4 26 апреля 2016 08:48 Вход в никуда / Enter Nowhere (2011) DVDRip | L1 .torrent   [Информация о файле (нажмите для просмотра)] Перевод: Любительский (одноголосый)Формат: AVI (XviD)Качество: DVDRipВидео: 1442 Кбит/с, 704x304Аудио: Russian / English: AC3, 448 Кбит/с (6 ch) 1,47 Gb 7 5

gig-torrent.net

Скачать фильм Вход в никуда через торрент в хорошем качестве бесплатно DVDRip

Размер: 1.47 GB | Добавлен: 5 лет 5 мес. назад | Торрент скачан:356 раз
Реклама Дарим 3000 рублей за регистрацию, не упусти свой шанс получить шикарный бонус!!!

19-05-2012 14:25 Вход в никуда Скачать торрент  

Вход в никуда / Enter Nowhere Год выпуска: 2011Страна: СШАЖанр: Ужасы, триллер, детективПродолжительность: 01:29:27Перевод: Одноголосый (закадровый) [Гундос]Cубтитры: Нет

Режиссер: Джек Хеллер / Jack HellerВ ролях: Сара Пэкстон, Скотт Иствуд, Шон Сайпос, Кристофер Денхам, Кэтерин Уотерстон, Лей Лезарк, Джесси Перез

Описание: В центре сюжета фильма несколько героев, оказавшихся волей случая в безлюдном сверхъестественном лесу. Здесь судьбы людей переплетаются жестоким образом. Зайдя друг за другом в пустующую сторожку наши герои совершают большую ошибку. С этого момента их начинают преследовать некто или нечто...

Сэмпл: http://multi-up.com/698562

Качество видео: DVDRipФормат видео: AVIВидео кодек : XviDАудио кодек : AC3Видео: 704x304 (2.32:1), 23.976 fps, XviD MPEG-4 ~1442 kbps avg, 0.28 bit/pixelАудио #1: 48 kHz, AC3 Dolby Digital, 3/2 (L,C,R,l,r) + LFE ch, ~448 kbps [rus]Аудио #2: 48 kHz, AC3 Dolby Digital, 3/2 (L,C,R,l,r) + LFE ch, ~448 kbps [eng]

Код:

GeneralComplete name                            : C:\Вход в никуда.2011.HDRip.aviFormat                                   : AVIFormat/Info                              : Audio Video InterleaveFile size                                : 1.47 GiBDuration                                 : 1h 29mnOverall bit rate                         : 2 354 KbpsWriting application                      : VirtualDubMod 1.5.10.1 (build 2366/release)Writing library                          : VirtualDubMod build 2366/releaseVideoID                                       : 0Format                                   : MPEG-4 VisualFormat profile                           : Advanced [email protected] settings, BVOP                    : 1Format settings, QPel                    : NoFormat settings, GMC                     : No warppointsFormat settings, Matrix                  : Default (H.263)Codec ID                                 : XVIDCodec ID/Hint                            : XviDDuration                                 : 1h 29mnBit rate                                 : 1 443 KbpsWidth                                    : 704 pixelsHeight                                   : 304 pixelsDisplay aspect ratio                     : 2.35:1Frame rate                               : 23.976 fpsColor space                              : YUVChroma subsampling                       : 4:2:0Bit depth                                : 8 bitsScan type                                : ProgressiveCompression mode                         : LossyBits/(Pixel*Frame)                       : 0.281Stream size                              : 924 MiB (61%)Writing library                          : XviD 1.2.1 (UTC 2008-12-04)Audio #1ID                                       : 1Format                                   : AC-3Format/Info                              : Audio Coding 3Mode extension                           : CM (complete main)Codec ID                                 : 2000Duration                                 : 1h 29mnBit rate mode                            : ConstantBit rate                                 : 448 KbpsChannel(s)                               : 6 channelsChannel positions                        : Front: L C R, Side: L R, LFESampling rate                            : 48.0 KHzBit depth                                : 16 bitsCompression mode                         : LossyStream size                              : 287 MiB (19%)Alignment                                : Split accross interleavesInterleave, duration                     : 42 ms (1.00 video frame)Interleave, preload duration             : 500 msAudio #2ID                                       : 2Format                                   : AC-3Format/Info                              : Audio Coding 3Mode extension                           : CM (complete main)Codec ID                                 : 2000Duration                                 : 1h 29mnBit rate mode                            : ConstantBit rate                                 : 448 KbpsChannel(s)                               : 6 channelsChannel positions                        : Front: L C R, Side: L R, LFESampling rate                            : 48.0 KHzBit depth                                : 16 bitsCompression mode                         : LossyStream size                              : 287 MiB (19%)Alignment                                : Split accross interleavesInterleave, duration                     : 42 ms (1.00 video frame)Interleave, preload duration             : 500 ms

Скачать Вход в никуда через торрент http://i38.fastpic.ru/big/2012/0507/ab/27709f8426063a7f004dee0cf608bdab.jpg Скачать фильм Вход в никуда через торрент бесплантно в хорошем качестве Описание: В центре сюжета фильма несколько героев, оказавшихся волей случая в безлюдном сверхъестественном лесу. Здесь судьбы людей ... 2012-05-19 14:25 5 10 1

Loading...

Loading...

Рекламный пират

19-05-2012 14:30 Вход в никуда Скачать торрент  

Судя по отзывам на Кинопоиске - придется качать и убедиться лично какой фильм на самом деле. Автору спасибо за малоизвестный ужастик.

21-05-2012 23:37 Вход в никуда Скачать торрент  

Довольно интересный фильм. Рекомендуется тем, кто ценит хорошую историю больше спецэффектов. Сюжет в духе классических научно-фантастических рассказов. Мне понравилось.

Дорогой пользователь! Огромная просьба, поблагодарите релизера, оцените раздачу и оставьте свои комментарий, если Вы скачали Вход в никуда через торрент бесплатно! Внесите свою лепту в развитие PiratBit!

Комментировать посты могут только пользователи прошедшие не сложную регистрацию

Вход в никуда через торрент Скачать бесплатно Вход в никуда Вход в никуда скачать торрент Вход в никуда смотреть онлайн Cкачать фильм Вход в никуда бесплатно Вход в никуда скачать торрент в хорошем качестве Вход в никуда смотреть онлайн бесплатно в хорошем качестве

Вы не можете начинать темыВы не можете отвечать на сообщенияВы не можете редактировать свои сообщенияВы не можете удалять свои сообщенияВы не можете голосовать в опросахВы не можете прикреплять файлы к сообщениямВы можете скачивать файлы

piratbit.ru

Вход в никуда 2011 - скачать бесплатно через торрент в хорошем качестве. Без регистрации

Название: Вход в никуда / Enter Nowhere (2011) DVDRip | L1
Качество видео: DVDRip
Перевод: Любительский (одноголосый)
Формат видео: AVI
Видео: XviD 64, ~2800 Кбит/с, 720x304Идентификатор : 0
Аудио: Russian AC3, 448 Кбит/с (6 ch)Идентификатор : 1
Скачать

Загрузка начнется в течение 5 сек.

2.05 GB

Название: Вход в никуда / Enter Nowhere (2011) DVDRip | L1
Качество видео: DVDRip
Перевод: Любительский (одноголосый)
Видео: 640x272 (2.35:1), 23.976 fps, DivX Codec 5.x or 6.x ~948 kbps avg, 0.23 bit/pixel
Аудио: 48 kHz, MPEG Layer 3, 2 ch, ~128.00 kbps avg
Скачать

Загрузка начнется в течение 5 сек.

697.68 MB

Название: Вход в никуда / Enter Nowhere (2011) DVDRip | L1
Качество видео: DVDRip
Перевод: Любительский (одноголосый)
Формат видео: AVI (XviD)
Видео: 1442 Кбит/с, 704x304
Аудио: Russian / English: AC3, 448 Кбит/с (6 ch)
Скачать

Загрузка начнется в течение 5 сек.

1.47 GB

Название: Вход в никуда / Enter Nowhere (2011) DVDRemux | L1
Качество видео: DVDRemux, mkv
Перевод: Любительский (одноголосый)
Видео: MPEG-2 720x480(853x480), 16:9, 4393 kb/s
Аудио: Русский, английский (AC3, 6 ch, 448 Кбит/с)
Скачать

Загрузка начнется в течение 5 сек.

3.37 GB

www.kinovit.net

Вход в никуда скачать через торрент » Торрент Кино

На фильм наткнулся совершенно случайно через несколько лет после его выхода и начав смотреть не ожидал абсолютно ничего. Однако история довольно быстро намертво приковала к себе несмотря на то, что развивается она весьма неторопливо. 'Вход в никуда' чем-то напомнил картину 'Тупик'. Напомнил своей атмосферой и манерой повествования, ну и конечно же наличием неожиданной развязки, которая начинает угадываться к середине фильма. Несмотря на то, что фильм малобюджетный, замечаешь это только в самом конце, когда нам начинают демонстрировать спецэффекты, которые конечно несколько режут глаз своей простой. Однако в кино важна история и то, как ты ее рассказываешь и тут с этим все в порядке: всего четыре актера, минимум декораций и реквизита, однако в напряжении сидишь до самого конца с желанием узнать, чем же все это закончится. Расстраивают, пожалуй, только немного глупые диалоги в паре моментов. Тем не менее 'Вход в никуда' это отличный мистический фильм, в который погружаешься с головой. Настоятельно рекомендую всем любителям жанра.------------------------------------------'Вход в никуда' - не типичный дебют. Вообще не типичное кино, начиная с описания сюжета: лишнее слово в нём - уже спойлер. Безлюдный лес, трое незнакомцев и сторожка. Незнакомцы - абсолютно непохожие друг на друга люди, кажется, их объединяет только ситуация, в которой они оказались. Но дальше - больше. Сюжет с каждой минутой набирает обороты, кружит зрителя: то намекает, то рассказывает. Для режиссёрского дебюта подобная история - не лёгкий труд: необходимо связать все ниточки воедино. И желательно, чтобы они были связаны смыслом, идеей, а то конструкция может легко развалиться из-за одной ошибки, одного недочёта. 'Вход в никуда' увлекает, смотреть его интересно. Вдвойне интересно пересматривать подобные фильмы, когда знаешь всю историю. Лично для меня в фильме есть один существенный минус, а упоминать о нём нельзя: получится спойлер. Но есть и значительный плюс: отличная актёрская игра Скотта Иствуда (да-да, он сын того самого). Его игра притягивает и завораживает. В целом, 'Вход в никуда' - добротный дебют, грамотно сконструированное кино для 'поломать голову'. И это всё несмотря на мизерный (по сегодняшним меркам) бюджет.------------------------------------------О, это один из таких фильмов, когда так и хочется рассказать, что там было и какие там интересные повороты сюжета. И о которых раструбить и при этом не наспойлерничать невозможно. Начало было такое криминальное, как фильмы Тарантино. Но потом, когда показали одинокую девушку, бредущую по лесу и нашедшей домик, стало понятно, что это всё-таки триллер. Обычно в таких лентах к финалу все теряются. А тут, наоборот, собираются, как в «Кубе». Но, к сожалению, нет ощущения времени. Прежде, чем разобравшись, что происходит, герои просидели в этой хижине 3 дня. Но выглядели, как будто за один день всё произошло. Но понравились убедительные причины, почему они возвращались в этот домик – холод. А финальные события, что надеваются друг на друга, как детская пирамидка, не дадут вам возможности нажать на паузу. Очень жаль, что фильму не хватило красок. И игра актёров понравилась, и сюжет. Жаль, что просто картинка сама по себе какая-то одноцветная и блеклая.------------------------------------------Начало данного фильма напоминает обычный, шаблонный, мистический фильм ужасов. Ничем не выделяющийся из огромной массы ему подобных, вот кучка героев, попало в какую-то сверхъестественную местность, и зритель ждет когда за ними начнет кто-нибудь охотится, реки крови, мясо, крики, вопли. Но нет, ближе к середине фильма, зритель понимает что он ошибся, и не будет никаких монстров, маньяков, призраков и прочего. Все гораздо интересней и загадочней. Не буду спойлерить и мусолить сюжет, скажу что фильм напомнил всем известный сериал lost, но не тот затянутый и муторный lost с предсказуемой концовкой, в который превратили его создатели, снимая сезон за сезоном, а именно первые серии этого сериала, во всяком случае у меня возникли примерно идентичные чувства и эмоции при просмотре данного, не побоюсь этого слова, шедевра. Актёрская игра на достойном уровне, порадовал сын Клина Иствуда, обычно дети актёров не особо впечатляют своими талантами (вспомним известную поговорку: На детях, природа отдыхает) Но годам к 30-35, у Скотти есть все шансы прославится, не только за счёт своей фамилии, если повезёт с проектами. Учитывая что бюджет фильма всего 500 тыс. это однозначно шедевр, фантастического фильма лучше, снятого за те же деньги, просто не существует. Очень и очень достойная работа, всем любителям мистики и фантастики посвящается.

torrent-kino.org


Смотрите также