Ва банк 2013 скачать торрент в хорошем качестве


Скачать фильм Va-банк (2013) через торрент

gig-torrent.net

8 февраля 2016 09:57 Va-банк / Runner Runner (2013) BDRip 720p от HELLYWOOD | Лицензия .torrent   [Информация о файле (нажмите для просмотра)] Перевод: Профессиональный (полное дублирование) [лицензия BD CEE]Субтитры: Русские (полные + форс.), украинские (полные + форс.), английские (Forced + Full + SDH + SDH-Colored)Качество: BDRip 720pФормат: MKVВидео: х.264, 1280x534 (2,40:1), 23.976 fps, 6543 Кbps, 0.399 bit/pixelАудио#1: 48 kHz, DTS, 3/2 (L,C,R,l,r) + LFE ch, 768.00 kbps |RUSАудио#2: 48 kHz, AC3 Dolby Digital, 3/2 (L,C,R,l,r) + LFE ch, 448.00 kbps |UKRАудио#3: 48 kHz, AC3 Dolby Digital, 3/2 (L,C,R,l,r) + LFE ch, 640.00 kbps |ENG 5,37 Gb 41 2
8 февраля 2016 09:57 Va-банк / Runner Runner (2013) BDRip от Rulya74 | Лицензия .torrent   [Информация о файле (нажмите для просмотра)] Перевод: Дубляж + Дубляж - УкраинскийКодек: XVIDКачество: BDRipВидео: 720x304 (2.35:1), 23.976 fps, XviD MPEG-4 ~1833 kbps avg, 0.343 bit/pixelСубтитры: Русские (полные, на латинские диалоги),Украинский, Английские / внешние 2,05 Gb 20 6
8 февраля 2016 09:57 Va-банк / Runner Runner (2013) DVD5 от New-Team | D | сжатый .torrent   [Информация о файле (нажмите для просмотра)] Перевод: Профессиональный (дублированный)Качество: DVD5 (сжатый) / DVD9 R5Формат: DVD VideoВидео: PAL 16x9 (720х576) VBR, 6200 kbps, Auto LetterboxedАудио 1: 48 kHz, Dolby AC3, 6 ch, 448 kbps, английскийАудио 2: 48 kHz, Dolby AC3, 6 ch, 384 kbps,русский 4,37 Gb 1 3
8 февраля 2016 09:57 Va-банк / Runner Runner (2013) DVD9 | D | Лицензия .torrent   [Информация о файле (нажмите для просмотра)] Качество: DVDВидео: PAL 16x9 (1024х576"720х576) VBRАудио: Русский, английский, украинский, испанский (Dolby AC3, 6 ch)Перевод: ДублированныйСубтитры: Русские, английские, испанские, датские, финские, норвежские, шведские, эстонские, латышские, литовские, украинские 5,55 Gb 12 4
8 февраля 2016 09:57 Va-банк / Runner Runner (2013) BDRip от MediaClub | КПК .torrent   [Информация о файле (нажмите для просмотра)] Перевод: ДублированныйКодек: MPEG-4Качество: BDRipВидео: 752 Кбит/с, 320x136, 23.976 кадр/сЗвук: Русский (AAC, 2 ch, 160 Кбит/с) 492,2 Mb 5 2
8 февраля 2016 09:57 Va-банк / Runner Runner (2013) HDRip-AVC от Leo.pard | D .torrent   [Информация о файле (нажмите для просмотра)] Перевод: Профессиональный (дублированный)Формат: MKVВидео: x264, 864x360 (2.40:1), 1065 Kbps, 23.976 fpsАудио: AAC, 72 Kbps, 48 KHz, 2 channelsСубтитры: Русские, украинские, английские 745,85 Mb 5 4
8 февраля 2016 09:57 Va-банк / Runner Runner (2013) BDRip от HQCLUB | Лицензия .torrent   [Информация о файле (нажмите для просмотра)] Перевод: Профессиональный (полное дублирование) CEEСубтитры: русские (полные, форсированные), английские (полные, форсированные, SDH), украинские (полные, форсированные)Формат: AVIКачество: BDRip (источник:Видео: 720x304 (2.37:1), 23.976 fps, XviD build 65 ~1817 kbps avg, 0.35 bit/pixelАудио #1: 48 kHz, AC3 Dolby Digital, 3/2 (L,C,R,l,r) + LFE ch, ~448 kbps avg (RUS)Аудио #2: 48 kHz, AC3 Dolby Digital, 3/2 (L,C,R,l,r) + LFE ch, ~448 kbps avg (UKR)(отдельно)Аудио #3: 48 kHz, AC3 Dolby Digital, 3/2 (L,C,R,l,r) + LFE ch, ~448 kbps avg (ENG)(отдельно) 1,45 Gb 44 3
8 февраля 2016 09:57 Va-банк / Runner Runner (2013) BDRip 1080p от Killbrain and Scarabey | Лицензия .torrent   [Информация о файле (нажмите для просмотра)] Перевод: русский + украинский профессиональные (полное дублирование)[Лицензия, BD CEE]Контейнер: MKVВидео: AVC / [email protected] /2 pass / 23,976 fps / 1920x800p (2,40:1) / 14,0 Mbps / 0.380Аудио 1: AC3 / 5.1 ch / 448 kbps / Русский дубляж, BD CEEАудио 2: AC3 / 5.1 ch / 448 kbps / Украинский дубляж, BD CEEАудио 3: AC3 / 5.1 ch / 640 kbps / Английский original, BD CEEСубтитры: [softsub SRT]Видео: Идентификатор : 1 Формат : AVC Формат/Информация : Advanced Video Codec Профиль формата : [email protected] Параметр CABAC формата : Да Параметр ReFrames формата : 4 кадра Идентификатор кодека : V_MPEG4/ISO/AVC Продолжительность : 1 ч. 31 м. Битрейт : 14,0 Мбит/сек Ширина : 1920 пикселей Высота : 800 пикселей Соотношение сторон : 2,40:1 Режим частоты кадров : Постоянный Частота кадров : 23,976 кадра/сек Цветовое пространство : YUV Субдискретизация насыщенности : 4:2:0 Битовая глубина : 8 бит Тип развёртки : Прогрессивная Бит/(Пиксели*Кадры) : 0.380 Размер потока : 8,75 Гбайт (88%) Заголовок : Runner Runner (2013) Библиотека кодирования : x264 core 138 r2358 9e941d1 Настройки программы : cabac=1 / ref=4 / deblock=1:-3:-3 / analyse=0x3:0x113 / me=umh / subme=10 / psy=1 / psy_rd=1.00:0.05 / mixed_ref=1 / me_range=32 / chroma_me=1 / trellis=2 / 8x8dct=1 / cqm=0 / deadzone=21,11 / fast_pskip=0 / chroma_qp_offset=-3 / threads=3 / lookahead_threads=1 / sliced_threads=0 / nr=0 / decimate=0 / interlaced=0 / bluray_compat=0 / constrained_intra=0 / bframes=6 / b_pyramid=2 / b_adapt=2 / b_bias=0 / direct=3 / weightb=1 / open_gop=0 / weightp=2 / keyint=240 / keyint_min=24 / scenecut=40 / intra_refresh=0 / rc_lookahead=60 / rc=2pass / mbtree=0 / bitrate=14000 / ratetol=1.0 / qcomp=0.65 / qpmin=0 / qpmax=69 / qpstep=4 / cplxblur=20.0 / qblur=0.5 / vbv_maxrate=40000 / vbv_bufsize=30000 / nal_hrd=none / ip_ratio=1.40 / pb_ratio=1.30 / aq=1:0.80 Язык : English Default : Да Forced : НетАудио #1: Идентификатор : 2 Формат : AC-3 Формат/Информация : Audio Coding 3 Расширение режима : CM (complete main) Параметр Endianness формата : Big Идентификатор кодека : A_AC3 Продолжительность : 1 ч. 31 м. Вид битрейта : Постоянный Битрейт : 448 Кбит/сек Каналы : 6 каналов Расположение каналов : Front: L C R, Side: L R, LFE Частота : 48,0 КГц Битовая глубина : 16 бит Метод сжатия : С потерями Размер потока : 293 Мбайт (3%) Заголовок : AC3 / 5.1 ch / 448 kbps / Русский дубляж, BD CEE Язык : Russian Default : Да Forced : НетАудио #2: Идентификатор : 3 Формат : AC-3 Формат/Информация : Audio Coding 3 Расширение режима : CM (complete main) Параметр Endianness формата : Big Идентификатор кодека : A_AC3 Продолжительность : 1 ч. 31 м. Вид битрейта : Постоянный Битрейт : 448 Кбит/сек Каналы : 6 каналов Расположение каналов : Front: L C R, Side: L R, LFE Частота : 48,0 КГц Битовая глубина : 16 бит Метод сжатия : С потерями Размер потока : 293 Мбайт (3%) Заголовок : AC3 / 5.1 ch / 448 kbps / Украинский дубляж, BD CEE Язык : Ukrainian Default : Нет Forced : НетАудио #3: Идентификатор : 4 Формат : AC-3 Формат/Информация : Audio Coding 3 Расширение режима : CM (complete main) Параметр Endianness формата : Big Идентификатор кодека : A_AC3 Продолжительность : 1 ч. 31 м. Вид битрейта : Постоянный Битрейт : 640 Кбит/сек Каналы : 6 каналов Расположение каналов : Front: L C R, Side: L R, LFE Частота : 48,0 КГц Битовая глубина : 16 бит Метод сжатия : С потерями Размер потока : 419 Мбайт (4%) Заголовок : AC3 / 5.1 ch / 640 kbps / Английский original, BD CEE Язык : English Default : Нет Forced : Нет 9,93 Gb 40 6
8 февраля 2016 09:57 Va-банк / Runner Runner (2013) HDRip от Scarabey | D | Лицензия .torrent   [Информация о файле (нажмите для просмотра)] Перевод: Профессиональный (полное дублирование) - ЛицензияКачество: HDRipФормат: AVIВидео: 688x288 (2.39:1), 23.976 fps, XviD build 73 ~1000 kbps avg, 0.21 bit/pixelАудио: 48 kHz, MPEG Layer 3, 2 ch, ~128.00 kbps avg 745,25 Mb 10 2
8 февраля 2016 09:57 Va-банк / Runner Runner (2013) HDRip от Scarabey | D | Лицензия .torrent   [Информация о файле (нажмите для просмотра)] Перевод: Профессиональный (полное дублирование) - ЛицензияКачество: HDRipФормат: AVIВидео: 720x304 (2.37:1), 23.976 fps, XviD build 73 ~1869 kbps avg, 0.36 bit/pixelАудио: 48 kHz, AC3 Dolby Digital, 3/2 (L,C,R,l,r) + LFE ch, ~384 kbps 1,45 Gb 283 8
8 февраля 2016 09:57 Va-банк / Runner Runner (2013) BDRip 1080p от NNNB .torrent   [Информация о файле (нажмите для просмотра)] Перевод: ДублированныйКачество: BDRip 1080p (исходник Blu-ray)Видео: 1920x800, 10400 Кбит/сек, 23.976 кадр/сек, AVC, x264, [email protected], 0.282 Бит/[Пиксели*Кадры], 2passАудио 1: AC3 5.1 48 kHz 640 kbps -ДублированныйАудио 2: AC3 5.1 48 kHz 640 kbps -EnglishАудио 3: AC3 5.1 48 kHz 448 kbps -UkrainianСубтитры: Russian (Forced, Full), English (Forced, Full), Ukrainian 7,75 Gb 4 1
8 февраля 2016 09:57 Va-банк / Runner Runner (2013) BDRip от New-Team | D | Лицензия .torrent   [Информация о файле (нажмите для просмотра)] Перевод: Профессиональный (дублированный)|Лицензия - Blu-Ray CEE|Видео: 720x304 (2.35:1), 23.976 fps, XviD 65 ~1003 kbps avg, 0.191 bit/pixelАудио: 48 kHz, MPEG Layer 3, 2 ch, 128.00 kbps Constant |Дубляж, 746,51 Mb 4 3
8 февраля 2016 09:57 Va-банк / Runner Runner (2013) BDRip от New-Team | D | Лицензия .torrent   [Информация о файле (нажмите для просмотра)] Перевод: Профессиональный (дублированный)|Лицензия - Blu-Ray CEE|Видео: 720x304 (2.35:1), 23.976 fps, XviD 65 ~1875 kbps avg, 0.357 bit/pixelАудио: 48 kHz, AC3 Dolby Digital, 3/2 (L,C,R,l,r) + LFE ch, 384.00 kbps Constant |Дубляж, 1,45 Gb 6 1
8 февраля 2016 09:57 Va-банк / Runner Runner (2013) BDRip 720p | Лицензия .torrent   [Информация о файле (нажмите для просмотра)] Перевод: Профессиональный (полное дублирование) [Лицензия]Качество: BDRip 720pФормат: MKVВидео: AVC, 1280x534 (2.40:1) at 23.976 fps, AVC at 5939 kbps avg, 0.362 bit/pixelАудио 1: Русский / AC3 / 6ch / 448 kbpsАудио 2: Украинский / AC3 / 6ch / 448 kbpsСубтитры: Русские, Украинские 4,37 Gb 39 5
8 февраля 2016 09:57 Va-банк / Runner Runner (2013) BDRip-AVC от MediaClub | Лицензия .torrent   [Информация о файле (нажмите для просмотра)] Перевод: Профессиональный (полное дублирование) -ЛицензияКодек: x264Качество: BDRip-AVCВидео: MPEG-4 AVC, 2644 Кбит/с, 1024х426, 23.976 кадр/сЗвук: Русский, украинский, английский (AC3, 6 ch, 448 Кбит/с)Субтитры: Русские, украинские, английские 2,55 Gb 8 4
8 февраля 2016 09:57 Va-банк / Runner Runner (2013) BDRip 1080p от New-Team .torrent   [Информация о файле (нажмите для просмотра)] Перевод: Профессиональный (полное дублирование)(Лицензия) + ОригинальныйСубтитры: русские форсированныеКачество: BDRip 1080pКонтейнер: MKVВидео: AVC, 1920x800 (2.40:1), 6500 kbps, 23,976 fps, 0,177 bppАудио №1: русский / AC3 / 5.1 / 48 kHz / 448kbps / 16 bit|| Аудио №2: английский / AC3 / 5.1 / 48 kHz / 448 kbps / 16 bit 4,73 Gb 7 1
8 февраля 2016 09:57 Va-банк / Runner Runner (2013) BDRip-AVC от HELLYWOOD | Лицензия .torrent   [Информация о файле (нажмите для просмотра)] Перевод: Профессиональный (полное дублирование)Субтитры: Русские (полные + форс.), украинские, английские (Forced + Full + SDH + SDH-Colored)Качество: BDRip-AVC [Runner Runner 2013 Blu-ray 1080p AVC DTS-HD MA 5.1-HDWinG]Формат: MKVВидео: х.264, 1128x470 (2,40:1), 23,976 fps, 2522 Кbps, 0.198 bit/pixelАудио#1: 48 kHz, AC3 Dolby Digital, 3/2 (L,C,R,l,r) + LFE ch, 448.00 kbps |RUSАудио#2: 48 kHz, AC3 Dolby Digital, 3/2 (L,C,R,l,r) + LFE ch, 448.00 kbps |ENGАудио#3: 48 kHz, AC3 Dolby Digital, 3/2 (L,C,R,l,r) + LFE ch, 448.00 kbps |UKR (отдельно на disk yandex.ru) 2,18 Gb 54 3
8 февраля 2016 09:57 Va-банк / Runner Runner (2013) BDRip 720p от Leonardo and Scarabey | Лицензия .torrent   [Информация о файле (нажмите для просмотра)] Перевод: Профессиональный (полное дублирование) ЛицензияФормат: MKVВидео кодек: MPEG-4 AVC Аудио кодек: AC3Видео: AVC, 1280x534 (2.40:1) at 23.976 fps, AVC at 7402 kbps avg, 0.442 bit/pixelАудио: 48 kHz, AC3 Dolby Digital, 3/2 (L,C,R,l,r) + LFE ch, 640.00 kbps - RussianСубтитры: Русские, английские 5,14 Gb 6 1
8 февраля 2016 09:57 Va-банк / Runner Runner (2013) BDRip-AVC | D | Лицензия .torrent   [Информация о файле (нажмите для просмотра)] Перевод: Профессиональный (полное дублирование) [Лицензия]Кодек: H.264, MKVКачество: BDRip-AVCВидео: 1056x440, 23,976 fps, 1891 Кбит/секЗвук: 48 kHz, AC3 Dolby Digital, 3/2 (L,C,R,l,r) + LFE ch, ~384 kbpsСубтитры: Русские, Украинские, Английские. 1,46 Gb 213 4
8 февраля 2016 09:57 Va-банк / Runner Runner (2013) BDRemux 1080p | Лицензия .torrent   [Информация о файле (нажмите для просмотра)] Видео: MPEG-4 AVC, 1920x1080, 33.9 Мbps, 23.976 fpsАудио #1: Русский DTS, 6 ch, 768 kbps, 48 kHzАудио #2: Русский АС3, 6 ch, 640 kbps, 48 kHzАудио #3: Украинский АС3, 6 ch, 448 kbps, 48 kHzАудио #4: Английский DTS-HD MA, 6 ch, 3536 kbps, 48 kHzПеревод: Дублированный [лицензия]Субтитры: Русские, украинские, английскиеВидео: Идентификатор : 1 Формат : AVC Формат/Информация : Advanced Video Codec Профиль формата : [email protected] Параметр CABAC формата : Да Параметр ReFrames формата : 4 кадра Идентификатор кодека : V_MPEG4/ISO/AVC Продолжительность : 1 ч. 31 м. Вид битрейта : Переменный Максимальный битрейт : 36,0 Мбит/сек Ширина : 1920 пикселей Высота : 1080 пикселей Соотношение сторон : 16:9 Режим частоты кадров : Постоянный Частота кадров : 23,976 кадра/сек Цветовое пространство : YUV Субдискретизация насыщенности : 4:2:0 Битовая глубина : 8 бит Тип развёртки : Прогрессивная Язык : English Default : Да Forced : ДаАудио #1: Идентификатор : 3 Формат : DTS Формат/Информация : Digital Theater Systems Режим : 16 Параметр Endianness формата : Big Идентификатор кодека : A_DTS Продолжительность : 1 ч. 31 м. Вид битрейта : Постоянный Битрейт : 768 Кбит/сек Каналы : 6 каналов Расположение каналов : Front: L C R, Side: L R, LFE Частота : 48,0 КГц Битовая глубина : 24 бит Метод сжатия : С потерями Размер потока : 503 Мбайт (2%) Язык : Russian Default : Да Forced : НетАудио #2: Идентификатор : 4 Формат : AC-3 Формат/Информация : Audio Coding 3 Расширение режима : CM (complete main) Параметр Endianness формата : Big Идентификатор кодека : A_AC3 Продолжительность : 1 ч. 31 м. Вид битрейта : Постоянный Битрейт : 640 Кбит/сек Каналы : 6 каналов Расположение каналов : Front: L C R, Side: L R, LFE Частота : 48,0 КГц Битовая глубина : 16 бит Метод сжатия : С потерями Размер потока : 419 Мбайт (2%) Язык : Russian Default : Нет Forced : НетАудио #3: Идентификатор : 5 Формат : AC-3 Формат/Информация : Audio Coding 3 Расширение режима : CM (complete main) Параметр Endianness формата : Big Идентификатор кодека : A_AC3 Продолжительность : 1 ч. 31 м. Вид битрейта : Постоянный Битрейт : 448 Кбит/сек Каналы : 6 каналов Расположение каналов : Front: L C R, Side: L R, LFE Частота : 48,0 КГц Битовая глубина : 16 бит Метод сжатия : С потерями Размер потока : 293 Мбайт (1%) Язык : Ukrainian Default : Нет Forced : НетАудио #4: Идентификатор : 6 Формат : DTS Формат/Информация : Digital Theater Systems Профиль формата : MA / Core Режим : 16 Параметр Endianness формата : Big Идентификатор кодека : A_DTS Продолжительность : 1 ч. 31 м. Вид битрейта : Переменный Битрейт : Неизвестно / 1509 Кбит/сек Каналы : 6 каналов Расположение каналов : Front: L C R, Side: L R, LFE Частота : 48,0 КГц Битовая глубина : 24 бит Метод сжатия : Без потерь / Lossy Язык : English Default : Нет Forced : Нет 25,01 Gb 3 4
8 февраля 2016 09:57 Va-банк / Runner Runner (2013) BDRip 1080p | Лицензия .torrent   [Информация о файле (нажмите для просмотра)] Видео: MPEG-4 AVC, 1920x800, 15.5 Мbps, 23.976 fpsАудио #1: Русский DTS, 6 ch, 768 kbps, 48 kHzАудио #2: Русский АС3, 6 ch, 640 kbps, 48 kHzАудио #3: Украинский АС3, 6 ch, 448 kbps, 48 kHzАудио #4: Английский DTS, 6 ch, 1510 kbps, 48 kHzПеревод: Дублированный [лицензия]Субтитры: Русские, украинские, английскиеВидео: Идентификатор : 1 Формат : AVC Формат/Информация : Advanced Video Codec Профиль формата : [email protected] Параметр CABAC формата : Да Параметр ReFrames формата : 5 кадров Идентификатор кодека : V_MPEG4/ISO/AVC Продолжительность : 1 ч. 31 м. Битрейт : 15,5 Мбит/сек Ширина : 1920 пикселей Высота : 800 пикселей Соотношение сторон : 2,40:1 Режим частоты кадров : Постоянный Частота кадров : 23,976 кадра/сек Цветовое пространство : YUV Субдискретизация насыщенности : 4:2:0 Битовая глубина : 8 бит Тип развёртки : Прогрессивная Бит/(Пиксели*Кадры) : 0.421 Размер потока : 9,67 Гбайт (80%) Библиотека кодирования : x264 core 138 r2356 a1d3d17 Настройки программы : cabac=1 / ref=5 / deblock=1:-3:-3 / analyse=0x3:0x113 / me=umh / subme=10 / psy=1 / psy_rd=1.00:0.05 / mixed_ref=1 / me_range=32 / chroma_me=1 / trellis=2 / 8x8dct=1 / cqm=0 / deadzone=21,11 / fast_pskip=0 / chroma_qp_offset=-2 / threads=18 / lookahead_threads=1 / sliced_threads=0 / nr=0 / decimate=1 / interlaced=0 / bluray_compat=0 / constrained_intra=0 / bframes=6 / b_pyramid=2 / b_adapt=2 / b_bias=0 / direct=3 / weightb=1 / open_gop=0 / weightp=2 / keyint=250 / keyint_min=23 / scenecut=40 / intra_refresh=0 / rc=2pass / mbtree=0 / bitrate=15520 / ratetol=1.0 / qcomp=0.70 / qpmin=0 / qpmax=69 / qpstep=4 / cplxblur=20.0 / qblur=0.5 / ip_ratio=1.40 / pb_ratio=1.30 / aq=2:0.90 Язык : English Default : Да Forced : НетАудио #1: Идентификатор : 2 Формат : DTS Формат/Информация : Digital Theater Systems Режим : 16 Параметр Endianness формата : Big Идентификатор кодека : A_DTS Продолжительность : 1 ч. 31 м. Вид битрейта : Постоянный Битрейт : 768 Кбит/сек Каналы : 6 каналов Расположение каналов : Front: L C R, Side: L R, LFE Частота : 48,0 КГц Битовая глубина : 24 бит Метод сжатия : С потерями Размер потока : 503 Мбайт (4%) Язык : Russian Default : Да Forced : НетАудио #2: Идентификатор : 3 Формат : AC-3 Формат/Информация : Audio Coding 3 Расширение режима : CM (complete main) Параметр Endianness формата : Big Идентификатор кодека : A_AC3 Продолжительность : 1 ч. 31 м. Вид битрейта : Постоянный Битрейт : 640 Кбит/сек Каналы : 6 каналов Расположение каналов : Front: L C R, Side: L R, LFE Частота : 48,0 КГц Битовая глубина : 16 бит Метод сжатия : С потерями Размер потока : 419 Мбайт (3%) Язык : Russian Default : Нет Forced : НетАудио #3: Идентификатор : 4 Формат : AC-3 Формат/Информация : Audio Coding 3 Расширение режима : CM (complete main) Параметр Endianness формата : Big Идентификатор кодека : A_AC3 Продолжительность : 1 ч. 31 м. Вид битрейта : Постоянный Битрейт : 448 Кбит/сек Каналы : 6 каналов Расположение каналов : Front: L C R, Side: L R, LFE Частота : 48,0 КГц Битовая глубина : 16 бит Метод сжатия : С потерями Размер потока : 293 Мбайт (2%) Язык : Ukrainian Default : Нет Forced : НетАудио #4: Идентификатор : 5 Формат : DTS Формат/Информация : Digital Theater Systems Режим : 16 Параметр Endianness формата : Big Идентификатор кодека : A_DTS Продолжительность : 1 ч. 31 м. Вид битрейта : Постоянный Битрейт : 1509 Кбит/сек Каналы : 6 каналов Расположение каналов : Front: L C R, Side: L R, LFE Частота : 48,0 КГц Битовая глубина : 24 бит Метод сжатия : С потерями Размер потока : 988 Мбайт (8%) Язык : English Default : Нет Forced : Нет 12,06 Gb 8 5
8 февраля 2016 09:57 Va-банк / Runner Runner (2013) BDRip 720p | Лицензия .torrent   [Информация о файле (нажмите для просмотра)] Качество: BDRip (720p)Видео: MPEG-4 AVC, 1280x534, 8500 kbps, 23.976 fpsАудио #1: Русский DTS, 6 ch, 768 kbps, 48 kHzАудио #2: Русский АС3, 6 ch, 640 kbps, 48 kHzАудио #3: Украинский АС3, 6 ch, 448 kbps, 48 kHzАудио #4: Английский DTS, 6 ch, 1510 kbps, 48 kHzПеревод: Дублированный [лицензия]Субтитры: Русские, украинские, английскиеВидео: Идентификатор : 1 Формат : AVC Формат/Информация : Advanced Video Codec Профиль формата : [email protected] Параметр CABAC формата : Да Параметр ReFrames формата : 12 кадров Идентификатор кодека : V_MPEG4/ISO/AVC Продолжительность : 1 ч. 31 м. Битрейт : 8500 Кбит/сек Ширина : 1280 пикселей Высота : 534 пикселя Соотношение сторон : 2,40:1 Режим частоты кадров : Постоянный Частота кадров : 23,976 кадра/сек Цветовое пространство : YUV Субдискретизация насыщенности : 4:2:0 Битовая глубина : 8 бит Тип развёртки : Прогрессивная Бит/(Пиксели*Кадры) : 0.519 Размер потока : 5,27 Гбайт (70%) Заголовок : Runner Runner 2013 Библиотека кодирования : x264 core 133 r2334 a3ac64b Настройки программы : cabac=1 / ref=12 / deblock=1:-3:-3 / analyse=0x3:0x113 / me=umh / subme=9 / psy=1 / psy_rd=1.05:0.00 / mixed_ref=1 / me_range=16 / chroma_me=1 / trellis=2 / 8x8dct=1 / cqm=0 / deadzone=21,11 / fast_pskip=0 / chroma_qp_offset=-2 / threads=3 / lookahead_threads=1 / sliced_threads=0 / nr=0 / decimate=0 / interlaced=0 / bluray_compat=0 / constrained_intra=0 / bframes=10 / b_pyramid=2 / b_adapt=2 / b_bias=0 / direct=3 / weightb=1 / open_gop=0 / weightp=2 / keyint=250 / keyint_min=23 / scenecut=40 / intra_refresh=0 / rc=2pass / mbtree=0 / bitrate=8500 / ratetol=1.0 / qcomp=0.60 / qpmin=0 / qpmax=69 / qpstep=4 / cplxblur=20.0 / qblur=0.5 / ip_ratio=1.40 / pb_ratio=1.30 / aq=1:0.60 Язык : English Default : Да Forced : НетАудио #1: Идентификатор : 2 Формат : DTS Формат/Информация : Digital Theater Systems Режим : 16 Параметр Endianness формата : Big Идентификатор кодека : A_DTS Продолжительность : 1 ч. 31 м. Вид битрейта : Постоянный Битрейт : 768 Кбит/сек Каналы : 6 каналов Расположение каналов : Front: L C R, Side: L R, LFE Частота : 48,0 КГц Битовая глубина : 24 бит Метод сжатия : С потерями Размер потока : 503 Мбайт (6%) Язык : Russian Default : Да Forced : НетАудио #2: Идентификатор : 3 Формат : AC-3 Формат/Информация : Audio Coding 3 Расширение режима : CM (complete main) Параметр Endianness формата : Big Идентификатор кодека : A_AC3 Продолжительность : 1 ч. 31 м. Вид битрейта : Постоянный Битрейт : 640 Кбит/сек Каналы : 6 каналов Расположение каналов : Front: L C R, Side: L R, LFE Частота : 48,0 КГц Битовая глубина : 16 бит Метод сжатия : С потерями Размер потока : 419 Мбайт (5%) Язык : Russian Default : Нет Forced : НетАудио #3: Идентификатор : 4 Формат : AC-3 Формат/Информация : Audio Coding 3 Расширение режима : CM (complete main) Параметр Endianness формата : Big Идентификатор кодека : A_AC3 Продолжительность : 1 ч. 31 м. Вид битрейта : Постоянный Битрейт : 448 Кбит/сек Каналы : 6 каналов Расположение каналов : Front: L C R, Side: L R, LFE Частота : 48,0 КГц Битовая глубина : 16 бит Метод сжатия : С потерями Размер потока : 293 Мбайт (4%) Язык : Ukrainian Default : Нет Forced : НетАудио #4: Идентификатор : 5 Формат : DTS Формат/Информация : Digital Theater Systems Режим : 16 Параметр Endianness формата : Big Идентификатор кодека : A_DTS Продолжительность : 1 ч. 31 м. Вид битрейта : Постоянный Битрейт : 1509 Кбит/сек Каналы : 6 каналов Расположение каналов : Front: L C R, Side: L R, LFE Частота : 48,0 КГц Битовая глубина : 24 бит Метод сжатия : С потерями Размер потока : 988 Мбайт (13%) Язык : English Default : Нет Forced : Нет 7,57 Gb 4 1
8 февраля 2016 09:57 Va-банк / Runner Runner (2013) BDRip-AVC от HELLYWOOD | Лицензия .torrent   [Информация о файле (нажмите для просмотра)] Перевод: Профессиональный (полное дублирование)Субтитры: Русские (полные + форс.), украинские, английские (Forced + Full + SDH + SDH-Colored)Качество: BDRip-AVC [Runner Runner 2013 Blu-ray 1080p AVC DTS-HD MA 5.1-HDWinG]Формат: MKVВидео: х.264, 1032x430 (2,40:1), 23,976 fps, 1902 Кbps, 0.179 bit/pixelАудио: 48 kHz, AC3 Dolby Digital, 3/2 (L,C,R,l,r) + LFE ch, 384.00 kbps 1,46 Gb 6 1
8 февраля 2016 09:57 Va-банк / Runner Runner (2013) BDRip 1080p | Чистый звук .torrent   [Информация о файле (нажмите для просмотра)] Перевод: Дублированный[Чистый звук]Кодек: AVCКачество: BDRip 1080pВидео: 1920x800, 23.976 fps, 8745 KbpsАудио 1: AC3, 48 kHz, 6 ch, 384 Kbps[Russian]Аудио 2: DTS, 48 kHz, 6 ch, 1510 Kbps[English]Субтитры: English 6,8 Gb 10 4

Va-банк (2013) смотреть онлайн или скачать фильм через торрент. Трейлеры, правдивые оценки, рецензии, комментарии, похожие фильмы, саундтрек, новости и интересные факты на Fast-torrent

Меня фильм впечатляет, хоть и многим не нравится он. Фильм фокусировался на азарте, было много об этом сочетаний.Действительно фильм соответствует своему жанру, как криминальная драма все шикарно, тоже самое можно говорить и о триллере фильм держит в напряжении. Здесь слабенькие люди в том бизнесе не задерживаются.

Это кино поучительное, и не стоит никогда доверять людям, которых вообще нормально не знаешь, но и так же, не стоит вестись на те предложения, которые для вас будут очень уютными в нынешние времена и казаться вам очень выгодными, не стоит так пренебрегать своими мечтами, их можно достичь своими собственными силами без какой либо помощи, должно лишь быть желание это сделать, и иметь, конечно же некоторые способности, которые помогут в твоем будущем деле. И еще состоятельно тех предложений, человек который вам это предлагает, может множество информации скрыть от ваших ушей, а если хоть каким-нибудь способом вы бы узнали эту информацию, вас бы наверняка после этого ожидали множество проблем, после которых жить будет не так, как бы хотелось и не с той сладостью, которая у вас же была до этого момента!!!

В большинстве, не имеет значения какой бизнес бы не был, он будет привлекать много криминала, и в основном так и есть, что и вы, кто делал этот бизнес может попасть под влияние плохих парней, и вы останетесь не с чем, да и тем более ваш бизнес накроется, так как вы могли бы быть замешаны в тех криминальных делах.

Итог ваш бизнес превратился в нелегальный, здесь все решает взятка. И в итоге еще можно сказать, что этот фильм учит вас того, чтобы перед тем как принимать не обдуманные решения, нужно хорошенько поразмышлять перед тем, как их принимать, чтобы потом не было никакой беды, и думать к чему это все приведет.

Поговорим о ролях!!! Начнем с Тимберлэйка, ему досталась роль молодого, возможно опытного и умного в своих делах парня по имени Ричи, который немного и теряется в данном фильме, но и потом он все же держит себя в руках, так что он сыграл великолепно! Аффлеку досталась роль коварного, самоуверенного, и в той же мере неуязвимого как казалось по началу бизнесмена по имени Айвон Блок! Айвон Блок, его самоуверенность проявляется в том, что он думает будь-то его никто не раскусит, и что ему всегда будет везти и приходить в его руки большое количество прибыли.

Что же о сюжетных линиях, я бы не сказал так, что здесь уж сильно все предсказуемо, но и не все так запутанно, с этими событиями можно все же разобраться, но все же присутствуют здесь такие моменты, которых ты и не мог представить себе, и даже подумать об этом!

В основу фильма положен соблазн, которого здесь много, этот соблазн, это есть азарт каждого человека, который попадает под паутину лжи, чем больше таких людей, тем больше они тратятся, и само собой приносят прибыль весьма влиятельным людям!!!

И еще скажу в жизни повсюду есть преграды, которые стоило бы переходить другой дорогой, чтобы не попасть в нее, и как говориться "вступишь туда, куда не стоило бы не в коем случае ступать, потом просто напросто можешь от туда не выбраться, но в лучшем случае тебе придется много попотеть, и тогда возможно ты сможешь выйти с этого тупика, но только с большим трудом"!!!

Фильм действительно со смыслом и получился интересным, тем не менее благодаря актерам, но и само собой режиссер постарался на славу, его задумка весьма потрясающая и шикарная!

Говоря о фильме в общем и целом, его можно смотреть, и он вам будет интересным, главное чтобы вы хорошенько его поняли и посмотрели не отрываясь от экрана!!!

Мне лично все понравилось, да и еще: нужно понять, для чего создан был этот фильм?... какая из него польза?... и что нужно подчеркнуть для себя?... я для себя много, что подчеркнул и увидел в фильме некую пользу, только поймите меня правильно, я не говорю, что польза это то, что там делалось, а то, от чего нужно оберегаться!!!

Так вот, я советую посмотреть вам это кино! Мне было интересно наблюдать за всеми произошедшими событиями! Гениальная работа! Нужно просто взвешивать правильно все "за" и "против"!!!

Развязка изумительная и превышает своей шикарностью!!!

www.fast-torrent.ru

Va-банк (2013) скачать торрент в хорошем качестве бесплатно. Скачать Va-банк (2013) через торрент фильм в HD качестве

Название: Va-банкОригинальное название: Runner RunnerГод выпуска: 2013Выпущено: СШАЖанр: триллер, криминал, драма, мафия и аферистыПродолжительность: 01:30:43Перевод: Дублированный (лицензия)

Качество видео: HDRip (Лицензия)Формат видео: aviРазмер: 1450 MB

Режиссер: Брэд ФурманВ ролях: Джастин Тимберлэйк, Бен Аффлек, Дэвид Костабайл, Джемма Артертон, Энтони Маки, Боб Гантон и др.

Описание: Ричи – студент Принстонского университета. За учебу он платит деньгами, которые ему удается выиграть в онлайн-покер. До последнего времени этих выигрышей хватало не только на обучение. Но последняя игра оказалась для Ричи фатальной – он проигрывает все. Что у него есть и остается на мели. Но плата за учебу не терпит отлагательств. И тогда парень находит неплохой выход, как ему кажется вначале. Ричи отправляется на Коста-Рику, где проживает и ведет свой бизнес Айвен Блок. Среди тех, кто зарабатывает игрой в онлайн-казино, этот человек считается легендарной личностью. Ричи намерен, ни много ни мало, помериться с ним силами в игре. После знакомства с молодым и перспективным игроком Айвен решает ввести его не только в игру, но и в свою жизнь. Парень очень напоминает ему самого себя той же устремленностью к выигрышу и победе любой ценой. Вскоре эти двое становятся настоящими друзьями. Но через некоторое время Ричи начинает понимать, что его старший товарищ задумал ради крупного выигрыша пойти на нарушение всех собственных правил.

Рецензия от сайта Igrhost.ruИгра, азарт, легкие деньги. В Принстонском университете началось массовое увлечение виртуальным покером. Молодой аспирант, Ричи Ферст, воспользовавшись ситуацией, стал вовлекать в игру студентов и преподавателей, получая за это комиссионные от владельцев сайтов. Но, как известно, выигрывать суждено не всем, кто-то оказывается в проигрыше. Один из таких неудачников пожаловался на предприимчивого молодого человека ректору университета. Судьба Ричи повисла на волоске. Условие жесткое: прекратить работать на казино или покинуть университет. Но если закрыть свой виртуальный бизнес, нечем будет платить за обучение. Круг замкнулся. И тогда наш герой решил играть Ва-банк. Поставил на кон все свои оставшиеся деньги и проиграл. Проанализировав игру, понял, что стал жертвой мошенничества. Найти владельца сайт, обвинить в обмане и вернуть свои деньги стало идеей-фикс для Ричи. Он отправляется в Коста Рику разыскать таинственного Айвана Блока, владельца упомянутого сайта. Но чем закончится для Ричи эта поездка, он даже предположить не мог, как не мог представить, что его игра Ва-банк еще не сыграна.

Если кто-то скажет, что его никогда в жизни ни разу не посещала мысль о крупном выигрыше, я не поверю. В карты ли, в рулетку или в лотерею – не важно, но так привлекательно мгновенно разбогатеть и получить свободу. Ведь наличие денег это не что иное, как определенная степень свободы, напрямую зависящая от количества этих самых денег. Не надо каждое утро просыпаться и сидеть от звонка до звонка на фирме или стоять у станка, при этом зарабатывая денег столько, что тебе едва хватает на самое необходимое. Потому иногда так хочется сыграть по крупному. Если эта мысль посетила вас на секунду и ушла – ничего страшного в этом нет. А если пришла и не отпускает, превращается в навязчивую идею, тогда это катастрофа. Вы попались на крючок иллюзии и так просто уже не сорваться. Фильм «Va-банк» для тех, кто еще не подчинил свою жизнь игре, а только приблизился к роковой черте. Главный герой, Ричи Ферст, сорвал сой jack pot, но знай он, что ему придется пережить и через что пройти, захотел бы он снова всё повторить? Фильм, безусловно, поучительный, с глубоким смыслом, однако несколько перегружен специфическими подробностями игорного бизнеса, и потому зрителям не посвященным может показаться скучноватым. В кино всегда привлекательны человеческие эмоции. В этом фильме линия любви и намечающейся интриги любовного треугольника совсем поверхностна. И детективная часть истории выписана как-то невнятно. Зато очень хочется отметить великолепную игру актеров. Айван Блок, в исполнении Бена Аффлека кажется настолько искренним, что не поверить ему нельзя. Джастин Тимберлейк (Ричи Ферст) тоже замечательно справился с ролью талантливого, но неискушенного доверчивого юноши. Финал фильма оптимистичен. Но это в кино, в жизни все может закончиться гораздо плачевнее. В целом фильм смотрится с интересом, но второй раз пересмотреть вряд ли захочется. Если оценивать по 10-ти бальной системе, то 7 из 10.

igrhost.ru

Скачать фильм Ва-банк (1981) через торрент

gig-torrent.net

5 апреля 2016 09:52 Ва Банк / Vabank (1981) HDTVRip от Scarabey | P1 .torrent   [Информация о файле (нажмите для просмотра)] Перевод: Профессиональный (одноголосый закадровый) [ст. "Ленфильм", перевод: И. Добряков со вставками многоголосого в отдельные фрагменты, вырезанные советским кинопрокатом]Видео: 688x384 (1.79:1), 25 fps, XviD build 73 ~1779 kbps avg, 0.27 bit/pixelАудио: 48 kHz, AC3 Dolby Digital, 2/0 (L,R) ch, ~192.00 kbps avg 1,45 Gb 112 5
5 апреля 2016 09:52 Ва Банк / Vabank (1981) HDTVRip-AVC от New-Team | P .torrent   [Информация о файле (нажмите для просмотра)] Перевод: Профессиональный (многолосый закадровый) Мастер ТэйпСубтитры: русский, английскийКачество: HDTVRip-AVC [HDTV 720p]Формат: MKVВидео: 712x400 (16:9), 25.000 fps, h364 ~ 930 Kbps, 0.131 bit/pixelАудио: 48 KHz / 24 KHz, AAC HE-AAC / LC, 2/0 (L,R) ch, ~64 kbps 745,61 Mb 29 13
5 апреля 2016 09:52 Ва-банк / Vabank (1981) DVDRip от MediaClub | КПК .torrent   [Информация о файле (нажмите для просмотра)] Перевод: Профессиональный многоголосыйКодек: MPEG-4Качество: DVDRipВидео: 499 Кбит/с, 320x240, 25.000 кадр/сЗвук: Русский (AAC, 2 ch, 128 Кбит/с) 473,49 Mb 3 6
5 апреля 2016 09:52 Ва-банк / Vabank (1981) HDTVRip-AVC от New-Team .torrent   [Информация о файле (нажмите для просмотра)] Перевод: Профессиональный (Двухголосый закадровый) (Мастер Тэйп) + Профессиональный (Одноголосый закадровый)Контейнер: MKVВидео: 1024x576 (16:9), 25 fps, h364 ~ 2890 kbps avg, 0.196 bit/pixelАудио: 48 kHz, Dolby Digital AC3 5.1, 448 kbps (Мастер Тэйп)Аудио: 48 kHz, Dolby Digital AC3 2.0, 192 kbps (Советский синхрон, Добряков)Аудио: 48 kHz, Dolby Digital AC3 5.1, 448 kbps ОригиналВидео: Идентификатор : 1 Формат : AVC Формат/Информация : Advanced Video Codec Профиль формата : [email protected] Параметр CABAC формата : Да Параметр ReFrames формата : 6 кадров Идентификатор кодека : V_MPEG4/ISO/AVC Продолжительность : 1 ч. 44 м. Битрейт : 2890 Кбит/сек Ширина : 1024 пикселя Высота : 576 пикселей Соотношение сторон : 16:9 Частота кадров : 25,000 кадров/сек Цветовое пространство : YUV Субдискретизация насыщенности : 4:2:0 Битовая глубина : 8 бит Тип развёртки : Прогрессивная Бит/(Пиксели*Кадры) : 0.196 Размер потока : 2,06 Гбайт (71%) Заголовок : Источник HDTV Библиотека кодирования : x264 core 138 r2356 a1d3d17 Настройки программы : cabac=1 / ref=6 / deblock=1:-3:-2 / analyse=0x3:0x113 / me=umh / subme=10 / psy=1 / psy_rd=1.00:0.05 / mixed_ref=1 / me_range=32 / chroma_me=1 / trellis=2 / 8x8dct=1 / cqm=0 / deadzone=21,11 / fast_pskip=1 / chroma_qp_offset=-3 / threads=3 / lookahead_threads=1 / sliced_threads=0 / nr=0 / decimate=0 / interlaced=0 / bluray_compat=0 / constrained_intra=0 / bframes=8 / b_pyramid=2 / b_adapt=2 / b_bias=0 / direct=3 / weightb=1 / open_gop=0 / weightp=2 / keyint=250 / keyint_min=25 / scenecut=40 / intra_refresh=0 / rc_lookahead=40 / rc=2pass / mbtree=1 / bitrate=2890 / ratetol=1.0 / qcomp=0.60 / qpmin=0 / qpmax=69 / qpstep=4 / cplxblur=20.0 / qblur=0.5 / ip_ratio=1.40 / aq=1:1.00 Язык : Polish Default : Да Forced : НетАудио #1: Идентификатор : 2 Формат : AC-3 Формат/Информация : Audio Coding 3 Расширение режима : CM (complete main) Идентификатор кодека : A_AC3 Продолжительность : 1 ч. 44 м. Вид битрейта : Постоянный Битрейт : 448 Кбит/сек Каналы : 6 каналов Расположение каналов : Front: L C R, Side: L R, LFE Частота : 48,0 КГц Битовая глубина : 16 бит Метод сжатия : С потерями Размер потока : 336 Мбайт (11%) Заголовок : Источник HDTV Dolby Digital 5,1 448kb DVO Язык : Russian Default : Да Forced : НетАудио #2: Идентификатор : 3 Формат : AC-3 Формат/Информация : Audio Coding 3 Расширение режима : CM (complete main) Идентификатор кодека : A_AC3 Продолжительность : 1 ч. 44 м. Вид битрейта : Постоянный Битрейт : 192 Кбит/сек Каналы : 2 канала Расположение каналов : Front: L R Частота : 48,0 КГц Битовая глубина : 16 бит Метод сжатия : С потерями Размер потока : 144 Мбайт (5%) Заголовок : Источник HDTV Dolby Digital 2,0 192 kbps VO Язык : Russian Default : Нет Forced : НетАудио #3: Идентификатор : 4 Формат : AC-3 Формат/Информация : Audio Coding 3 Расширение режима : CM (complete main) Идентификатор кодека : A_AC3 Продолжительность : 1 ч. 44 м. Вид битрейта : Постоянный Битрейт : 448 Кбит/сек Каналы : 6 каналов Расположение каналов : Front: L C R, Side: L R, LFE Частота : 48,0 КГц Битовая глубина : 16 бит Метод сжатия : С потерями Размер потока : 336 Мбайт (11%) Заголовок : Источник HDTV Dolby Digital 5,1 448kb original Язык : Polish Default : Нет Forced : Нет 2,91 Gb 17 12
5 апреля 2016 09:52 Ва-банк / Vabank (1981) HDTVRip от New-Team .torrent   [Информация о файле (нажмите для просмотра)] Перевод: Профессиональный (Двухголосый закадровый) (Мастер Тэйп)Контейнер: AVIВидео: 656x368 (16:9), 25 fps, XviD ~ 859 kbps avg, 0.142 bit/pixelАудио: 48 kHz, MP3 2.0, 128 kbpsВидео: Идентификатор : 0 Формат : MPEG-4 Visual Профиль формата : Advanced [email protected] Параметр BVOP формата : 1 Параметр QPel формата : Нет Параметр GMC формата : Без точки перехода Параметр матрицы формата : Выборочная Идентификатор кодека : XVID Идентификатор кодека/Подсказка : XviD Продолжительность : 1 ч. 44 м. Битрейт : 859 Кбит/сек Ширина : 656 пикселей Высота : 368 пикселей Соотношение сторон : 16:9 Частота кадров : 25,000 кадров/сек Цветовое пространство : YUV Субдискретизация насыщенности : 4:2:0 Битовая глубина : 8 бит Тип развёртки : Прогрессивная Метод сжатия : С потерями Бит/(Пиксели*Кадры) : 0.142 Размер потока : 643 Мбайт (86%) Библиотека кодирования : XviD 73Аудио: Идентификатор : 1 Формат : MPEG Audio Версия формата : Version 1 Профиль формата : Layer 3 Идентификатор кодека : 55 Идентификатор кодека/Подсказка : MP3 Продолжительность : 1 ч. 44 м. Вид битрейта : Постоянный Битрейт : 128 Кбит/сек Каналы : 2 канала Частота : 48,0 КГц Метод сжатия : С потерями Размер потока : 95,8 Мбайт (13%) Выравнивание : Соединение по промежуткам Продолжительность промежутка : 40 мс. (1,00 видеокадр) Время предзагрузки промежутка : 504 мс. Библиотека кодирования : LAME3.99r Настройки программы : -m s -V 4 -q 2 -lowpass 17 -b 128 745,81 Mb 6 4
5 апреля 2016 09:52 Ва-банк / Vabank (1981) HDTVRip от New-Team .torrent   [Информация о файле (нажмите для просмотра)] Перевод: Профессиональный (Двухголосый закадровый) (Мастер Тэйп)Контейнер: AVIВидео: 720x400 (16:9), 25 fps, XviD ~ 1536 kbps avg, 0.213 bit/pixelАудио: 48 kHz, Dolby Digital AC3 5.1, 448 kbpsВидео: Идентификатор : 0 Формат : MPEG-4 Visual Профиль формата : Advanced [email protected] Параметр BVOP формата : 1 Параметр QPel формата : Нет Параметр GMC формата : Без точки перехода Параметр матрицы формата : Выборочная Идентификатор кодека : XVID Идентификатор кодека/Подсказка : XviD Продолжительность : 1 ч. 44 м. Битрейт : 1536 Кбит/сек Ширина : 720 пикселей Высота : 400 пикселей Соотношение сторон : 16:9 Частота кадров : 25,000 кадров/сек Цветовое пространство : YUV Субдискретизация насыщенности : 4:2:0 Битовая глубина : 8 бит Тип развёртки : Прогрессивная Метод сжатия : С потерями Бит/(Пиксели*Кадры) : 0.213 Размер потока : 1,12 Гбайт (77%) Библиотека кодирования : XviD 73Аудио: Идентификатор : 1 Формат : AC-3 Формат/Информация : Audio Coding 3 Расширение режима : CM (complete main) Идентификатор кодека : 2000 Продолжительность : 1 ч. 44 м. Вид битрейта : Постоянный Битрейт : 448 Кбит/сек Каналы : 6 каналов Расположение каналов : Front: L C R, Side: L R, LFE Частота : 48,0 КГц Битовая глубина : 16 бит Метод сжатия : С потерями Размер потока : 335 Мбайт (22%) Выравнивание : Разделение по промежуткам Продолжительность промежутка : 40 мс. (1,00 видеокадр) Время предзагрузки промежутка : 500 мс 1,46 Gb 21 8
5 апреля 2016 09:52 Ва-банк / Vabank (1981) DVDRip .torrent   [Информация о файле (нажмите для просмотра)] Перевод: Старый Советский синхронный перевод от "Ленфильма", дополненный поздними вставками урезанных сцен.Кодек: XviDКачество: DVDRipВидео: 720x576 (1.25:1), 25 fps, XviD MPEG-4 ~1820 kbps avg, 0.18 bit/pixelЗвук: 48 kHz, AC3 Dolby Digital, 2/0 (L,R) ch, ~192.00 kbps avg 1,48 Gb 47 8

Смотрите также