В сердце моря скачать торрент в хорошем


Скачать торрент В сердце моря / In the Heart of the Sea (2015) BDRip 1080p от Ash61 | 3D-Video | halfOU

mrutor.org

В сердце моряIn the Heart of the Sea«Основано на невероятной, реальной истории, по которой был написан "Моби Дик"»Год выпуска: 2015Страна: США, Австралия, Испания, Великобритания, Канада (Warner Bros. Pictures, Village Roadshow Pictures, Roth Films, Imagine Entertainment)Жанр: Боевик, Триллер, Драма, Приключения, Биография, ИсторияПродолжительность: 02:01:43

Перевод: Профессиональный дублированный - Русский (Лицензия) и Украинский (iTunes)

Режиссер: Рон Ховард / Ron Howard

Роли исполняли (дублировали):

Owen Chase - Крис Хемсворт (Денис Беспалый) George Pollard - Бенджамин Уокер (Алексей Рязанцев) Matthew Joy - Киллиан Мёрфи (Илья Бледный) Tom Nickerson - Брендан Глисон (Игорь Старосельцев) Herman Melville - Бен Уишоу (Михаил Тихонов) Mrs. Nickerson - Мишель Фэйрли (Нина Тобилевич) Thomas Nickerson - Том Холланд Caleb Chappel - Пол Андерсон Henry Coffin - Фрэнк Диллэйн Benjamin Lawrence - Джозеф Моул Peggy Chase - Шарлотта Райли (Алена Фалалеева)

Описание: В 1819 году американский корабль «Эссекс» с командой из двух десятков человек на борту отправился из порта в штате Массачусетс на китобойный промысел. Осенью 1820-го успешная на протяжении полутора лет охота была прервана атакой гигантского кашалота на судно, в результате чего морякам пришлось пересесть в шлюпки. В течение трех с лишним месяцев они боролись за выживание посреди океана…

Знаете ли вы, что...

  • Киллиан Мёрфи, Шарлотта Райли и Пол Андерсон вместе снимались в британской криминальной драме «Острые козырьки».
  • Мишель Фэйрли, Джозеф Моул, Дональд Самптер и Джейми Сивес снимались в сериале «Игра престолов» в ролях Кэтлин Старк, Бенджена Старка, мейстера Лювина и Джори Касселя.
  • Это уже шестой фильм, снятый Роном Ховардом на основании реальных событий. До этого Ховард снял «Аполлон 13», «Игры разума», «Нокдаун», «Фрост против Никсона» и «Гонка».
  • В основу фильма положены события, в действительности произошедшие с командой китобойного судна «Эссекс», которое затонуло после нападения на него кашалота в южной части Тихого океана в 1820 году. Этот случай вдохновил Германа Мелвилла на создание романа «Моби Дик».
  • Как сообщил Крис Хемсворт, занятые в съёмках актёры сидели на диете, употребляя не более 500-600 калорий в день, чтобы похудеть и выглядеть правдоподобнее в сценах, где экипаж судна голодает.
  • Некоторые сцены фильма снимались на Канарских островах. Там же свою киноверсию романа Мелвилла снимал и Джон Хьюстон.
  • Выход фильма на экраны изначально планировался на март 2015 года. Премьера была перенесена на декабрь того же года, так как фильм был номинирован на «Оскар».
  • Сам Герман Мелвилл никогда не плавал на «Эссексе». Он был матросом на китобойном судне «Акушнет».
  • Это уже второй фильм, на съёмках которого встретились режиссёр Рон Ховард и актёр Крис Хемсворт. Первым был фильм «Гонка» (2013).
  • В фильме снимались двое актёров из «Кинематографической вселенной «Марвел» — Крис Хемсворт, известный исполнением роли Тора, и Том Холланд, снявшийся в роли Человека-паука.
  • В 2000 году Барри Левинсон приступил к съёмкам кинематографической версии романа. Распространением должна была заниматься компания «Мирамакс».
  • До Бенджамина Уокера на роль капитана рассматривались кандидатуры Бенедикта Камбербэтча, Тома Хиддлстона и Генри Кавилла.
  • Это уже второй фильм, в котором Брендан Глисон и Шарлотта Райли снялись вместе. Первым был фантастический боевик «Грань будущего» (2014).
  • Экипаж «Эссекса», пострадавшего при нападении кашалота, пытается достичь одного из островов архипелага Хуан-Фернандес. Свыше ста лет до описываемых событий этот же самый остров служил прибежищем некоему Александру Селькирку из Шотландии, который провёл там несколько лет. Его историю Даниель Дефо описал в романе «Робинзон Крузо».
  • Премьера: 2 декабря 2015 (3 декабря 2015)Бюджет: $100 000 000Кассовые сборы: $93 720 758

    Качество: BDRip (by Ash61)Контейнер: MKVФормат 3D: Half OverUnder / Вертикальная анаморфная стереопараПорядок ракурсов: левый ракурс первыйВидео: AVC / 23,976 fps / 1920х1080p / 17.7 Mbps

    Аудио:#1 - Русский / AC3 / 48 KHz / 5.1 ch / 448 Kbps (Дубляж - BD Eur)#2 - Украинский / AC3 / 48 KHz / 2 ch / 192 Kbps (Дубляж - iTunes)#3 - Английский / AC3 / 48 KHz / 5.1 ch / 640 Kbps (Original)

    Субтитры (SRT):Вшитые (softsub):#1 - Русские Форсированные (iTunes расширенные) (включены по умолчанию)#2 - Русские Полные (iTunes)#3 - Украинские Форсированные (iTunes)#4 - English Full (BD 3D)#5 - English SDH (BD 3D)

    Внешние (UTF-8):#1 - Русские Форсированные (iTunes расширенные) (включены по умолчанию)#2 - Украинские Форсированные (iTunes)

    MediaInfo

    General Unique ID : 183610817312135925380068249980035502838 (0x8A222838D9FEA735A759D6058F8192F6) Complete name : E:InTheHeartOfTheSea(2015)3D-halfOU(Ash61)InTheHeartOfTheSea(2015)3D-halfOU(Ash61).mkv Format : Matroska Format version : Version 2 File size : 16.4 GiB Duration : 2h 1mn Overall bit rate : 19.3 Mbps Movie name : В сердце моря / In the Heart of the Sea (2015) в 3Д Encoded date : UTC 2016-03-31 15:54:35 Writing application : mkvmerge v5.8.0 ('No Sleep / Pillow') built on Sep 2 2012 15:37:04 Writing library : libebml v1.2.3 + libmatroska v1.3.0

    Video ID : 1 Format : AVC Format/Info : Advanced Video Codec Format profile : [email protected] Format settings, CABAC : Yes Format settings, ReFrames : 4 frames Codec ID : V_MPEG4/ISO/AVC Duration : 2h 1mn Bit rate : 17.7 Mbps Width : 1 920 pixels Height : 1 080 pixels Display aspect ratio : 16:9 Frame rate mode : Constant Frame rate : 23.976 fps Color space : YUV Chroma subsampling : 4:2:0 Bit depth : 8 bits Scan type : Progressive Bits/(Pixel*Frame) : 0.355 Stream size : 15.0 GiB (91%) Title : BDRip by Ash61 Writing library : x264 core 146 r2538 121396c Encoding settings : cabac=1 / ref=4 / deblock=1:-3:-3 / analyse=0x3:0x113 / me=umh / subme=10 / psy=1 / psy_rd=1.00:0.00 / mixed_ref=1 / me_range=32 / chroma_me=1 / trellis=2 / 8x8dct=1 / cqm=0 / deadzone=21,11 / fast_pskip=1 / chroma_qp_offset=-2 / threads=12 / lookahead_threads=3 / sliced_threads=0 / nr=0 / decimate=1 / interlaced=0 / bluray_compat=0 / constrained_intra=0 / bframes=10 / b_pyramid=2 / b_adapt=2 / b_bias=0 / direct=3 / weightb=1 / open_gop=0 / weightp=2 / keyint=250 / keyint_min=23 / scenecut=40 / intra_refresh=0 / rc_lookahead=60 / rc=crf / mbtree=1 / crf=16.0 / qcomp=0.70 / qpmin=0 / qpmax=69 / qpstep=4 / vbv_maxrate=40000 / vbv_bufsize=30000 / crf_max=0.0 / nal_hrd=none / filler=0 / frame-packing=4 / ip_ratio=1.40 / aq=1:0.70 Language : English Default : Yes Forced : No

    Audio #1 ID : 2 Format : AC-3 Format/Info : Audio Coding 3 Mode extension : CM (complete main) Format settings, Endianness : Big Codec ID : A_AC3 Duration : 2h 1mn Bit rate mode : Constant Bit rate : 448 Kbps Channel(s) : 6 channels Channel positions : Front: L C R, Side: L R, LFE Sampling rate : 48.0 KHz Bit depth : 16 bits Compression mode : Lossy Stream size : 390 MiB (2%) Title : Дубляж - BD Eur Language : Russian Default : Yes Forced : No

    Audio #2 ID : 3 Format : AC-3 Format/Info : Audio Coding 3 Mode extension : CM (complete main) Format settings, Endianness : Big Codec ID : A_AC3 Duration : 2h 1mn Bit rate mode : Constant Bit rate : 192 Kbps Channel(s) : 2 channels Channel positions : Front: L R Sampling rate : 48.0 KHz Bit depth : 16 bits Compression mode : Lossy Stream size : 167 MiB (1%) Title : Дубляж - iTunes Language : Ukrainian Default : No Forced : No

    Audio #3 ID : 4 Format : AC-3 Format/Info : Audio Coding 3 Mode extension : CM (complete main) Format settings, Endianness : Big Codec ID : A_AC3 Duration : 2h 1mn Bit rate mode : Constant Bit rate : 640 Kbps Channel(s) : 6 channels Channel positions : Front: L C R, Side: L R, LFE Sampling rate : 48.0 KHz Bit depth : 16 bits Compression mode : Lossy Stream size : 557 MiB (3%) Title : Original Language : English Default : No Forced : No

    Text #1 ID : 5 Format : UTF-8 Codec ID : S_TEXT/UTF8 Codec ID/Info : UTF-8 Plain Text Title : Форсированные (iTunes, edited) Language : Russian Default : Yes Forced : No

    Text #2 ID : 6 Format : UTF-8 Codec ID : S_TEXT/UTF8 Codec ID/Info : UTF-8 Plain Text Title : Полные (iTunes) Language : Russian Default : No Forced : No

    Text #3 ID : 7 Format : UTF-8 Codec ID : S_TEXT/UTF8 Codec ID/Info : UTF-8 Plain Text Title : Форсированные (iTunes) Language : Ukrainian Default : No Forced : No

    Text #4 ID : 8 Format : UTF-8 Codec ID : S_TEXT/UTF8 Codec ID/Info : UTF-8 Plain Text Title : Full (BD 3D) Language : English Default : No Forced : No

    Text #5 ID : 9 Format : UTF-8 Codec ID : S_TEXT/UTF8 Codec ID/Info : UTF-8 Plain Text Title : SDH (BD 3D) Language : English Default : No Forced : No

    Menu 00:00:00.000 : :1 00:12:07.518 : :2 00:21:19.737 : :3 00:33:31.968 : :4 00:42:37.013 : :5 00:51:32.715 : :6 01:06:45.835 : :7 01:13:14.015 : :8 01:23:23.290 : :9 01:33:47.872 : :10 01:43:22.029 : :11 01:53:00.774 : :12

    О форматах и методах просмотра 3D

    Скачать фильм В сердце моря (2015) через торрент

    gig-torrent.net

    18 августа 2016 10:10 В сердце моря / In the Heart of the Sea (2015) HDRip от Kaztorrents | КПК | Лицензия .torrent   [Информация о файле (нажмите для просмотра)] Перевод: Профессиональный (полное дублирование) [Лицензия]Качество: HDRip (Исходник: BDRip 1080p)Формат: MP4 549,96 Mb 13 3
    18 августа 2016 10:10 В сердце моря / In the Heart of the Sea (2015) DVD5 | D .torrent   [Информация о файле (нажмите для просмотра)] Перевод: полное дублированиеКодек: MPEG2Качество: DVD5 (сжатый)Видео: PAL 16:9 ([email protected]) VBR 4766 Kbps, 25.000 fpsАудио: Dolby AC3, 6 ch, 48.0 KHz, 384 Kbps(русский, английский)Субтитры: русские, английские, чешские, эстонские, латышские, литовские, португальскиеПроцесс изготовления дискаИсходник: В сердце моря / In the Heart of the Sea (2015) DVD9 от New-Team | ЛицензияВидео: Идентификатор : 224 (0xE0) Формат : MPEG Video Версия формата : Version 2 Профиль формата : [email protected] Параметр BVOP формата : Да Параметр матрицы формата : Выборочная Параметр GOP формата : Variable Продолжительность : 25 м. Вид битрейта : Переменный Битрейт : 4766 Кбит/сек Максимальный битрейт : 8493 Кбит/сек Ширина : 720 пикселей Высота : 576 пикселей Соотношение сторон : 16:9 Частота кадров : 25,000 кадров/сек Стандарт вещания : PAL Цветовое пространство : YUV Субдискретизация насыщенности : 4:2:0 Битовая глубина : 8 бит Тип развёртки : Прогрессивная Порядок развёртки : Верхнее поле первое Метод сжатия : С потерями Бит/(Пиксели*Кадры) : 0.460 Временной код первого кадра : 00:27:03:11 Оригинал временного кода : Group of pictures header GOP, открыто/закрыто : Открыто GOP, открыто/закрыто на первом кадре : Закрыто Размер потока : 864 Мбайт (84%)Аудио #1: Идентификатор : 189 (0xBD)-128 (0x80) Формат : AC-3 Формат/Информация : Audio Coding 3 Расширение режима : CM (complete main) Параметр Endianness формата : Big Режим смешивания : DVD-Video Продолжительность : 25 м. Вид битрейта : Постоянный Битрейт : 384 Кбит/сек Каналы : 6 каналов Расположение каналов : Front: L C R, Side: L R, LFE Частота : 48,0 КГц Частота кадров : 31,250 кадров/сек (1536 spf) Метод сжатия : С потерями Задержка видео : -368 мс. Размер потока : 69,6 Мбайт (7%)Аудио #2: Идентификатор : 189 (0xBD)-130 (0x82) Формат : AC-3 Формат/Информация : Audio Coding 3 Расширение режима : CM (complete main) Параметр Endianness формата : Big Режим смешивания : DVD-Video Продолжительность : 25 м. Вид битрейта : Постоянный Битрейт : 384 Кбит/сек Каналы : 6 каналов Расположение каналов : Front: L C R, Side: L R, LFE Частота : 48,0 КГц Частота кадров : 31,250 кадров/сек (1536 spf) Метод сжатия : С потерями Задержка видео : -368 мс. Размер потока : 69,6 Мбайт (7%) 4,37 Gb 5 2
    18 августа 2016 10:10 В сердце моря / In the Heart of the Sea (2015) DVD9 от New-Team | Лицензия .torrent   [Информация о файле (нажмите для просмотра)] Перевод: Дублированный [Лицензия]Кодек: MPEG2Качество: DVD9 R5Видео: PAL 16:9 (720x576(0.552)) MPEG Video, 25,000 кадр/сек, 5722 Кбит/секЗвук: Аудио #1: English (Dolby AC3, 6 ch) 384 Кбит/сек, 48,0 КГцАудио #2: Czech(Ceske) (Dolby AC3, 6 ch) 384 Кбит/сек, 48,0 КГцАудио #3: Russian (Dolby AC3, 6 ch) 384 Кбит/сек, 48,0 КГцАудио #4: English (Dolby AC3, 2 ch) 192 Кбит/сек, 48,0 КГцСубтитры: русские, английские, чешские, эстонские, латышские, литовские, португальскиеВидео: Идентификатор : 224 (0xE0) Формат : MPEG Video Версия формата : Version 2 Профиль формата : [email protected] Параметр BVOP формата : Да Параметр матрицы формата : Выборочная Параметр GOP формата : Variable Продолжительность : 20 м. Вид битрейта : Переменный Битрейт : 5722 Кбит/сек Максимальный битрейт : 9800 Кбит/сек Ширина : 720 пикселей Высота : 576 пикселей Соотношение сторон : 16:9 Частота кадров : 25,000 кадров/сек Стандарт вещания : PAL Цветовое пространство : YUV Субдискретизация насыщенности : 4:2:0 Битовая глубина : 8 бит Тип развёртки : Прогрессивная Порядок развёртки : Верхнее поле первое Метод сжатия : С потерями Бит/(Пиксели*Кадры) : 0.552 Временной код первого кадра : 01:20:23:06 Оригинал временного кода : Group of pictures header Размер потока : 835 Мбайт (82%)Аудио #1: Идентификатор : 189 (0xBD)-128 (0x80) Формат : AC-3 Формат/Информация : Audio Coding 3 Расширение режима : CM (complete main) Параметр Endianness формата : Big Режим смешивания : DVD-Video Продолжительность : 20 м. Вид битрейта : Постоянный Битрейт : 384 Кбит/сек Каналы : 6 каналов Расположение каналов : Front: L C R, Side: L R, LFE Частота : 48,0 КГц Частота кадров : 31,250 кадров/сек (1536 spf) Метод сжатия : С потерями Задержка видео : -320 мс. Размер потока : 56,1 Мбайт (5%)Аудио #2: Идентификатор : 189 (0xBD)-129 (0x81) Формат : AC-3 Формат/Информация : Audio Coding 3 Расширение режима : CM (complete main) Параметр Endianness формата : Big Режим смешивания : DVD-Video Продолжительность : 20 м. Вид битрейта : Постоянный Битрейт : 384 Кбит/сек Каналы : 6 каналов Расположение каналов : Front: L C R, Side: L R, LFE Частота : 48,0 КГц Частота кадров : 31,250 кадров/сек (1536 spf) Метод сжатия : С потерями Задержка видео : -320 мс. Размер потока : 56,1 Мбайт (5%)Аудио #3: Идентификатор : 189 (0xBD)-130 (0x82) Формат : AC-3 Формат/Информация : Audio Coding 3 Расширение режима : CM (complete main) Параметр Endianness формата : Big Режим смешивания : DVD-Video Продолжительность : 20 м. Вид битрейта : Постоянный Битрейт : 384 Кбит/сек Каналы : 6 каналов Расположение каналов : Front: L C R, Side: L R, LFE Частота : 48,0 КГц Частота кадров : 31,250 кадров/сек (1536 spf) Метод сжатия : С потерями Задержка видео : -320 мс. Размер потока : 56,1 Мбайт (5%) 5,91 Gb 9 8
    18 августа 2016 10:10 В сердце моря / In the Heart of the Sea (2015) BDRip-AVC от HQCLUB | D | Лицензия .torrent   [Информация о файле (нажмите для просмотра)] Перевод: Профессиональный (полное дублирование)BD EURСубтитры: русские (полные: BD, iTunes; форсированные), украинские (форсированные), английские (полные, SDH, SDH цветные: х2)Формат: MKVКачество: BDRip-AVC (источник / Blu-ray Remux [IN_THE_HEART_OF_THE_SEA_REMUX_HDCLUB] / 1080p)Видео: 1152x648 (16:9), 23.976 fps, MPEG-4 AVC, ~3574 kbps avg, 0.200 bit/pixelАудио #1: 48 kHz, AC3 Dolby Digital, 3/2 (L,C,R,l,r) + LFE ch, ~448 kbps avg (DUB)Аудио #2: 48 kHz, AC3 Dolby Digital, 3/2 (L,C,R,l,r) + LFE ch, ~448 kbps avg (ENG)Аудио #3: 48 kHz, AC3 Dolby Digital, 3/2 (L,C,R,l,r) + LFE ch, ~448 kbps avg (AVO.ZHIVOV)(отдельно)Аудио #4: 48 kHz, AC3 Dolby Digital, 3/2 (L,C,R,l,r) + LFE ch, ~448 kbps avg (VO.ESAREV)(отдельно)Аудио #5: 48 kHz, AC3 Dolby Digital, 2/0 (L,R) ch, ~192 kbps avg (UKR.ITUNES)(отдельно)Видео: Идентификатор : 1 Формат : AVC Формат/Информация : Advanced Video Codec Профиль формата : [email protected] Параметр CABAC формата : Да Параметр ReFrames формата : 10 кадров Идентификатор кодека : V_MPEG4/ISO/AVC Продолжительность : 2 ч. 1 м. Битрейт : 3574 Кбит/сек Ширина : 1152 пикселя Высота : 648 пикселей Соотношение сторон : 16:9 Режим частоты кадров : Постоянный Частота кадров : 23,976 (24000/1001) кадра/сек Цветовое пространство : YUV Субдискретизация насыщенности : 4:2:0 Битовая глубина : 8 бит Тип развёртки : Прогрессивная Бит/(Пиксели*Кадры) : 0.200 Размер потока : 3,04 Гбайт (78%) Заголовок : В сердце моря / In the Heart of the Sea (2015) BDRip-AVC by Elheym [HQCLUB] Библиотека кодирования : x264 core 148 r2692+54 69a6f49 t_mod_Custom [[email protected] X86_64] Настройки программы : cabac=1 / ref=10 / deblock=1:-3:-2 / analyse=0x3:0x113 / me=umh / subme=10 / psy=1 / fade_compensate=0.00 / psy_rd=1.10:0.00 / mixed_ref=1 / me_range=32 / chroma_me=1 / trellis=2 / 8x8dct=1 / cqm=0 / deadzone=21,11 / fast_pskip=0 / chroma_qp_offset=-2 / threads=6 / lookahead_threads=2 / sliced_threads=0 / nr=0 / decimate=0 / interlaced=0 / bluray_compat=0 / constrained_intra=0 / fgo=0 / bframes=12 / b_pyramid=2 / b_adapt=2 / b_bias=0 / direct=3 / weightb=1 / open_gop=0 / weightp=2 / keyint=230 / keyint_min=23 / scenecut=40 / intra_refresh=0 / rc_lookahead=80 / rc=crf / mbtree=0 / crf=22.0000 / qcomp=0.70 / qpmin=0:0:0 / qpmax=69:69:69 / qpstep=4 / vbv_maxrate=20000 / vbv_bufsize=25000 / crf_max=0.0 / nal_hrd=none / filler=0 / ip_ratio=1.40 / pb_ratio=1.30 / aq=3:1.00 / aq-sensitivity=10.00 / aq-factor=1.00:1.00:1.00 / aq2=0 / aq3=2:[0.70:0.70]:[0.70:0.70]:[0.70:0.70]:[0.70:0.70] / aq3-sensitivity=10.00 / aq3-factor=[1.00:1.00]:[1.00:1.00]:[1.00:1.00] / aq3-boundary=192:64:24 Язык : English Default : Да Forced : НетАудио #1: Идентификатор : 2 Формат : AC-3 Формат/Информация : Audio Coding 3 Расширение режима : CM (complete main) Параметр Endianness формата : Big Идентификатор кодека : A_AC3 Продолжительность : 2 ч. 1 м. Вид битрейта : Постоянный Битрейт : 448 Кбит/сек Каналы : 6 каналов Расположение каналов : Front: L C R, Side: L R, LFE Частота : 48,0 КГц Частота кадров : 31,250 кадров/сек (1536 spf) Метод сжатия : С потерями Размер потока : 390 Мбайт (10%) Заголовок : АС3 5.1 @ 448 kbps - Dub, BD EUR Язык : Russian Default : Нет Forced : НетАудио #2: Идентификатор : 3 Формат : AC-3 Формат/Информация : Audio Coding 3 Расширение режима : CM (complete main) Параметр Endianness формата : Big Идентификатор кодека : A_AC3 Продолжительность : 2 ч. 1 м. Вид битрейта : Постоянный Битрейт : 448 Кбит/сек Каналы : 6 каналов Расположение каналов : Front: L C R, Side: L R, LFE Частота : 48,0 КГц Частота кадров : 31,250 кадров/сек (1536 spf) Метод сжатия : С потерями Размер потока : 390 Мбайт (10%) Заголовок : АС3 5.1 @ 448 kbps - Original Язык : English Default : Нет Forced : Нет 3,88 Gb 41 3
    18 августа 2016 10:10 В сердце моря / In the Heart of the Sea (2015) DVD5 .torrent   [Информация о файле (нажмите для просмотра)] Перевод: ДублированныйСубтитры: Английские, русскиеВидео: MPEG-2, [email protected] (PAL 16:9), ~4100 Кбит/секАудио 1: AC3 5.1, 384 Кбит/сек [Английский - оригинал]Аудио 2: AC3 5.1, 448 Кбит/сек [Русский - дублированный]Видео: Идентификатор : 224 (0xE0) Формат : MPEG Video Версия формата : Version 2 Профиль формата : [email protected] Параметр BVOP формата : Да Параметр матрицы формата : Выборочная Параметр GOP формата : Variable Продолжительность : 28 м. Вид битрейта : Переменный Битрейт : 4107 Кбит/сек Максимальный битрейт : 8195 Кбит/сек Ширина : 720 пикселей Высота : 576 пикселей Соотношение сторон : 16:9 Частота кадров : 25,000 кадров/сек Стандарт вещания : PAL Цветовое пространство : YUV Субдискретизация насыщенности : 4:2:0 Битовая глубина : 8 бит Тип развёртки : Прогрессивная Порядок развёртки : Верхнее поле первое Метод сжатия : С потерями Бит/(Пиксели*Кадры) : 0.396 Временной код первого кадра : 00:00:00:00 Оригинал временного кода : Group of pictures header GOP, открыто/закрыто : Открыто GOP, открыто/закрыто на первом кадре : Закрыто Размер потока : 835 Мбайт (82%)Аудио #1: Идентификатор : 189 (0xBD)-128 (0x80) Формат : AC-3 Формат/Информация : Audio Coding 3 Расширение режима : CM (complete main) Параметр Endianness формата : Big Режим смешивания : DVD-Video Продолжительность : 28 м. Вид битрейта : Постоянный Битрейт : 384 Кбит/сек Каналы : 6 каналов Расположение каналов : Front: L C R, Side: L R, LFE Частота : 48,0 КГц Частота кадров : 31,250 кадров/сек (1536 spf) Метод сжатия : С потерями Размер потока : 78,0 Мбайт (8%)Аудио #2: Идентификатор : 189 (0xBD)-129 (0x81) Формат : AC-3 Формат/Информация : Audio Coding 3 Расширение режима : CM (complete main) Параметр Endianness формата : Big Режим смешивания : DVD-Video Продолжительность : 28 м. Вид битрейта : Постоянный Битрейт : 448 Кбит/сек Каналы : 6 каналов Расположение каналов : Front: L C R, Side: L R, LFE Частота : 48,0 КГц Частота кадров : 31,250 кадров/сек (1536 spf) Метод сжатия : С потерями Размер потока : 91,0 Мбайт (9%) 4,36 Gb 3 1
    18 августа 2016 10:10 В сердце моря / In the Heart of the Sea (2015) DVD9 | D, А .torrent   [Информация о файле (нажмите для просмотра)] Перевод: Профессиональный (полное дублирование) + Авторский (одноголосый, закадровый) [Ю. Живов, Д. Есарев]Субтитры: Английские, русскиеВидео: MPEG-2, [email protected] (PAL 16:9), ~5800 Кбит/секАудио 1: AC3 5.1, 384 Кбит/сек [Английский - оригинал]Аудио 2: AC3 5.1, 448 Кбит/сек[Русский - дублированный]Аудио 3: AC3 5.1, 448 Кбит/сек [Русский - одноголосый, закадровый (Ю. Живов)]Аудио 4: AC3 5.1, 448 Кбит/сек [Русский - одноголосый, закадровый (Д. Есарев]Видео: Идентификатор : 224 (0xE0) Формат : MPEG Video Версия формата : Version 2 Профиль формата : [email protected] Параметр BVOP формата : Да Параметр матрицы формата : Выборочная Параметр GOP формата : Variable Продолжительность : 18 м. Вид битрейта : Переменный Битрейт : 5858 Кбит/сек Максимальный битрейт : 9800 Кбит/сек Ширина : 720 пикселей Высота : 576 пикселей Соотношение сторон : 16:9 Частота кадров : 25,000 кадров/сек Стандарт вещания : PAL Цветовое пространство : YUV Субдискретизация насыщенности : 4:2:0 Битовая глубина : 8 бит Тип развёртки : Прогрессивная Порядок развёртки : Верхнее поле первое Метод сжатия : С потерями Бит/(Пиксели*Кадры) : 0.565 Временной код первого кадра : 01:37:57:05 Оригинал временного кода : Group of pictures header Размер потока : 775 Мбайт (76%)Аудио #1: Идентификатор : 189 (0xBD)-128 (0x80) Формат : AC-3 Формат/Информация : Audio Coding 3 Расширение режима : CM (complete main) Параметр Endianness формата : Big Режим смешивания : DVD-Video Продолжительность : 18 м. Вид битрейта : Постоянный Битрейт : 384 Кбит/сек Каналы : 6 каналов Расположение каналов : Front: L C R, Side: L R, LFE Частота : 48,0 КГц Частота кадров : 31,250 кадров/сек (1536 spf) Метод сжатия : С потерями Задержка видео : -592 мс. Размер потока : 50,8 Мбайт (5%)Аудио #2: Идентификатор : 189 (0xBD)-129 (0x81) Формат : AC-3 Формат/Информация : Audio Coding 3 Расширение режима : CM (complete main) Параметр Endianness формата : Big Режим смешивания : DVD-Video Продолжительность : 18 м. Вид битрейта : Постоянный Битрейт : 448 Кбит/сек Каналы : 6 каналов Расположение каналов : Front: L C R, Side: L R, LFE Частота : 48,0 КГц Частота кадров : 31,250 кадров/сек (1536 spf) Метод сжатия : С потерями Задержка видео : -560 мс. Размер потока : 59,3 Мбайт (6%)Аудио #3: Идентификатор : 189 (0xBD)-130 (0x82) Формат : AC-3 Формат/Информация : Audio Coding 3 Расширение режима : CM (complete main) Параметр Endianness формата : Big Режим смешивания : DVD-Video Продолжительность : 18 м. Вид битрейта : Постоянный Битрейт : 448 Кбит/сек Каналы : 6 каналов Расположение каналов : Front: L C R, Side: L R, LFE Частота : 48,0 КГц Частота кадров : 31,250 кадров/сек (1536 spf) Метод сжатия : С потерями Задержка видео : -560 мс. Размер потока : 59,3 Мбайт (6%)Аудио #4: Идентификатор : 189 (0xBD)-131 (0x83) Формат : AC-3 Формат/Информация : Audio Coding 3 Расширение режима : CM (complete main) Параметр Endianness формата : Big Режим смешивания : DVD-Video Продолжительность : 18 м. Вид битрейта : Постоянный Битрейт : 448 Кбит/сек Каналы : 6 каналов Расположение каналов : Front: L C R, Side: L R, LFE Частота : 48,0 КГц Частота кадров : 31,250 кадров/сек (1536 spf) Метод сжатия : С потерями Задержка видео : -560 мс. Размер потока : 59,3 Мбайт (6%) 6,37 Gb 3 3
    18 августа 2016 10:10 В сердце моря / In the Heart of the Sea (2015) BDRip 1080p от NNNB | D | Лицензия .torrent   [Информация о файле (нажмите для просмотра)] Перевод: ДублированныйКачество: BDRip 1080p (исходник Blu-ray Disc)Формат: MKVВидео: 1920x1080, 12494 Кбит/сек, 23,976 кадр/сек, AVC, x264, [email protected], 16:9, 0.251 Бит/[Пиксели*Кадры]Аудио 1: AC-3, 448 Кбит/сек, 6 канала(ов), 48,0 КГц - Дублированный / РусскийАудио 2: AC-3, 640 Кбит/сек, 6 канала(ов), 48,0 КГц - Оригинал / АнглийскийСубтитры: Русские | Полные, Английские | Полные 11,54 Gb 68 6
    18 августа 2016 10:10 В сердце моря / In the Heart of the Sea (2015) BDRip от HQCLUB | D | Лицензия .torrent   [Информация о файле (нажмите для просмотра)] Перевод: Профессиональный (полное дублирование)BD EURСубтитры: русские (полные: BD, iTunes; форсированные), украинские (форсированные), английские (полные, SDH, SDH цветные: х2)Формат: AVIКачество: BDRip (источник / Blu-ray Remux [IN_THE_HEART_OF_THE_SEA_REMUX_HDCLUB] / 1080p)Видео: 704x400 (1.76:1), 23.976 fps, XviD build 65 ~2112 kbps avg, 0.31 bit/pixelАудио #1: 48 kHz, AC3 Dolby Digital, 3/2 (L,C,R,l,r) + LFE ch, ~448 kbps avg (DUB)Аудио #2: 48 kHz, AC3 Dolby Digital, 3/2 (L,C,R,l,r) + LFE ch, ~448 kbps avg (AVO.ZHIVOV)(отдельно)Аудио #3: 48 kHz, AC3 Dolby Digital, 3/2 (L,C,R,l,r) + LFE ch, ~448 kbps avg (VO.ESAREV)(отдельно)Аудио #4: 48 kHz, AC3 Dolby Digital, 2/0 (L,R) ch, ~192 kbps avg (UKR.ITUNES)(отдельно)Аудио #5: 48 kHz, AC3 Dolby Digital, 3/2 (L,C,R,l,r) + LFE ch, ~448 kbps avg (ENG)(отдельно) 2,18 Gb 41 7
    18 августа 2016 10:10 В Сердце Моря / In the Heart of the Sea (2015) BDRip 720p | Дополнительные материалы .torrent   [Информация о файле (нажмите для просмотра)] Качество: BDRip 720pВидео: 1280x720 (16:9), 23,976 fps, h364, ~4000 kbps avg, ~0.181 bit/pixelАудио: 48 kHz, AC3 Dolby Digital, 2/0 (L,R) ch, ~192.00 kbps avgПеревод: СубтитрыСубтитры: Русские субтитры: есть 3,73 Gb 6 5
    18 августа 2016 10:10 В сердце моря / In the heart of the sea (2015) HDRip от Scarabey | Лицензия .torrent   [Информация о файле (нажмите для просмотра)] Перевод: Профессиональный (полное дублирование) [Лицензия]Субтитры: русские (форсированные) -отдельноВидео: 688x384 (1.79:1), 23.976 fps, XviD build 73 ~1505 kbps avg, 0.24 bit/pixelАудио: 48 kHz, AC3 Dolby Digital, 2/0 (L,R) ch, ~192.00 kbps avg 1,45 Gb 1199 9
    18 августа 2016 10:10 В сердце моря / In the heart of the sea (2015) BDRip 720p от Scarabey | Лицензия .torrent   [Информация о файле (нажмите для просмотра)] Перевод: Профессиональный (полное дублирование) [Лицензия]]Субтитры: русские (форсированные) - на непереведенные моменты и текст + русские (полные) + английскиеВидео: 1280х720, 23.976 fps, AVC ~5778 kbps avgАудио: 48 kHz, AC3 Dolby Digital, 3/2 (L,C,R,l,r) + LFE ch, ~448.00 kbps avg - дубляжАудио: 48 kHz, AC3 Dolby Digital, 3/2 (L,C,R,l,r) + LFE ch, ~640.00 kbps avg - оригинал 6,08 Gb 110 5
    18 августа 2016 10:09 В сердце моря / In the heart of the sea (2015) HDRip от Scarabey | Лицензия .torrent   [Информация о файле (нажмите для просмотра)] Перевод: Профессиональный (полное дублирование) [Лицензия]Субтитры: русские (форсированные) -отдельноВидео: 592x336 (1.76:1), 23.976 fps, XviD build 73 ~721 kbps avg, 0.15 bit/pixelАудио: 48 kHz, MPEG Layer 3, 2 ch, ~128.00 kbps avg 747,8 Mb 16 8
    18 августа 2016 10:09 В сердце моря / In the heart of the sea (2015) HDRip от Scarabey | Лицензия .torrent   [Информация о файле (нажмите для просмотра)] Перевод: Профессиональный (полное дублирование) [Лицензия]Субтитры: русские, форсированныеВидео: 688x384 (1.79:1), 23.976 fps, XviD build 73 ~2118 kbps avg, 0.33 bit/pixelАудио: 48 kHz, AC3 Dolby Digital, 3/2 (L,C,R,l,r) + LFE ch, ~448.00 kbps avg 2,18 Gb 135 5
    18 августа 2016 10:09 В сердце моря / In the Heart of the Sea (2015) BDRip 1080p от Ash61 | 3D-Video | halfOU | Лицензия .torrent   [Информация о файле (нажмите для просмотра)] Перевод: Профессиональный дублированный - Русский (Лицензия) и Украинский (iTunes)Качество: BDRip (byAsh61)Контейнер: MKVВидео: AVC / 23,976 fps /1920х1080p / 17.7 MbpsАудио: #1 - Русский / AC3 / 48 KHz / 5.1 ch / 448 Kbps (Дубляж - BD Eur)Субтитры: (SRT) 16,43 Gb 24 3
    18 августа 2016 10:09 В сердце моря / In the Heart of the Sea (2015) BDRip 1080p | 3D-Video | HSBS | Лицензия .torrent   [Информация о файле (нажмите для просмотра)] Перевод: Профессиональный (дублированный) Blu-ray EURФормат: MatroskaВидео: 1920x1080 at 23.976 fps, [email protected], ~15770 kbps avgАудио#1: Russian: 48 kHz, AC3, 3/2 (L,C,R,l,r) + LFE ch, ~448.00 kbps avg |Дубляж,Аудио#3: English: 48 kHz, AC3-EX, 3/2 (L,C,R,l,r) + LFE ch, ~640.00 kbps avgСубтитры: Russian, Ukrainian, EnglishВидео: Идентификатор : 1 Формат : AVC Формат/Информация : Advanced Video Codec Профиль формата : [email protected] Параметр CABAC формата : Да Параметр ReFrames формата : 4 кадра Идентификатор кодека : V_MPEG4/ISO/AVC Продолжительность : 2 ч. 1 м. Ширина : 1920 пикселей Высота : 1080 пикселей Соотношение сторон : 16:9 Режим частоты кадров : Постоянный Частота кадров : 23,976 кадра/сек Цветовое пространство : YUV Субдискретизация насыщенности : 4:2:0 Битовая глубина : 8 бит Тип развёртки : Прогрессивная Заголовок : In the Heart of the Sea [3D] (2015) - Release for HDCLUB Библиотека кодирования : x264 core 148 r2665+53 6629127 t_mod_Custom [[email protected] X86_64] Настройки программы : cabac=1 / ref=4 / deblock=1:-3:-3 / analyse=0x3:0x113 / me=umh / subme=10 / psy=1 / fade_compensate=0.00 / psy_rd=1.04:0.00 / mixed_ref=1 / me_range=32 / chroma_me=1 / trellis=2 / 8x8dct=1 / cqm=0 / deadzone=21,11 / fast_pskip=0 / chroma_qp_offset=-2 / threads=24 / lookahead_threads=4 / sliced_threads=0 / nr=0 / decimate=0 / interlaced=0 / bluray_compat=0 / constrained_intra=0 / fgo=0 / bframes=8 / b_pyramid=2 / b_adapt=2 / b_bias=0 / direct=3 / weightb=1 / open_gop=0 / weightp=2 / keyint=240 / keyint_min=23 / scenecut=40 / intra_refresh=0 / rc_lookahead=60 / rc=crf / mbtree=0 / crf=20.1000 / qcomp=0.75 / qpmin=0:0:0 / qpmax=69:69:69 / qpstep=4 / vbv_maxrate=62500 / vbv_bufsize=78125 / crf_max=0.0 / nal_hrd=none / filler=0 / ip_ratio=1.30 / pb_ratio=1.20 / aq=3:0.80 / aq-sensitivity=10.00 / aq-factor=1.00:1.00:1.00 / aq2=1:0.60 / aq2-sensitivity=15.00 / aq2-factor=1.00:1.00:1.00 / aq3=1:[0.60:0.60]:[0.60:0.60]:[0.60:0.60]:[0.60:0.60] / aq3-sensitivity=10.00 / aq3-factor=[1.00:1.00]:[1.00:1.00]:[1.00:1.00] / aq3-boundary=192:64:24 Язык : English Default : Да Forced : Нет Цветовой диапазон : Limited Основные цвета : BT.709 Характеристики трансфера : BT.709 Коэффициенты матрицы : BT.709Аудио #1: Идентификатор : 2 Формат : AC-3 Формат/Информация : Audio Coding 3 Расширение режима : CM (complete main) Параметр Endianness формата : Big Идентификатор кодека : A_AC3 Продолжительность : 2 ч. 1 м. Вид битрейта : Постоянный Битрейт : 448 Кбит/сек Каналы : 6 каналов Расположение каналов : Front: L C R, Side: L R, LFE Частота : 48,0 КГц Метод сжатия : С потерями Размер потока : 390 Мбайт (3%) Заголовок : AC3 5.1 @ 448 kbps - DUB, Blu-ray CEE Язык : Russian Default : Да Forced : НетАудио #2: Идентификатор : 3 Формат : AAC Формат/Информация : Advanced Audio Codec Профиль формата : HE-AAC / LC Идентификатор кодека : A_AAC Продолжительность : 2 ч. 1 м. Каналы : 2 канала Расположение каналов : Front: L R Частота : 88,2 КГц / 44,1 КГц Метод сжатия : С потерями Задержка видео : 938 мс. Заголовок : AAC 2.0 @ 160 kbps - DUB, iTunes Язык : Ukrainian Default : Нет Forced : НетАудио #3: Идентификатор : 4 Формат : AC-3 Формат/Информация : Audio Coding 3 Расширение режима : CM (complete main) Параметр Endianness формата : Big Идентификатор кодека : A_AC3 Продолжительность : 2 ч. 1 м. Вид битрейта : Постоянный Битрейт : 640 Кбит/сек Каналы : 6 каналов Расположение каналов : Front: L C R, Side: L R, LFE Частота : 48,0 КГц Метод сжатия : С потерями Размер потока : 557 Мбайт (4%) Заголовок : AC3 5.1-EX @ 640 kbps Язык : English Default : Нет Forced : Нет 14,44 Gb 18 5
    18 августа 2016 10:09 В сердце моря / In the Heart of the Sea (2015) BDRip-AVC от ExKinoRay | Лицензия .torrent   [Информация о файле (нажмите для просмотра)] Качество: BDRip (AVC)Видео: MPEG-4 AVC, 2399 Кбит/с, 1024x576Аудио: Русский (AC3, 6 ch, 448 Кбит/c), английский (AC3, 6 ch, 384 Кбит/c)Субтитры: Русские (форсированные, полные), английские 2,75 Gb 38 7
    18 августа 2016 10:09 В сердце моря / In the Heart of the Sea (2015) BDRip от Twi7ter | Лицензия .torrent   [Информация о файле (нажмите для просмотра)] Перевод: Профессиональный (полное дублирование)[Лицензия]Субтитры: Русские (на иностранную речь и надписи) -вшитыеКачество: BDRip| исх. In.the.Heart.of.the.Sea.2015.1080p.BluRay.AVC.TrueHD.7.1.Atmos |Формат: AVIВидео: 704x400 (1.76:1), 23.976 fps, XviD build 73 ~1520 kbps avg, 0.23 bit/pixelАудио: 48 kHz, AC3 Dolby Digital, 2/0 (L,R) ch, ~192 kbps 1,46 Gb 266 13
    18 августа 2016 10:09 В сердце моря / In the Heart of the Sea (2015) BDRip 1080p | D, A | Лицензия .torrent   [Информация о файле (нажмите для просмотра)] Перевод: Профессиональный (дублированный) Blu-ray EUR + Авторский (одноголосый, закадровый) Ю.Живов + Авторский (одноголосый, закадровый) Д.ЕсаревФормат: MatroskaВидео: 1920x1080 at 23.976 fps, [email protected], ~15900 kbps avgАудио#1: Russian: 48 kHz, AC3, 3/2 (L,C,R,l,r) + LFE ch, ~448.00 kbps avg |Дубляж,Аудио#2: Russian: 48 kHz, AC3, 3/2 (L,C,R,l,r) + LFE ch, ~640.00 kbps avg |Авторский,Аудио#3: Russian: 48 kHz, AC3, 3/2 (L,C,R,l,r) + LFE ch, ~640.00 kbps avg |Авторский,Аудио#4: English: 48 kHz, AC3-EX, 3/2 (L,C,R,l,r) + LFE ch, ~640.00 kbps avgСубтитры: Russian, Ukrainian, EnglishВидео: Идентификатор : 1 Формат : AVC Формат/Информация : Advanced Video Codec Профиль формата : [email protected] Параметр CABAC формата : Да Параметр ReFrames формата : 4 кадра Идентификатор кодека : V_MPEG4/ISO/AVC Продолжительность : 2 ч. 1 м. Битрейт : 15,9 Мбит/сек Ширина : 1920 пикселей Высота : 1080 пикселей Соотношение сторон : 16:9 Режим частоты кадров : Постоянный Частота кадров : 23,976 кадра/сек Цветовое пространство : YUV Субдискретизация насыщенности : 4:2:0 Битовая глубина : 8 бит Тип развёртки : Прогрессивная Бит/(Пиксели*Кадры) : 0.320 Размер потока : 13,5 Гбайт (85%) Заголовок : In the Heart of the Sea (2015) Библиотека кодирования : x264 core 148 r2665 a01e339 Настройки программы : cabac=1 / ref=4 / deblock=1:-3:-3 / analyse=0x3:0x133 / me=umh / subme=10 / psy=1 / psy_rd=1.00:0.00 / mixed_ref=1 / me_range=24 / chroma_me=1 / trellis=2 / 8x8dct=1 / cqm=0 / deadzone=21,11 / fast_pskip=1 / chroma_qp_offset=-2 / threads=6 / lookahead_threads=1 / sliced_threads=0 / nr=0 / decimate=1 / interlaced=0 / bluray_compat=0 / constrained_intra=0 / bframes=8 / b_pyramid=2 / b_adapt=2 / b_bias=0 / direct=3 / weightb=1 / open_gop=0 / weightp=2 / keyint=250 / keyint_min=25 / scenecut=40 / intra_refresh=0 / rc_lookahead=60 / rc=crf / mbtree=0 / crf=17.0 / qcomp=0.60 / qpmin=0 / qpmax=69 / qpstep=4 / vbv_maxrate=62500 / vbv_bufsize=78125 / crf_max=0.0 / nal_hrd=none / filler=0 / ip_ratio=1.40 / pb_ratio=1.30 / aq=1:0.80 / zones=497,1440,crf=15/1670,3100,crf=15/3681,3805,crf=15/8951,9040,crf=15/9110,9209,crf=15/14789,15109,crf=15/16075,16597,crf=15/30560,30799,crf=15/36109,37808,crf=15/51120,51256,crf=15/52962,53097,crf=16/53659,53706,crf=15/57866,57911,crf=15/58152,58197,crf=15/61216,61305,crf=15/62040,62087,crf=15/62345,62376,crf=15/64710,64764,crf=15/88462,88537,crf=15/92196,92303,crf=15/94202,94265,crf=15/96994,97285,crf=15/102729,102812,crf=15/112065,112320,crf=15/114326,114379,crf=15/124295,124363,crf=15/130040,130205,crf=15/130926,131191,crf=15/134548,134755,crf=15/140341,140399,crf=15/141137,141277,crf=15/148630,148698,crf=15/155400,155496,crf=15/156199,156364,crf=15/157537,157640,crf=15/160742,160834,crf=15/160882,160996,crf=15/161136,161185,crf=15/161323,161497,crf=15/162460,162530,crf=15 Язык : English Default : Да Forced : НетАудио #1: Идентификатор : 2 Формат : AC-3 Формат/Информация : Audio Coding 3 Расширение режима : CM (complete main) Параметр Endianness формата : Big Идентификатор кодека : A_AC3 Продолжительность : 2 ч. 1 м. Вид битрейта : Постоянный Битрейт : 448 Кбит/сек Каналы : 6 каналов Расположение каналов : Front: L C R, Side: L R, LFE Частота : 48,0 КГц Метод сжатия : С потерями Размер потока : 390 Мбайт (2%) Заголовок : AC3 5.1 @ 448 kbps - DUB, Blu-ray CEE Язык : Russian Default : Да Forced : НетАудио #2: Идентификатор : 3 Формат : AC-3 Формат/Информация : Audio Coding 3 Расширение режима : CM (complete main) Параметр Endianness формата : Big Идентификатор кодека : A_AC3 Продолжительность : 2 ч. 1 м. Вид битрейта : Постоянный Битрейт : 640 Кбит/сек Каналы : 6 каналов Расположение каналов : Front: L C R, Side: L R, LFE Частота : 48,0 КГц Метод сжатия : С потерями Размер потока : 557 Мбайт (3%) Заголовок : AC3 5.1-EX @ 640 kbps Язык : English Default : Нет Forced : НетАудио #3: Идентификатор : 4 Формат : AC-3 Формат/Информация : Audio Coding 3 Расширение режима : CM (complete main) Параметр Endianness формата : Big Идентификатор кодека : A_AC3 Продолжительность : 2 ч. 1 м. Вид битрейта : Постоянный Битрейт : 640 Кбит/сек Каналы : 6 каналов Расположение каналов : Front: L C R, Side: L R, LFE Частота : 48,0 КГц Метод сжатия : С потерями Размер потока : 557 Мбайт (3%) Заголовок : AVO (Живов) (AC3 5.1 640 kbps) Язык : Russian Default : Нет Forced : НетАудио #4: Идентификатор : 5 Формат : AC-3 Формат/Информация : Audio Coding 3 Расширение режима : CM (complete main) Параметр Endianness формата : Big Идентификатор кодека : A_AC3 Продолжительность : 2 ч. 1 м. Вид битрейта : Постоянный Битрейт : 640 Кбит/сек Каналы : 6 каналов Расположение каналов : Front: L C R, Side: L R, LFE Частота : 48,0 КГц Метод сжатия : С потерями Размер потока : 557 Мбайт (3%) Заголовок : AVO (Есарев) (AC3 5.1 640 kbps) Язык : Russian Default : Нет Forced : Нет 15,85 Gb 13 3
    18 августа 2016 10:09 В сердце моря / In the Heart of the Sea (2015) BDRip 720p | D, A | Лицензия .torrent   [Информация о файле (нажмите для просмотра)] Перевод: Профессиональный (дублированный) Blu-ray EUR + Авторский (одноголосый, закадровый) Ю.Живов + Авторский (одноголосый, закадровый) Д.ЕсаревФормат: MatroskaВидео: 1280x720 at 23.976 fps, [email protected], ~7075 kbps avgАудио#1: Russian: 48 kHz, AC3, 3/2 (L,C,R,l,r) + LFE ch, ~448.00 kbps avg |Дубляж,Аудио#2: Russian: 48 kHz, AC3, 3/2 (L,C,R,l,r) + LFE ch, ~640.00 kbps avg |Авторский,Аудио#3: Russian: 48 kHz, AC3, 3/2 (L,C,R,l,r) + LFE ch, ~640.00 kbps avg |Авторский,Аудио#4: English: 48 kHz, AC3-EX, 3/2 (L,C,R,l,r) + LFE ch, ~640.00 kbps avgСубтитры: Russian, Ukrainian, EnglishВидео: Идентификатор : 1 Формат : AVC Формат/Информация : Advanced Video Codec Профиль формата : [email protected] Параметр CABAC формата : Да Параметр ReFrames формата : 9 кадров Идентификатор кодека : V_MPEG4/ISO/AVC Продолжительность : 2 ч. 1 м. Битрейт : 6890 Кбит/сек Ширина : 1280 пикселей Высота : 720 пикселей Соотношение сторон : 16:9 Режим частоты кадров : Постоянный Частота кадров : 23,976 кадра/сек Цветовое пространство : YUV Субдискретизация насыщенности : 4:2:0 Битовая глубина : 8 бит Тип развёртки : Прогрессивная Бит/(Пиксели*Кадры) : 0.312 Размер потока : 5,86 Гбайт (73%) Заголовок : In the Heart of the Sea (2015) Библиотека кодирования : x264 core 148 r2665kMod a01e339 Настройки программы : cabac=1 / ref=9 / deblock=1:-3:-3 / analyse=0x3:0x133 / me=umh / subme=10 / psy=1 / fade_compensate=0.00 / psy_rd=1.05:0.00 / mixed_ref=1 / me_range=64 / chroma_me=1 / trellis=2 / 8x8dct=1 / cqm=0 / deadzone=21,11 / fast_pskip=0 / chroma_qp_offset=-2 / threads=12 / lookahead_threads=2 / sliced_threads=0 / nr=0 / decimate=0 / interlaced=0 / bluray_compat=0 / constrained_intra=0 / fgo=0 / bframes=7 / b_pyramid=2 / b_adapt=2 / b_bias=0 / direct=3 / weightb=1 / open_gop=0 / weightp=2 / keyint=250 / keyint_min=23 / scenecut=40 / intra_refresh=0 / rc_lookahead=40 / rc=crf / mbtree=0 / crf=17.0000 / qcomp=0.75 / qpmin=0 / qpmax=69 / qpstep=4 / vbv_maxrate=50000 / vbv_bufsize=62500 / crf_max=0.0 / nal_hrd=none / filler=0 / ip_ratio=1.30 / pb_ratio=1.20 / aq=3:0.60 Язык : English Default : Да Forced : Нет Цветовой диапазон : Limited Основные цвета : BT.709 Характеристики трансфера : BT.709 Коэффициенты матрицы : BT.709Аудио #1: Идентификатор : 2 Формат : AC-3 Формат/Информация : Audio Coding 3 Расширение режима : CM (complete main) Параметр Endianness формата : Big Идентификатор кодека : A_AC3 Продолжительность : 2 ч. 1 м. Вид битрейта : Постоянный Битрейт : 448 Кбит/сек Каналы : 6 каналов Расположение каналов : Front: L C R, Side: L R, LFE Частота : 48,0 КГц Метод сжатия : С потерями Размер потока : 390 Мбайт (5%) Заголовок : AC3 5.1 @ 448 kbps - DUB, Blu-ray CEE Язык : Russian Default : Да Forced : НетАудио #2: Идентификатор : 3 Формат : AC-3 Формат/Информация : Audio Coding 3 Расширение режима : CM (complete main) Параметр Endianness формата : Big Идентификатор кодека : A_AC3 Продолжительность : 2 ч. 1 м. Вид битрейта : Постоянный Битрейт : 640 Кбит/сек Каналы : 6 каналов Расположение каналов : Front: L C R, Side: L R, LFE Частота : 48,0 КГц Метод сжатия : С потерями Размер потока : 557 Мбайт (7%) Заголовок : AC3 5.1-EX @ 640 kbps Язык : English Default : Нет Forced : НетАудио #3: Идентификатор : 4 Формат : AC-3 Формат/Информация : Audio Coding 3 Расширение режима : CM (complete main) Параметр Endianness формата : Big Идентификатор кодека : A_AC3 Продолжительность : 2 ч. 1 м. Вид битрейта : Постоянный Битрейт : 640 Кбит/сек Каналы : 6 каналов Расположение каналов : Front: L C R, Side: L R, LFE Частота : 48,0 КГц Метод сжатия : С потерями Размер потока : 557 Мбайт (7%) Заголовок : AVO (Живов) (AC3 5.1 640 kbps) Язык : Russian Default : Нет Forced : НетАудио #4: Идентификатор : 5 Формат : AC-3 Формат/Информация : Audio Coding 3 Расширение режима : CM (complete main) Параметр Endianness формата : Big Идентификатор кодека : A_AC3 Продолжительность : 2 ч. 1 м. Вид битрейта : Постоянный Битрейт : 640 Кбит/сек Каналы : 6 каналов Расположение каналов : Front: L C R, Side: L R, LFE Частота : 48,0 КГц Метод сжатия : С потерями Размер потока : 557 Мбайт (7%) Заголовок : AVO (Есарев) (AC3 5.1 640 kbps) Язык : Russian Default : Нет Forced : Нет 8,03 Gb 11 3
    18 августа 2016 10:09 В сердце моря / In the Heart of the Sea (2015) BDRemux | A, iTunes .torrent   [Информация о файле (нажмите для просмотра)] Качество: BDRemuxПеревод: Дублированный (iTunes), Авторский (одноголосый, закадровый) Юрий Живов, Дмитрий ЕсаревВидео: AVC/H.264, 1920x1080p, (16:9), ~23.6 Mbps, 23,976 fpsАудио: AC3, 6 ch, 384 kbps - Русский, ДубляжАудио: AC3, 2 ch, 192 kbps - УкраинскийАудио: AC3, 6 ch, 448 kbps - Английский, Оригинальная дорожка с закадровыми комментариями для слабовидящихАудио: DTS-HD MA, 8 ch, 5109 kbps / Core 1509 kbps - Русский, Юрий ЖивовАудио: DTS-HD MA, 8 ch, 5136 kbps / Core 1509 kbps - Русский, Дмитрий ЕсаревАудио: TrueHD, 8 ch, 4702 kbps - Английский 37,29 Gb 5 3
    18 августа 2016 10:09 В сердце моря / In the heart of the sea (2015) BDRip | Живов .torrent   [Информация о файле (нажмите для просмотра)] Качество: BDRipВидео: XviD, 1970 Кбит/с, 720x400, 23.976 кадр/сАудио: AC3, 6 ch, 448 Кбит/сПеревод: Авторский (Юрий Живов) 2,07 Gb 4 4
    18 августа 2016 10:09 В сердце моря / In the Heart of the Sea (2015) BDRip HEVC | D | iTunes .torrent   [Информация о файле (нажмите для просмотра)] Перевод: Профессиональный дублированный - iTunesСубтитры: Russian, EnglishКачество: BDRip, 480p, H.265Формат: MKVВидео: 720x406, 23,976 fps, HEVC, ~1359 kbpsАудио 1: Rus, 48 kHz/16-bit, AC3 2.0, ~192 kbps |ДублированныйАудио 2: Eng, 48 kHz/16-bit, AC3 2.0, ~192 kbps |ОригиналВидео: Идентификатор : 1 Формат : HEVC Формат/Информация : High Efficiency Video Coding Профиль формата : Main [email protected]@Main Идентификатор кодека : V_MPEGH/ISO/HEVC Продолжительность : 2 ч. 1 м. Битрейт : 1359 Кбит/сек Ширина : 720 пикселей Высота : 406 пикселей Соотношение сторон : 16:9 Режим частоты кадров : Постоянный Частота кадров : 23,976 (24000/1001) кадра/сек Цветовое пространство : YUV Субдискретизация насыщенности : 4:2:0 Битовая глубина : 10 бит Бит/(Пиксели*Кадры) : 0.194 Размер потока : 1,16 Гбайт (78%) Заголовок : HEVC.CLUB Библиотека кодирования : x265 1.8+188-:[Windows][GCC 5.2.0][64 bit] 10bit Настройки программы : wpp / ctu=64 / min-cu-size=8 / max-tu-size=32 / tu-intra-depth=1 / tu-inter-depth=1 / me=3 / subme=5 / merange=57 / no-rect / no-amp / max-merge=2 / temporal-mvp / no-early-skip / rdpenalty=0 / no-tskip / no-tskip-fast / strong-intra-smoothing / no-lossless / no-cu-lossless / no-constrained-intra / no-fast-intra / no-open-gop / no-temporal-layers / interlace=0 / keyint=250 / min-keyint=23 / scenecut=40 / rc-lookahead=20 / lookahead-slices=0 / bframes=10 / bframe-bias=0 / b-adapt=2 / ref=4 / limit-refs=0 / limit-modes / weightp / no-weightb / aq-mode=1 / qg-size=32 / aq-strength=1.00 / cbqpoffs=1 / crqpoffs=1 / rd=4 / psy-rd=0.30 / rdoq-level=2 / psy-rdoq=0.30 / signhide / deblock / sao / no-sao-non-deblock / b-pyramid / cutree / no-intra-refresh / rc=crf / crf=17.0 / qcomp=0.70 / qpmin=0 / qpmax=51 / qpstep=4 / vbv-maxrate=20000 / vbv-bufsize=20000 / crf-max=0.0 / ipratio=1.50 / pbratio=1.30 Default : Да Forced : Да Цветовой диапазон : Limited Коэффициенты матрицы : BT.709Аудио #1: Идентификатор : 2 Формат : AC-3 Формат/Информация : Audio Coding 3 Расширение режима : CM (complete main) Параметр Endianness формата : Big Идентификатор кодека : A_AC3 Продолжительность : 2 ч. 1 м. Вид битрейта : Постоянный Битрейт : 192 Кбит/сек Каналы : 2 канала Расположение каналов : Front: L R Частота : 48,0 КГц Частота кадров : 31,250 кадров/сек (1536 spf) Метод сжатия : С потерями Размер потока : 167 Мбайт (11%) Заголовок : DUB [iTunes] Язык : Russian Default : Да Forced : НетАудио #2: Идентификатор : 3 Формат : AC-3 Формат/Информация : Audio Coding 3 Расширение режима : CM (complete main) Параметр Endianness формата : Big Идентификатор кодека : A_AC3 Продолжительность : 2 ч. 1 м. Вид битрейта : Постоянный Битрейт : 192 Кбит/сек Каналы : 2 канала Расположение каналов : Front: L R Частота : 48,0 КГц Частота кадров : 31,250 кадров/сек (1536 spf) Метод сжатия : С потерями Размер потока : 167 Мбайт (11%) Заголовок : Original Язык : English Default : Нет Forced : Нет 1,48 Gb 12 4
    18 августа 2016 10:09 В сердце моря / In the Heart of the Sea (2015) Blu-ray | iTunes .torrent   [Информация о файле (нажмите для просмотра)] Качество: Blu-rayПеревод: Дублированный (iTunes)Видео: AVC/H.264, 1920x1080p, (16:9), ~23.6 Mbps, 23,976 fpsАудио: AC3, 6 ch, 384 kbps - РусскийАудио: AC3, 6 ch, 448 kbps - ФранцузскийАудио: AC3, 2 ch, 192 kbps - УкраинскийАудио: AC3, 6 ch, 448 kbps - АнглийскийАудио: Dolby TrueHD, 8 ch, 4702 kbps - Английский 40,3 Gb 3 3
    18 августа 2016 10:09 В сердце моря / In the Heart of the Sea (2015) BDRemux | iTunes .torrent   [Информация о файле (нажмите для просмотра)] Качество: BDRemuxПеревод: Дублированный (iTunes)Видео: AVC/H.264, 1920x1080p, (16:9), ~23.6 Mbps, 23,976 fpsАудио: AC3, 6 ch, 384 kbps - РусскийАудио: AC3, 2 ch, 192 kbps - УкраинскийАудио: Dolby TrueHD, 8 ch, 4702 kbps - Английский 24,69 Gb 4 7
    18 августа 2016 10:09 В сердце моря / In the Heart of the Sea (2015) BDRemux | 3D-Video | iTunes .torrent   [Информация о файле (нажмите для просмотра)] Качество: BDRemux (3D/2D)Перевод: Дублированный (iTunes)Видео: AVC/H.264, 1920x1080p, (16:9), 23.6 Mbps, 23,976 fpsАудио: AC3, 6 ch, 384 kbps - РусскийАудио: AC3, 2 ch, 192 kbps - УкраинскийАудио: Dolby TrueHD, 8 ch, 4702 kbps - Английский 37,74 Gb 4 3

    Скачать торрент В сердце моря / In the Heart of the Sea (2015) BDRip 1080p от NNNB | D

    krutor.org

    Информация о фильме
      Русское название: В сердце моряОригинальное название: In the Heart of the Sea Год выхода: 2015Жанр: боевик, триллер, драма, приключения, биография, историяРежиссер: Рон ХовардВыпущено: США, Австралия, Испания, Великобритания, Канада Продолжительность: 02:01:43Перевод: ДублированныйВ ролях: Крис Хемсворт, Бенджамин Уокер, Киллиан Мёрфи, Брендан Глисон, Бен Уишоу, Мишель Фэйрли, Том Холланд, Пол Андерсон, Фрэнк Диллэйн, Джозеф Моул
    Сюжет фильма
      В 1819 году американский корабль «Эссекс» с командой из двух десятков человек на борту отправился из порта в штате Массачусетс на китобойный промысел. Осенью 1820-го успешная на протяжении полутора лет охота была прервана атакой гигантского кашалота на судно, в результате чего морякам пришлось пересесть в шлюпки. В течение трех с лишним месяцев они боролись за выживание посреди океана…
    Файл
      Качество: BDRip 1080p \(исходник Blu-ray Disc\)Формат: MKVВидео: 1920x1080, 12494 Кбит/сек, 23,976 кадр/сек, AVC, x264, [email protected], 16:9, 0.251 Бит/[Пиксели*Кадры]Аудио 1: AC-3, 448 Кбит/сек, 6 канала(ов), 48,0 КГц - Дублированный / Русский Аудио 2: AC-3, 640 Кбит/сек, 6 канала(ов), 48,0 КГц - Оригинал / АнглийскийСубтитры: Русские | Полные, Английские | ПолныеФорсированные субтитры: РусскиеЧаптеры (Главы): Есть

    Автор Рипа: Сообщество: ← мы в VK

    MediaInfo

    Format : Matroska Format version : Version 2 File size : 11.5 GiB Duration : 2h 1mn Overall bit rate : 13.6 Mbps Movie name : В сердце моря.(2015).BDRip.1080p.[envy] Encoded date : UTC 2016-04-05 17:28:03 Writing application : mkvmerge v5.8.0 ('No Sleep / Pillow') built on Sep 2 2012 15:37:04 Writing library : libebml v1.2.3 + libmatroska v1.3.0

    Video ID : 1 Format : AVC Format/Info : Advanced Video Codec Format profile : [email protected] Format settings, CABAC : Yes Format settings, ReFrames : 4 frames Codec ID : V_MPEG4/ISO/AVC Duration : 2h 1mn Bit rate : 12.5 Mbps Width : 1 920 pixels Height : 1 080 pixels Display aspect ratio : 16:9 Frame rate mode : Constant Frame rate : 23.976 (24000/1001) fps Color space : YUV Chroma subsampling : 4:2:0 Bit depth : 8 bits Scan type : Progressive Bits/(Pixel*Frame) : 0.251 Stream size : 10.4 GiB (90%) Title : В сердце моря.(2015).BDRip.1080p.[envy] Writing library : x264 core 148 r2665 a01e339 Encoding settings : cabac=1 / ref=4 / deblock=1:-3:-3 / analyse=0x3:0x133 / me=umh / subme=11 / psy=1 / psy_rd=1.00:0.00 / mixed_ref=1 / me_range=32 / chroma_me=1 / trellis=2 / 8x8dct=1 / cqm=0 / deadzone=21,11 / fast_pskip=0 / chroma_qp_offset=-2 / threads=12 / lookahead_threads=2 / sliced_threads=0 / nr=0 / decimate=1 / interlaced=0 / bluray_compat=0 / constrained_intra=0 / bframes=7 / b_pyramid=2 / b_adapt=2 / b_bias=0 / direct=3 / weightb=1 / open_gop=0 / weightp=2 / keyint=240 / keyint_min=23 / scenecut=40 / intra_refresh=0 / rc=2pass / mbtree=0 / bitrate=12494 / ratetol=2.0 / qcomp=0.60 / qpmin=0 / qpmax=69 / qpstep=4 / cplxblur=20.0 / qblur=0.5 / ip_ratio=1.40 / pb_ratio=1.30 / aq=2:0.70 Language : English Default : Yes Forced : No

    Audio #1 ID : 2 Format : AC-3 Format/Info : Audio Coding 3 Mode extension : CM (complete main) Format settings, Endianness : Big Codec ID : A_AC3 Duration : 2h 1mn Bit rate mode : Constant Bit rate : 448 Kbps Channel(s) : 6 channels Channel positions : Front: L C R, Side: L R, LFE Sampling rate : 48.0 KHz Frame rate : 31.250 fps (1536 spf) Compression mode : Lossy Stream size : 390 MiB (3%) Title : Dub Language : Russian Default : Yes Forced : No

    Audio #2 ID : 3 Format : AC-3 Format/Info : Audio Coding 3 Mode extension : CM (complete main) Format settings, Endianness : Big Codec ID : A_AC3 Duration : 2h 1mn Bit rate mode : Constant Bit rate : 640 Kbps Channel(s) : 6 channels Channel positions : Front: L C R, Side: L R, LFE Sampling rate : 48.0 KHz Frame rate : 31.250 fps (1536 spf) Compression mode : Lossy Stream size : 557 MiB (5%) Title : Eng Language : English Default : No Forced : No

    Text #1 ID : 4 Format : UTF-8 Codec ID : S_TEXT/UTF8 Codec ID/Info : UTF-8 Plain Text Title : Rus forced Language : Russian Default : Yes Forced : Yes

    Text #2 ID : 5 Format : UTF-8 Codec ID : S_TEXT/UTF8 Codec ID/Info : UTF-8 Plain Text Title : Rus full Language : Russian Default : No Forced : No

    Text #3 ID : 6 Format : UTF-8 Codec ID : S_TEXT/UTF8 Codec ID/Info : UTF-8 Plain Text Title : Eng full Language : English Default : No Forced : No

    Menu 00:00:00.000 : en:1 - 0:00:00 00:12:07.518 : en:2 - 0:12:08 00:21:19.736 : en:3 - 0:21:20 00:33:31.968 : en:4 - 0:33:32 00:42:37.012 : en:5 - 0:42:37 00:51:32.714 : en:6 - 0:51:33 01:06:45.835 : en:7 - 1:06:46 01:13:14.014 : en:8 - 1:13:14 01:23:23.289 : en:9 - 1:23:23 01:33:47.872 : en:10 - 1:33:48 01:43:22.029 : en:11 - 1:43:22 01:53:00.774 : en:12 - 1:53:01 02:01:42.920 : en:13 - 2:01:43

    В сердце моря через торрент

    piratbit.ru

    Раздают: 1 [ 0 KB/s ]
    Размер: 745 MB | Добавлен: 1 год 7 мес. назад | Торрент скачан:516 раз
    Реклама Дарим 3000 рублей за регистрацию, не упусти свой шанс получить шикарный бонус!!!

    25-02-2016 07:23 В сердце моря Скачать торрент  

    В сердце моря / In the Heart of the Sea

    Год выпуска: 2015Страна: США, Австралия, Испания, Великобритания, Канада / Cott Productions, Enelmar Productions, A.I.E., Imagine Entertainment, K. JAM Media, Roth FilmsЖанр: Триллер, драма, приключения, биография, историяПродолжительность: 02:01:43Перевод: Профессиональный (дублированный) iTunesCубтитры: нет

    Режиссер: Рон Ховард/Ron Howard

    В ролях: Крис Хемсворт, Бенджамин Уокер, Киллиан Мёрфи, Брендан Глисон, Бен Уишоу, Мишель Фэйрли, Том Холланд, Пол Андерсон, Фрэнк Диллэйн, Джозеф Моул...

    Описание: В 1819 году американский корабль «Эссекс» с командой из двух десятков человек на борту отправился из порта в штате Массачусетс на китобойный промысел. Осенью 1820-го успешная на протяжении полутора лет охота была прервана атакой гигантского кашалота на судно, в результате чего морякам пришлось пересесть в шлюпки. В течение трех с лишним месяцев они боролись за выживание посреди океана…

    Сэмпл: http://sendfile.su/1210003

    Качество видео: HDRipФормат видео: AVIВидео кодек: XviDАудио кодек: MP3Видео: 640x352 (1.82:1), 23.976 fps, XviD build 73 ~718 kbps avg, 0.13 bit/pixelАудио: 48 kHz, MPEG Layer 3, 2 ch, ~128.00 kbps avg

    ОбщееПолное имя : J:\V.serdce.morja.2015.HDRip.740.[Один 777].aviФормат : AVIФормат/Информация : Audio Video InterleaveРазмер файла : 745 МегабайтПродолжительность : 2 ч. 1 м.Общий поток : 856 Кбит/секПрограмма кодирования : VirtualDubMod 1.5.10.3 (build 2550/release)Библиотека кодирования : VirtualDubMod build 2550/release

    ВидеоИдентификатор : 0Формат : MPEG-4 VisualПрофайл формата : Advanced [email protected]Параметры BVOP формата : ДаПараметры QPel формата : НетПараметры GMC формата : Без точки переходаПараметры матрицы формата : Default (H.263)Идентификатор кодека : XVIDИдентификатор кодека/Подсказка : XviDПродолжительность : 2 ч. 1 м.Битрейт : 718 Кбит/секШирина : 640 пикс.Высота : 352 пикс.Соотношение кадра : 16:9Частота кадров : 23,976 кадр/секРазрешение : 8 битКолориметрия : 4:2:0Тип развёртки : ПрогрессивнаяБит/(Пиксели*Кадры) : 0.133Размер потока : 625 Мегабайт (84%)Библиотека кодирования : XviD 73

    АудиоИдентификатор : 1Формат : MPEG AudioВерсия формата : Version 1Профайл формата : Layer 3Идентификатор кодека : 55Идентификатор кодека/Подсказка : MP3Продолжительность : 2 ч. 1 м.Вид битрейта : ПостоянныйБитрейт : 128 Кбит/секКанал(ы) : 2 канала(ов)Частота : 48,0 КГцРазмер потока : 111 Мегабайт (15%)Выравнивание : Соединение по промежуткамПродолжительность промежутка : 42 мс. (1,00 видеокадр)Время предзагрузки промежутка : 504 msБиблиотека кодирования : LAME3.99rНастройки программы : -m s -V 4 -q 2 -lowpass 17 -b 128

    Скачать В сердце моря через торрент http://s017.radikal.ru/i428/1602/84/a1cb9f51c3ff.jpg Скачать фильм В сердце моря через торрент бесплантно в хорошем качестве Описание: В 1819 году американский корабль «Эссекс» с командой из двух десятков человек на борту отправился из порта в штате Массачусетс на ... 2016-03-03 11:19 8.2 10 13

    Loading...

    Loading...

    % Раздел Тема Автор DL S | L
    Фильмы 2015 [DVDrip, WEB-DLRip, HDrip] [ 1.45 GB ] В сердце моря / In the Heart of the Sea [2015 BDRip-AVC] DUB potroks Скачать
    Фильмы [HD 720p, 1080p] (Хороший звук DUB, MVO) [ 11.54 GB ] В сердце моря / In the Heart of the Sea [2015 биография история BDRip 1080p от еnvy / NNNB] DUB еnvy Скачать
    3D Фильмы [ 25.32 GB ] В сердце моря в 3Д / In the Heart of the Sea 3D [2015 биография BDrip 1080p] DUB OverUnder / Вертикальная стереопара serega768 Скачать
    Фильмы [HD 720p, 1080p] (Хороший звук DUB, MVO) [ 6.96 GB ] В сердце моря / In the Heart of the Sea [2015 BDRip 720p] DUB potroks Скачать
    Фильмы 2015 [DVDrip, WEB-DLRip, HDrip] [ 2.91 GB ] В сердце моря / In the Heart of the Sea [2015 BDRip-AVC] DUB potroks Скачать
    Фильмы 2015 [DVDrip, WEB-DLRip, HDrip] [ 1.46 GB ] В сердце моря / In the Heart of the Sea [2015 биография история BDRip] DUB Twi7ter Скачать
    3D Фильмы [ 16.22 GB ] В сердце моря в 3Д / In the Heart of the Sea 3D [2015 биография история BDRip 1080р от Ash61] DUB Anamorph OverUnder / Вертикальная анаморфная стереопара rufuss-87 Скачать

    Последний раз редактировалось: Один 777 (2016-03-03 11:19), всего редактировалось 2 раз(а)

    Рекламный пират

    26-02-2016 16:49 В сердце моря Скачать торрент  

    Так себе кинчик , снят довольно не плохо,но вся поэзия мореходства тех годов передана очень кратко, даже в сравнении с Пиратами Карибского моря передана очень плохо (имею в виду работу режиссера при съемках моря и подводного мира) В целом сюжет не плохой, но опять же не хватает какого то сюжетного поворота, истории самого кита что ли !!! Короче скоротать вечерок сойдет 6\10

    06-03-2016 06:02 В сердце моря Скачать торрент  

    Итог: фильм понравился, немного не привычна сюжетная линия, которая идет на спад по завораживающим сценам, но история вполне выстроена. Очень явно показано противостояние людей состоящих в разных классах, и как опыт и знания не столь важны, когда ты имеешь высокий титул. Красивые эффектные сцены, которые вызовут сопереживание. Приятное послевкусие. Советую посмотреть.

    8 из 10

    02-04-2016 03:19 В сердце моря Скачать торрент  

    Фильм просто супер!смотрите все!

    Дорогой пользователь! Огромная просьба, поблагодарите релизера, оцените раздачу и оставьте свои комментарий, если Вы скачали В сердце моря через торрент бесплатно! Внесите свою лепту в развитие PiratBit!

    Комментировать посты могут только пользователи прошедшие не сложную регистрацию

    В сердце моря через торрент Скачать бесплатно В сердце моря В сердце моря скачать торрент В сердце моря смотреть онлайн Cкачать фильм В сердце моря бесплатно В сердце моря скачать торрент в хорошем качестве В сердце моря смотреть онлайн бесплатно в хорошем качестве

    Вы не можете начинать темыВы не можете отвечать на сообщенияВы не можете редактировать свои сообщенияВы не можете удалять свои сообщенияВы не можете голосовать в опросахВы не можете прикреплять файлы к сообщениямВы можете скачивать файлы

    Скачать фильм В сердце моря через торрент в хорошем качестве бесплатно HDRip

    piratbit.ru

    Раздают: 1 [ 0 KB/s ]
    Размер: 2.17 GB | Добавлен: 1 год 7 мес. назад | Торрент скачан:266 раз
    Реклама Дарим 3000 рублей за регистрацию, не упусти свой шанс получить шикарный бонус!!!

    04-03-2016 17:51 В сердце моря Скачать торрент  

    В сердце моря / In the Heart of the Sea

    Год выпуска: 2015Страна: США, Австралия, Испания, Великобритания, Канада / Village Roadshow Pictures, Cott Productions, Enelmar Productions, A.I.E.Жанр: боевик, триллер, драма, приключения, биография, историяПродолжительность: 02:01:43Перевод: Дубляж (iTunes)

    Режиссер: Рон Ховард

    IMDB 7.00 (39 659)

    В ролях: Крис Хемсворт, Бенджамин Уокер, Киллиан Мёрфи, Брендан Глисон, Бен Уишоу, Мишель Фэйрли, Том Холланд, Пол Андерсон, Фрэнк Диллэйн, Джозеф Моул

    Описание: В 1819 году американский корабль «Эссекс» с командой из двух десятков человек на борту отправился из порта в штате Массачусетс на китобойный промысел. Осенью 1820-го успешная на протяжении полутора лет охота была прервана атакой гигантского кашалота на судно, в результате чего морякам пришлось пересесть в шлюпки. В течение трех с лишним месяцев они боролись за выживание посреди океана...

    Качество: HDRipФормат: AVIВидео кодек: XviDАудио кодек: AC3Видео: MPEG4, XviD, 720x400 (16:9), 23.976 fps, 2 366 Kbps (0.343 bit/pixel)Аудио: AC-3, 48.0 KHz, 6 ch, 384 Kbps, CBR

    ОбщееПолное имя : F:\кино\В сердце моря.2015.D.HDRip.aviФормат : AVIФормат/Информация : Audio Video InterleaveПрофиль формата : OpenDMLРазмер файла : 2,17 ГбайтПродолжительность : 2 ч. 1 м.Общий поток : 2550 Кбит/секПрограмма кодирования : VirtualDubMod 1.5.10.3 | www.virtualdub-fr.org || (build 2550/release)Библиотека кодирования : VirtualDubMod build 2550/release

    ВидеоИдентификатор : 0Формат : MPEG-4 VisualПрофиль формата : Advanced [email protected]Параметр BVOP формата : 2Параметр QPel формата : НетПараметр GMC формата : Без точки переходаПараметр матрицы формата : Default (H.263)Идентификатор кодека : XVIDИдентификатор кодека/Подсказка : XviDПродолжительность : 2 ч. 1 м.Битрейт : 2366 Кбит/секШирина : 720 пикселейВысота : 400 пикселейСоотношение сторон : 16:9Частота кадров : 23,976 (23976/1000) кадра/секЦветовое пространство : YUVСубдискретизация насыщенности : 4:2:0Битовая глубина : 8 битТип развёртки : ПрогрессивнаяМетод сжатия : С потерямиБит/(Пиксели*Кадры) : 0.343Размер потока : 2,01 Гбайт (93%)Библиотека кодирования : XviD 1.2.1 (UTC 2008-12-04)

    АудиоИдентификатор : 1Формат : AC-3Формат/Информация : Audio Coding 3Расширение режима : CM (complete main)Параметр Endianness формата : BigИдентификатор кодека : 2000Продолжительность : 55 м.Вид битрейта : ПостоянныйБитрейт : 384 Кбит/секКаналы : 6 каналовРасположение каналов : Front: L C R, Side: L R, LFEЧастота : 48,0 КГцЧастота кадров : 31,250 кадров/сек (1536 spf)Метод сжатия : С потерямиРазмер потока : 153 Мбайт (7%)Выравнивание : Разделение по промежуткамПродолжительность промежутка : 91 мс. (2,18 видеокадра)Время предзагрузки промежутка : 500 мс.

    Скачать В сердце моря через торрент http://pic.pb.wtf/images/11/mdxi4.jpg Скачать фильм В сердце моря через торрент бесплантно в хорошем качестве Описание: В 1819 году американский корабль «Эссекс» с командой из двух десятков человек на борту отправился из порта в штате Массачусетс на ... 2016-03-04 17:51 9.1 10 10

    Loading...

    Loading...

    % Раздел Тема Автор DL S | L
    Фильмы 2015 [DVDrip, WEB-DLRip, HDrip] [ 1.45 GB ] В сердце моря / In the Heart of the Sea [2015 BDRip-AVC] DUB potroks Скачать
    Фильмы [HD 720p, 1080p] (Хороший звук DUB, MVO) [ 11.54 GB ] В сердце моря / In the Heart of the Sea [2015 биография история BDRip 1080p от еnvy / NNNB] DUB еnvy Скачать
    Фильмы 2015 [DVDrip, WEB-DLRip, HDrip] [ 745 MB ] В сердце моря / In the Heart of the Sea [2015 Австралия Испания биография история HDRip by _Один_777] Dub () Один 777 Скачать
    3D Фильмы [ 25.32 GB ] В сердце моря в 3Д / In the Heart of the Sea 3D [2015 биография BDrip 1080p] DUB OverUnder / Вертикальная стереопара serega768 Скачать
    Фильмы [HD 720p, 1080p] (Хороший звук DUB, MVO) [ 6.96 GB ] В сердце моря / In the Heart of the Sea [2015 BDRip 720p] DUB potroks Скачать
    Фильмы 2015 [DVDrip, WEB-DLRip, HDrip] [ 2.91 GB ] В сердце моря / In the Heart of the Sea [2015 BDRip-AVC] DUB potroks Скачать
    Фильмы 2015 [DVDrip, WEB-DLRip, HDrip] [ 1.46 GB ] В сердце моря / In the Heart of the Sea [2015 биография история BDRip] DUB Twi7ter Скачать

    Рекламный пират

    05-03-2016 00:09 В сердце моря Скачать торрент  

    с 55 минуты и до конца нет звука

    05-03-2016 08:31 В сердце моря Скачать торрент  

    logas80, На KMP плеере все показывает со звуком

    05-03-2016 19:26 В сердце моря Скачать торрент  

    coc900 писал(а):

    logas80, На KMP плеере все показывает со звуком

    У меня KMP плеер вопрос со звуком не решил!

    06-03-2016 07:35 В сердце моря Скачать торрент  

    Mity32, Вы правы нет там звука. Но автору видимо даже трудно было проверить это.Без разници какой плеер, если его там нет то значит нет. Сэмпл с тех минут.http://sendfile.su/1210994

    Дорогой пользователь! Огромная просьба, поблагодарите релизера, оцените раздачу и оставьте свои комментарий, если Вы скачали В сердце моря через торрент бесплатно! Внесите свою лепту в развитие PiratBit!

    Комментировать посты могут только пользователи прошедшие не сложную регистрацию

    В сердце моря через торрент Скачать бесплатно В сердце моря В сердце моря скачать торрент В сердце моря смотреть онлайн Cкачать фильм В сердце моря бесплатно В сердце моря скачать торрент в хорошем качестве В сердце моря смотреть онлайн бесплатно в хорошем качестве

    Вы можете начинать темыВы можете отвечать на сообщенияВы не можете редактировать свои сообщенияВы не можете удалять свои сообщенияВы не можете голосовать в опросахВы не можете прикреплять файлы к сообщениямВы можете скачивать файлы

    Скачать фильм В сердце моря через торрент в хорошем качестве бесплатно BDRip от Twi7ter

    piratbit.ru

    Раздают: 3 [ 4 KB/s ]
    Размер: 1.46 GB | Добавлен: 1 год 7 мес. назад | Торрент скачан:3458 раз
    Реклама Дарим 3000 рублей за регистрацию, не упусти свой шанс получить шикарный бонус!!!

    02-03-2016 21:05 В сердце моря Скачать торрент  

    В сердце моря / In the Heart of the Sea

    «Based on the incredible true story that inspired Moby-Dick»

    Год выпуска: 2015Страна: США, Австралия, Испания, Великобритания, КанадаЖанр: боевик, триллер, драма, приключения, биография, историяПродолжительность: 02:01:43Перевод: Профессиональный (полное дублирование) [iTunes]Субтитры: Русские (на иностранную речь и надписи) - вшитыеРежиссер: Рон Ховард / Ron HowardВ ролях: Крис Хемсворт (Owen Chase), Бенджамин Уокер (George Pollard), Киллиан Мёрфи (Matthew Joy), Брендан Глисон (Tom Nickerson), Бен Уишоу (Herman Melville), Мишель Фэйрли (Mrs. Nickerson), Том Холланд (Thomas Nickerson), Пол Андерсон (Caleb Chappel), Фрэнк Диллэйн (Henry Coffin), Джозеф Моул (Benjamin Lawrence), Эдвард Эшли (Barzillai Ray), Сэм Кили (Ramsdell)Описание: В 1819 году американский корабль «Эссекс» с командой из двух десятков человек на борту отправился из порта в штате Массачусетс на китобойный промысел. Осенью 1820-го успешная на протяжении полутора лет охота была прервана атакой гигантского кашалота на судно, в результате чего морякам пришлось пересесть в шлюпки. В течение трех с лишним месяцев они боролись за выживание посреди океана...Рейтинг:

    MPAA: PG-13 - Детям до 13 лет просмотр не желателен

    Качество: BDRip | исх. In.the.Heart.of.the.Sea.2015.1080p.BluRay.AVC.TrueHD.7.1.Atmos |Формат: AVIВидео кодек: XviDАудио кодек: AC3Видео: 704x400 (1.76:1), 23.976 fps, XviD build 73 ~1326 kbps avg, 0.20 bit/pixelАудио: 48 kHz, AC3 Dolby Digital, 3/2 (L,C,R,l,r) + LFE ch, ~384 kbps

    Релиз:

    Скачать В сердце моря через торрент http://s008.radikal.ru/i306/1603/28/fcf4188ebd66.png Скачать фильм В сердце моря через торрент бесплантно в хорошем качестве Описание: В 1819 году американский корабль «Эссекс» с командой из двух десятков человек на борту отправился из порта в штате Массачусетс на ... 2016-03-02 21:05 9.5 10 58

    Loading...

    Loading...

    % Раздел Тема Автор DL S | L
    Фильмы 2015 [DVDrip, WEB-DLRip, HDrip] [ 1.45 GB ] В сердце моря / In the Heart of the Sea [2015 BDRip-AVC] DUB potroks Скачать
    Фильмы [HD 720p, 1080p] (Хороший звук DUB, MVO) [ 11.54 GB ] В сердце моря / In the Heart of the Sea [2015 биография история BDRip 1080p от еnvy / NNNB] DUB еnvy Скачать
    Фильмы 2015 [DVDrip, WEB-DLRip, HDrip] [ 745 MB ] В сердце моря / In the Heart of the Sea [2015 Австралия Испания биография история HDRip by _Один_777] Dub () Один 777 Скачать
    3D Фильмы [ 25.32 GB ] В сердце моря в 3Д / In the Heart of the Sea 3D [2015 биография BDrip 1080p] DUB OverUnder / Вертикальная стереопара serega768 Скачать
    Фильмы [HD 720p, 1080p] (Хороший звук DUB, MVO) [ 6.96 GB ] В сердце моря / In the Heart of the Sea [2015 BDRip 720p] DUB potroks Скачать
    Фильмы 2015 [DVDrip, WEB-DLRip, HDrip] [ 2.91 GB ] В сердце моря / In the Heart of the Sea [2015 BDRip-AVC] DUB potroks Скачать
    Фильмы 2015 [DVDrip, WEB-DLRip, HDrip] [ 1.46 GB ] В сердце моря / In the Heart of the Sea [2015 биография история BDRip] DUB Twi7ter Скачать

    Рекламный пират

    02-03-2016 21:35 В сердце моря Скачать торрент  

    Спасибо, ожидаемо приятно.

    02-03-2016 22:44 В сердце моря Скачать торрент  

    хороший фильм

    03-03-2016 19:38 В сердце моря Скачать торрент  

    рейтинг большой, посмотрим. спасибо

    04-03-2016 08:37 В сердце моря Скачать торрент  

    Фильм очень крут твердая 10.

    Дорогой пользователь! Огромная просьба, поблагодарите релизера, оцените раздачу и оставьте свои комментарий, если Вы скачали В сердце моря через торрент бесплатно! Внесите свою лепту в развитие PiratBit!

    Комментировать посты могут только пользователи прошедшие не сложную регистрацию

    В сердце моря через торрент Скачать бесплатно В сердце моря В сердце моря скачать торрент В сердце моря смотреть онлайн Cкачать фильм В сердце моря бесплатно В сердце моря скачать торрент в хорошем качестве В сердце моря смотреть онлайн бесплатно в хорошем качестве

    Вы не можете начинать темыВы не можете отвечать на сообщенияВы не можете редактировать свои сообщенияВы не можете удалять свои сообщенияВы не можете голосовать в опросахВы не можете прикреплять файлы к сообщениямВы можете скачивать файлы

    В сердце моря через торрент

    Format                      : MatroskaFormat version              : Version 2File size                   : 11.5 GiBDuration                    : 2h 1mnOverall bit rate            : 13.6 MbpsMovie name                  : В сердце моря.(2015).BDRip.1080p.[envy]Encoded date                : UTC 2016-04-05 17:28:03Writing application         : mkvmerge v5.8.0 ('No Sleep / Pillow') built on Sep  2 2012 15:37:04Writing library             : libebml v1.2.3 + libmatroska v1.3.0

    VideoID                          : 1Format                      : AVCFormat/Info                 : Advanced Video CodecFormat profile              : [email protected] settings, CABAC      : YesFormat settings, ReFrames   : 4 framesCodec ID                    : V_MPEG4/ISO/AVCDuration                    : 2h 1mnBit rate                    : 12.5 MbpsWidth                       : 1 920 pixelsHeight                      : 1 080 pixelsDisplay aspect ratio        : 16:9Frame rate mode             : ConstantFrame rate                  : 23.976 (24000/1001) fpsColor space                 : YUVChroma subsampling          : 4:2:0Bit depth                   : 8 bitsScan type                   : ProgressiveBits/(Pixel*Frame)          : 0.251Stream size                 : 10.4 GiB (90%)Title                       : В сердце моря.(2015).BDRip.1080p.[envy]Writing library             : x264 core 148 r2665 a01e339Encoding settings           : cabac=1 / ref=4 / deblock=1:-3:-3 / analyse=0x3:0x133 / me=umh / subme=11 / psy=1 / psy_rd=1.00:0.00 / mixed_ref=1 / me_range=32 / chroma_me=1 / trellis=2 / 8x8dct=1 / cqm=0 / deadzone=21,11 / fast_pskip=0 / chroma_qp_offset=-2 / threads=12 / lookahead_threads=2 / sliced_threads=0 / nr=0 / decimate=1 / interlaced=0 / bluray_compat=0 / constrained_intra=0 / bframes=7 / b_pyramid=2 / b_adapt=2 / b_bias=0 / direct=3 / weightb=1 / open_gop=0 / weightp=2 / keyint=240 / keyint_min=23 / scenecut=40 / intra_refresh=0 / rc=2pass / mbtree=0 / bitrate=12494 / ratetol=2.0 / qcomp=0.60 / qpmin=0 / qpmax=69 / qpstep=4 / cplxblur=20.0 / qblur=0.5 / ip_ratio=1.40 / pb_ratio=1.30 / aq=2:0.70Language                    : EnglishDefault                     : YesForced                      : No

    Audio #1ID                          : 2Format                      : AC-3Format/Info                 : Audio Coding 3Mode extension              : CM (complete main)Format settings, Endianness : BigCodec ID                    : A_AC3Duration                    : 2h 1mnBit rate mode               : ConstantBit rate                    : 448 KbpsChannel(s)                  : 6 channelsChannel positions           : Front: L C R, Side: L R, LFESampling rate               : 48.0 KHzFrame rate                  : 31.250 fps (1536 spf)Compression mode            : LossyStream size                 : 390 MiB (3%)Title                       : DubLanguage                    : RussianDefault                     : YesForced                      : No

    Audio #2ID                          : 3Format                      : AC-3Format/Info                 : Audio Coding 3Mode extension              : CM (complete main)Format settings, Endianness : BigCodec ID                    : A_AC3Duration                    : 2h 1mnBit rate mode               : ConstantBit rate                    : 640 KbpsChannel(s)                  : 6 channelsChannel positions           : Front: L C R, Side: L R, LFESampling rate               : 48.0 KHzFrame rate                  : 31.250 fps (1536 spf)Compression mode            : LossyStream size                 : 557 MiB (5%)Title                       : EngLanguage                    : EnglishDefault                     : NoForced                      : No

    Text #1ID                          : 4Format                      : UTF-8Codec ID                    : S_TEXT/UTF8Codec ID/Info               : UTF-8 Plain TextTitle                       : Rus forcedLanguage                    : RussianDefault                     : YesForced                      : Yes

    Text #2ID                          : 5Format                      : UTF-8Codec ID                    : S_TEXT/UTF8Codec ID/Info               : UTF-8 Plain TextTitle                       : Rus fullLanguage                    : RussianDefault                     : NoForced                      : No

    Text #3ID                          : 6Format                      : UTF-8Codec ID                    : S_TEXT/UTF8Codec ID/Info               : UTF-8 Plain TextTitle                       : Eng fullLanguage                    : EnglishDefault                     : NoForced                      : No

    Menu00:00:00.000                : en:1 - 0:00:0000:12:07.518                : en:2 - 0:12:0800:21:19.736                : en:3 - 0:21:2000:33:31.968                : en:4 - 0:33:3200:42:37.012                : en:5 - 0:42:3700:51:32.714                : en:6 - 0:51:3301:06:45.835                : en:7 - 1:06:4601:13:14.014                : en:8 - 1:13:1401:23:23.289                : en:9 - 1:23:2301:33:47.872                : en:10 - 1:33:4801:43:22.029                : en:11 - 1:43:2201:53:00.774                : en:12 - 1:53:0102:01:42.920                : en:13 - 2:01:43

    piratbit.ru


    Смотрите также