Трамбо скачать торрент в хорошем качестве


Скачать фильм Трамбо (2015) через торрент

7 декабря 2016 07:16 Трамбо / Trumbo (2015) BDRip от HQ-ViDEO .torrent   [Информация о файле (нажмите для просмотра)] Перевод: Профессиональный (многоголосый, закадровый)|Лицензия|Субтитры: Английские (полные, SDH).Формат: AVIКачество: BDRip (источник: HDCLUB /BD-Remux / 1080p)Кодек: XviD, build 67 codecВидео: 704 x 384; 23.976 fps; 2049 kbps; 0.316 bit/pixelАудио #1: AC3 Dolby Digital; 448 Kbps; 6 channels; 48 KHzАудио #2: AC3 Dolby Digital; 448 Kbps; 6 channels; 48 KHz(отдельно, http) 2,18 Gb 12 6 7 декабря 2016 07:16 Трамбо / Trumbo (2015) BDRip-AVC от HELLYWOOD | Лицензия .torrent   [Информация о файле (нажмите для просмотра)] Перевод: Профессиональный (многоголосый) [Blu-ray RUS]Субтитры: английские (Full), английские (SDH)Качество: BDRip-AVCФормат: MKVВидео: AVC, 1056x572 (16:9), 2446 kbps, 23,976 fps, 0,169 bppАудио №1: AC3 / 5.1 / 48 kHz / 448 kbps / 16 bit| RUS Аудио №2: AC3 / 5.1 / 48 kHz / 448 kbps / 16 bit| ENG 2,91 Gb 15 3 7 декабря 2016 07:16 Трамбо / Trumbo (2015) HDRip от Kaztorrents | КПК | Лицензия .torrent   [Информация о файле (нажмите для просмотра)] Перевод: Профессиональный (Многоголосый, закадровый) [Лицензия]Качество: HDRip (Исходник: BDRip 720p)Формат: MP4 563 Mb 13 5 7 декабря 2016 07:16 Трамбо / Trumbo (2015) HDRip от Scarabey | Лицензия .torrent   [Информация о файле (нажмите для просмотра)] Перевод: Профессиональный (многоголосый, закадровый) [Лицензия]Субтитры: нетВидео: 592x320 (1.85:1), 23.976 fps, XviD build 73 ~701 kbps avg, 0.15 bit/pixelАудио: 48 kHz, MPEG Layer 3, 2 ch, ~128.00 kbps avg 747,93 Mb 14 2 7 декабря 2016 07:16 Трамбо / Trumbo (2015) HDRip от Scarabey | Лицензия .torrent   [Информация о файле (нажмите для просмотра)] Перевод: Профессиональный (многоголосый, закадровый) [Лицензия]Субтитры: нетВидео: 704x384 (1.83:1), 23.976 fps, XviD build 73 ~1208 kbps avg, 0.19 bit/pixelАудио: 48 kHz, AC3 Dolby Digital, 3/2 (L,C,R,l,r) + LFE ch, ~448.00 kbps avg 1,45 Gb 54 3 7 декабря 2016 07:16 Трамбо / Trumbo (2015) HDRip от Scarabey | Лицензия .torrent   [Информация о файле (нажмите для просмотра)] Перевод: Профессиональный (многоголосый, закадровый) [Лицензия]Субтитры: нетВидео: 704x384 (1.83:1), 23.976 fps, XviD build 73 ~2049 kbps avg, 0.32 bit/pixelАудио: 48 kHz, AC3 Dolby Digital, 3/2 (L,C,R,l,r) + LFE ch, ~448.00 kbps avg 2,18 Gb 18 5 7 декабря 2016 07:15 Трамбо / Trumbo (2015) HDRip от ExKinoRay | Лицензия .torrent   [Информация о файле (нажмите для просмотра)] Перевод: Профессиональный (многоголосый, закадровый) [Лицензия Blu-ray RUS]Качество: HDRipВидео: XviD, 1652 Кбит/с, 704x384Аудио: Русский (AC3, 6 ch, 448 Кбит/с), английский (AC3, 6 ch, 384 Кбит/с) 2,18 Gb 10 3 7 декабря 2016 07:15 Трамбо / Trumbo (2015) BDRip от Twi7ter | Лицензия .torrent   [Информация о файле (нажмите для просмотра)] Перевод: Профессиональный (многоголосый, закадровый)[Лицензия Blu-ray RUS]Субтитры: НетКачество: BDRip| исх. Trumbo 2015 1080p BluRay REMUX AVC DTS HDMA 5 1 |Формат: AVIВидео: 704x384 (1.83:1), 23.976 fps, XviD build 73 ~1222 kbps avg, 0.19 bit/pixelАудио: 48 kHz, AC3 Dolby Digital, 3/2 (L,C,R,l,r) + LFE ch, ~448 kbps 1,46 Gb 18 4 7 декабря 2016 07:15 Трамбо / Trumbo (2015) BDRip 1080p | Лицензия .torrent   [Информация о файле (нажмите для просмотра)] Перевод: Профессиональный (многоголосый, закадровый) Blu-ray RUSФормат: MatroskaВидео: 1920x1040 at 23.976 fps, [email protected], ~15700 kbps avgАудио#1: Russian: 48 kHz, DTS, 3/2 (L,C,R,l,r) + LFE ch, ~1509.00 kbps avg |Многоголосый закадровый, Blu-ray RUS|Аудио#2: English: 48 kHz, DTS, 3/2 (L,C,R,l,r) + LFE ch, ~1509.00 kbps avgСубтитры: English, RomanianВидео: Идентификатор : 1 Формат : AVC Формат/Информация : Advanced Video Codec Профиль формата : [email protected] Параметр CABAC формата : Да Параметр ReFrames формата : 4 кадра Идентификатор кодека : V_MPEG4/ISO/AVC Продолжительность : 2 ч. 4 м. Битрейт : 15,7 Мбит/сек Ширина : 1920 пикселей Высота : 1040 пикселей Соотношение сторон : 1,85:1 Режим частоты кадров : Постоянный Частота кадров : 23,976 кадра/сек Цветовое пространство : YUV Субдискретизация насыщенности : 4:2:0 Битовая глубина : 8 бит Тип развёртки : Прогрессивная Бит/(Пиксели*Кадры) : 0.327 Размер потока : 13,7 Гбайт (82%) Заголовок : HDMaNiAcS Библиотека кодирования : x264 core 146 r2538 121396c Настройки программы : cabac=1 / ref=4 / deblock=1:-3:-3 / analyse=0x3:0x133 / me=umh / subme=11 / psy=1 / psy_rd=1.00:0.00 / mixed_ref=1 / me_range=32 / chroma_me=1 / trellis=2 / 8x8dct=1 / cqm=0 / deadzone=21,11 / fast_pskip=0 / chroma_qp_offset=-2 / threads=48 / lookahead_threads=8 / sliced_threads=0 / nr=0 / decimate=0 / interlaced=0 / bluray_compat=0 / constrained_intra=0 / bframes=11 / b_pyramid=2 / b_adapt=2 / b_bias=0 / direct=3 / weightb=1 / open_gop=0 / weightp=2 / keyint=240 / keyint_min=23 / scenecut=40 / intra_refresh=0 / rc_lookahead=150 / rc=crf / mbtree=0 / crf=15.4 / qcomp=0.60 / qpmin=0 / qpmax=69 / qpstep=4 / vbv_maxrate=62500 / vbv_bufsize=78125 / crf_max=0.0 / nal_hrd=none / filler=0 / ip_ratio=1.40 / pb_ratio=1.30 / aq=1:0.80 Язык : English Default : Да Forced : НетАудио #1: Идентификатор : 2 Формат : DTS Формат/Информация : Digital Theater Systems Режим : 16 Параметр Endianness формата : Big Идентификатор кодека : A_DTS Продолжительность : 2 ч. 4 м. Вид битрейта : Постоянный Битрейт : 1509 Кбит/сек Каналы : 6 каналов Расположение каналов : Front: L C R, Side: L R, LFE Частота : 48,0 КГц Битовая глубина : 24 бит Метод сжатия : С потерями Размер потока : 1,31 Гбайт (8%) Заголовок : DTS 5.1 @ 1536 Kbps, Многоголосый закадровый, Blu-Ray RUS Язык : Russian Default : Да Forced : НетАудио #2: Идентификатор : 3 Формат : DTS Формат/Информация : Digital Theater Systems Режим : 16 Параметр Endianness формата : Big Идентификатор кодека : A_DTS Продолжительность : 2 ч. 4 м. Вид битрейта : Постоянный Битрейт : 1509 Кбит/сек Каналы : 6 каналов Расположение каналов : Front: L C R, Side: L R, LFE Частота : 48,0 КГц Битовая глубина : 24 бит Метод сжатия : С потерями Размер потока : 1,31 Гбайт (8%) Заголовок : DTS 5.1 @ 1536Kbps, Original Язык : English Default : Нет Forced : Нет 16,61 Gb 7 4 7 декабря 2016 07:15 Трамбо / Trumbo (2015) BDRip 720p | Лицензия .torrent   [Информация о файле (нажмите для просмотра)] Перевод: Профессиональный (многоголосый, закадровый) Blu-ray RUSФормат: MatroskaВидео: 1280x694 at 23.976 fps, [email protected], ~4868 kbps avgАудио#1: Russian: 48 kHz, DTS, 3/2 (L,C,R,l,r) + LFE ch, ~1509.00 kbps avg |Многоголосый закадровый, Blu-ray RUS|Аудио#2: English: 48 kHz, DTS, 3/2 (L,C,R,l,r) + LFE ch, ~1509.00 kbps avgСубтитры: English, RomanianВидео: Идентификатор : 1 Формат : AVC Формат/Информация : Advanced Video Codec Профиль формата : [email protected] Параметр CABAC формата : Да Параметр ReFrames формата : 9 кадров Идентификатор кодека : V_MPEG4/ISO/AVC Продолжительность : 2 ч. 4 м. Битрейт : 4868 Кбит/сек Ширина : 1280 пикселей Высота : 694 пикселя Соотношение сторон : 1,85:1 Режим частоты кадров : Постоянный Частота кадров : 23,976 кадра/сек Цветовое пространство : YUV Субдискретизация насыщенности : 4:2:0 Битовая глубина : 8 бит Тип развёртки : Прогрессивная Бит/(Пиксели*Кадры) : 0.229 Размер потока : 4,24 Гбайт (61%) Заголовок : VietHD Библиотека кодирования : x264 core 146 r2538kMod 121396c Настройки программы : cabac=1 / ref=9 / deblock=1:-3:-3 / analyse=0x3:0x133 / me=umh / subme=10 / psy=1 / fade_compensate=0.00 / psy_rd=1.05:0.00 / mixed_ref=1 / me_range=24 / chroma_me=1 / trellis=2 / 8x8dct=1 / cqm=0 / deadzone=21,11 / fast_pskip=0 / chroma_qp_offset=-2 / threads=12 / lookahead_threads=2 / sliced_threads=0 / nr=0 / decimate=0 / interlaced=0 / bluray_compat=0 / constrained_intra=0 / fgo=0 / bframes=9 / b_pyramid=2 / b_adapt=2 / b_bias=0 / direct=3 / weightb=1 / open_gop=0 / weightp=2 / keyint=250 / keyint_min=23 / scenecut=40 / intra_refresh=0 / rc_lookahead=60 / rc=crf / mbtree=0 / crf=16.3000 / qcomp=0.65 / qpmin=0 / qpmax=69 / qpstep=4 / vbv_maxrate=62500 / vbv_bufsize=78125 / crf_max=0.0 / nal_hrd=none / filler=0 / ip_ratio=1.30 / pb_ratio=1.20 / aq=3:0.75 Язык : English Default : Да Forced : Нет Цветовой диапазон : Limited Коэффициенты матрицы : BT.709Аудио #1: Идентификатор : 2 Формат : DTS Формат/Информация : Digital Theater Systems Режим : 16 Параметр Endianness формата : Big Идентификатор кодека : A_DTS Продолжительность : 2 ч. 4 м. Вид битрейта : Постоянный Битрейт : 1509 Кбит/сек Каналы : 6 каналов Расположение каналов : Front: L C R, Side: L R, LFE Частота : 48,0 КГц Битовая глубина : 24 бит Метод сжатия : С потерями Размер потока : 1,31 Гбайт (19%) Заголовок : DTS 5.1 @ 1536 Kbps, Многоголосый закадровый, Blu-Ray RUS Язык : Russian Default : Да Forced : НетАудио #2: Идентификатор : 3 Формат : DTS Формат/Информация : Digital Theater Systems Режим : 16 Параметр Endianness формата : Big Идентификатор кодека : A_DTS Продолжительность : 2 ч. 4 м. Вид битрейта : Постоянный Битрейт : 1509 Кбит/сек Каналы : 6 каналов Расположение каналов : Front: L C R, Side: L R, LFE Частота : 48,0 КГц Битовая глубина : 24 бит Метод сжатия : С потерями Размер потока : 1,31 Гбайт (19%) Заголовок : DTS 5.1 @ 1536Kbps, Original Язык : English Default : Нет Forced : Нет 7,01 Gb 5 1 7 декабря 2016 07:15 Трамбо / Trumbo (2015) BDRemux | iTunes .torrent   [Информация о файле (нажмите для просмотра)] Качество: BDRemuxПеревод: Профессиональный (многоголосый, закадровый) (iTunes)Видео: AVC/H.264, 1920x1080p, (16:9), ~29.0 Mbps, 23.976 fpsАудио: AC3, 6 ch, 384 kbps - РусскийАудио: DTS-HD MA, 6 ch, 3072 kbps - Английский 30,81 Gb 3 1 7 декабря 2016 07:15 Трамбо / Trumbo (2015) BDRip 1080p | iTunes .torrent   [Информация о файле (нажмите для просмотра)] Качество: BDRip 1080pПеревод: Профессиональный (многоголосый, закадровый) (iTunes)Видео: AVC/H.264, 1920x1040, (1,85:1), 8355 Kbps, 23.976 fpsАудио: AC3, 6 ch, 384 kbps - РусскийАудио: DTS, 6 ch, 1509 kbps - АнглийскийВидео: Идентификатор : 1 Формат : AVC Формат/Информация : Advanced Video Codec Профиль формата : [email protected] Параметр CABAC формата : Да Параметр ReFrames формата : 4 кадра Идентификатор кодека : V_MPEG4/ISO/AVC Продолжительность : 2 ч. 4 м. Битрейт : 8355 Кбит/сек Ширина : 1920 пикселей Высота : 1040 пикселей Соотношение сторон : 1,85:1 Режим частоты кадров : Постоянный Частота кадров : 23,976 (24000/1001) кадра/сек Цветовое пространство : YUV Субдискретизация насыщенности : 4:2:0 Битовая глубина : 8 бит Тип развёртки : Прогрессивная Бит/(Пиксели*Кадры) : 0.175 Размер потока : 7,27 Гбайт (80%) Заголовок : Trumbo.2015.x264.BDRip.1080p.BLUEBIRD Библиотека кодирования : x264 core 142 r2431+42 c69a006 tMod [[email protected] X86_64] Настройки программы : cabac=1 / ref=4 / deblock=1:-3:-3 / analyse=0x3:0x133 / me=umh / subme=11 / psy=1 / fade_compensate=0.00 / psy_rd=0.90:0.00 / mixed_ref=1 / me_range=32 / chroma_me=1 / trellis=2 / 8x8dct=1 / cqm=0 / deadzone=21,11 / fast_pskip=0 / chroma_qp_offset=-2 / threads=12 / lookahead_threads=2 / sliced_threads=0 / nr=0 / decimate=0 / interlaced=0 / bluray_compat=0 / constrained_intra=0 / fgo=0 / bframes=8 / b_pyramid=2 / b_adapt=2 / b_bias=0 / direct=3 / weightb=1 / open_gop=0 / weightp=2 / keyint=240 / keyint_min=23 / scenecut=40 / intra_refresh=0 / rc_lookahead=60 / rc=crf / mbtree=0 / crf=17.7000 / qcomp=0.60 / qpmin=0:0:0 / qpmax=69:69:69 / qpstep=4 / vbv_maxrate=40000 / vbv_bufsize=30000 / crf_max=0.0 / nal_hrd=none / filler=0 / ip_ratio=1.40 / pb_ratio=1.30 / aq=1:0.90 / aq-sensitivity=10.00 / aq-factor=1.00:1.00:1.00 / aq2=0 / aq3=0 Язык : English Default : Да Forced : Нет Statistics Tags Issue : mkvmerge v8.3.0 ('Over the Horizon') 64bit 2016-02-04 20:55:01 / mkvmerge v7.9.0 ('Birds') 64bit 2016-02-23 18:27:06 FromStats_BitRate : 8560007 FromStats_Duration : 02:04:39.472000000 FromStats_FrameCount : 179328 FromStats_StreamSize : 8003041751Аудио #1: Идентификатор : 2 Формат : AC-3 Формат/Информация : Audio Coding 3 Расширение режима : CM (complete main) Параметр Endianness формата : Big Идентификатор кодека : A_AC3 Продолжительность : 2 ч. 4 м. Вид битрейта : Постоянный Битрейт : 384 Кбит/сек Каналы : 6 каналов Расположение каналов : Front: L C R, Side: L R, LFE Частота : 48,0 КГц Частота кадров : 31,250 кадров/сек (1536 spf) Метод сжатия : С потерями Размер потока : 342 Мбайт (4%) Заголовок : Профессиональный многоголосый (iTunes) Язык : Russian Default : Да Forced : НетАудио #2: Идентификатор : 3 Формат : DTS Формат/Информация : Digital Theater Systems Режим : 16 Параметр Endianness формата : Big Идентификатор кодека : A_DTS Продолжительность : 2 ч. 4 м. Вид битрейта : Постоянный Битрейт : 1509 Кбит/сек Каналы : 6 каналов Расположение каналов : Front: L C R, Side: L R, LFE Частота : 48,0 КГц Частота кадров : 93,750 кадра/сек (512 spf) Битовая глубина : 24 бит Метод сжатия : С потерями Размер потока : 1,31 Гбайт (14%) Язык : English Default : Нет Forced : Нет 9,1 Gb 13 3 7 декабря 2016 07:15 Трамбо / Trumbo (2015) BDRip 720p от Scarabey | iTunes .torrent   [Информация о файле (нажмите для просмотра)] Перевод: Профессиональный (многоголосый, закадровый) [iTunes]Субтитры: английские (полные + sdh) + испанскиеВидео: 1280х694, 23.976 fps, AVC ~4713 kbps avgАудио: 48 kHz, AC3 Dolby Digital, 3/2 (L,C,R,l,r) + LFE ch, ~384.00 kbps avg - многоголоскаАудио: 48 kHz, DTS, 3/2 (L,C,R,l,r) + LFE ch, ~1536 kbps avg - оригинал 6,03 Gb 10 4

gig-torrent.net

Скачать фильм Трамбо через торрент в хорошем качестве бесплатно BDRip от Twi7ter

Размер: 1.46 GB | Добавлен: 1 год 6 мес. назад | Торрент скачан:381 раз
Реклама Дарим 3000 рублей за регистрацию, не упусти свой шанс получить шикарный бонус!!!

12-04-2016 18:37 Трамбо Скачать торрент  

Трамбо / Trumbo

«Are you now or have you ever been...»

Год выпуска: 2015Страна: СШАЖанр: драма, биографияПродолжительность: 02:04:39Перевод: Профессиональный (многоголосый, закадровый) [Лицензия Blu-ray RUS]Субтитры: НетРежиссер: Джей Роуч / Jay RoachВ ролях: Брайан Крэнстон (Dalton Trumbo), Дайан Лэйн (Cleo Trumbo), Хелен Миррен (Hedda Hopper), Луис С.К. (Arlen Hird), Эль Фаннинг (Niki Trumbo), Джон Гудман (Frank King), Майкл Стулбарг (Edward G. Robinson), Алан Тьюдик (Ian McLellan Hunter), Адевале Акинойе-Агбаже (Virgil Brooks), Дин О’Горман (Kirk Douglas), Дэвид Мальдонадо (Rocco), Джон Гец (Sam Wood)Описание: Далтон Трамбо, один из самых успешных голливудских сценаристов, автор «Римских каникул» и «Спартака», не подозревал, что черный список «Hollywood 10» реально существует, пока сам не попал туда и не был навсегда выкинут из жизни фабрики грез...Рейтинг:

MPAA: R - Лицам до 17 лет обязательно присутствие взрослого

Качество: BDRip | исх. Trumbo 2015 1080p BluRay REMUX AVC DTS HDMA 5 1 |Формат: AVIВидео кодек: XviDАудио кодек: AC3Видео: 704x384 (1.83:1), 23.976 fps, XviD build 73 ~1222 kbps avg, 0.19 bit/pixelАудио: 48 kHz, AC3 Dolby Digital, 3/2 (L,C,R,l,r) + LFE ch, ~448 kbps

Релиз:

Скачать Трамбо через торрент http://s019.radikal.ru/i612/1604/c8/727c6af29a73.png Скачать фильм Трамбо через торрент бесплантно в хорошем качестве Описание: Далтон Трамбо, один из самых успешных голливудских сценаристов, автор «Римских каникул» и «Спартака», не подозревал, что черный ... 2016-04-12 18:37 8.3 10 6

Loading...

Loading...

% Раздел Тема Автор DL S | L
Фильмы [HD 720p, 1080p] (Хороший звук DUB, MVO) [ 16.61 GB ] Трамбо / Trumbo [2015 биография BDRip 1080p] MVO [ Blu-ray RUS] bober100 Скачать
Фильмы 2015 [DVDrip, WEB-DLRip, HDrip] [ 748 MB ] Трамбо / Trumbo [2015 биография HDRip] MVO Leonardo'D Скачать
Фильмы 2015 [DVDrip, WEB-DLRip, HDrip] [ 1.39 GB ] Трамбо / Trumbo [2015 биография HDRip $-DRON-$ Скачать
Фильмы [HD 720p, 1080p] (Хороший звук DUB, MVO) [ 9.1 GB ] Трамбо / Trumbo [2015 биография BDRip 1080p / ] Ворон Скачать
Фильмы 2015 [DVDrip, WEB-DLRip, HDrip] [ 2.18 GB ] Трамбо / Trumbo [2015 биография HDRip многоголосый ""] coc900 Скачать
Фильмы 2015 [DVDrip, WEB-DLRip, HDrip] [ 2.85 GB ] Трамбо / Trumbo [2015 биография BDRip-AVC] MVO potroks Скачать

Рекламный пират

13-04-2016 11:34 Трамбо Скачать торрент  

хороший фильм, только вот местами чуточку нудноват

Дорогой пользователь! Огромная просьба, поблагодарите релизера, оцените раздачу и оставьте свои комментарий, если Вы скачали Трамбо через торрент бесплатно! Внесите свою лепту в развитие PiratBit!

Комментировать посты могут только пользователи прошедшие не сложную регистрацию

Трамбо через торрент Скачать бесплатно Трамбо Трамбо скачать торрент Трамбо смотреть онлайн Cкачать фильм Трамбо бесплатно Трамбо скачать торрент в хорошем качестве Трамбо смотреть онлайн бесплатно в хорошем качестве

Вы не можете начинать темыВы не можете отвечать на сообщенияВы не можете редактировать свои сообщенияВы не можете удалять свои сообщенияВы не можете голосовать в опросахВы не можете прикреплять файлы к сообщениямВы можете скачивать файлы

piratbit.ru

Скачать фильм Трамбо через торрент в хорошем качестве бесплатно BDRip-AVC от potroks

GeneralUnique ID                                : 186593131382708225427721582931494608178 (0x8C6087A87D482966A1CF5B2776249D32)Complete name                            : Trambo.2015.DUAL.BDRip.x264.-HELLYWOOD.mkvFormat                                   : MatroskaFormat version                           : Version 4 / Version 2File size                                : 2.85 GiBDuration                                 : 2h 4mnOverall bit rate                         : 3 278 KbpsMovie name                               : Trumbo (2015) - HELLYWOODEncoded date                             : UTC 2016-02-23 08:53:12Writing application                      : mkvmerge v5.9.0 ('On The Loose') built on Dec 15 2012 16:39:58Writing library                          : libebml v1.3.0 + libmatroska v1.4.0

VideoID                                       : 1Format                                   : AVCFormat/Info                              : Advanced Video CodecFormat profile                           : [email protected] settings, CABAC                   : YesFormat settings, ReFrames                : 10 framesCodec ID                                 : V_MPEG4/ISO/AVCDuration                                 : 2h 4mnBit rate                                 : 2 446 KbpsWidth                                    : 1 056 pixelsHeight                                   : 572 pixelsDisplay aspect ratio                     : 16:9Frame rate                               : 23.976 fpsColor space                              : YUVChroma subsampling                       : 4:2:0Bit depth                                : 8 bitsScan type                                : ProgressiveBits/(Pixel*Frame)                       : 0.169Stream size                              : 2.07 GiB (73%)Title                                    : potroksWriting library                          : x264 core 146 r2538 121396cEncoding settings                        : cabac=1 / ref=10 / deblock=1:-3:-3 / analyse=0x3:0x113 / me=umh / subme=11 / psy=1 / psy_rd=0.96:0.00 / mixed_ref=1 / me_range=48 / chroma_me=1 / trellis=2 / 8x8dct=1 / cqm=0 / deadzone=21,11 / fast_pskip=0 / chroma_qp_offset=-2 / threads=9 / lookahead_threads=2 / sliced_threads=0 / nr=0 / decimate=0 / interlaced=0 / bluray_compat=0 / constrained_intra=0 / bframes=11 / b_pyramid=2 / b_adapt=2 / b_bias=0 / direct=3 / weightb=1 / open_gop=0 / weightp=2 / keyint=240 / keyint_min=23 / scenecut=40 / intra_refresh=0 / rc_lookahead=60 / rc=2pass / mbtree=0 / bitrate=2446 / ratetol=1.0 / qcomp=0.70 / qpmin=0 / qpmax=69 / qpstep=4 / cplxblur=20.0 / qblur=0.5 / vbv_maxrate=14000 / vbv_bufsize=14000 / nal_hrd=none / filler=0 / ip_ratio=1.35 / pb_ratio=1.25 / aq=1:0.80Language                                 : EnglishDefault                                  : YesForced                                   : No

Audio #1ID                                       : 2Format                                   : AC-3Format/Info                              : Audio Coding 3Mode extension                           : CM (complete main)Codec ID                                 : A_AC3Duration                                 : 2h 4mnBit rate mode                            : ConstantBit rate                                 : 384 KbpsChannel(s)                               : 6 channelsChannel positions                        : Front: L C R, Side: L R, LFESampling rate                            : 48.0 KHzBit depth                                : 16 bitsCompression mode                         : LossyStream size                              : 342 MiB (12%)Title                                    : MVO | DD 5.1 @ 384 kbps - iTunesLanguage                                 : RussianDefault                                  : YesForced                                   : No

Audio #2ID                                       : 3Format                                   : AC-3Format/Info                              : Audio Coding 3Mode extension                           : CM (complete main)Codec ID                                 : A_AC3Duration                                 : 2h 4mnBit rate mode                            : ConstantBit rate                                 : 448 KbpsChannel(s)                               : 6 channelsChannel positions                        : Front: L C R, Side: L R, LFESampling rate                            : 48.0 KHzBit depth                                : 16 bitsCompression mode                         : LossyStream size                              : 399 MiB (14%)Title                                    : Original | DD 5.1 @ 448 kbpsLanguage                                 : EnglishDefault                                  : NoForced                                   : No

Text #1ID                                       : 4Format                                   : UTF-8Codec ID                                 : S_TEXT/UTF8Codec ID/Info                            : UTF-8 Plain TextTitle                                    : FullLanguage                                 : EnglishDefault                                  : NoForced                                   : No

Text #2ID                                       : 5Format                                   : UTF-8Codec ID                                 : S_TEXT/UTF8Codec ID/Info                            : UTF-8 Plain TextTitle                                    : SDHLanguage                                 : EnglishDefault                                  : NoForced                                   : No

Menu00:00:00.000                             : en:Chapter 0100:07:30.199                             : en:Chapter 0200:14:59.315                             : en:Chapter 0300:20:57.047                             : en:Chapter 0400:26:34.509                             : en:Chapter 0500:33:53.031                             : en:Chapter 0600:37:17.443                             : en:Chapter 0700:44:06.602                             : en:Chapter 0800:49:25.170                             : en:Chapter 0900:55:12.100                             : en:Chapter 1001:02:08.933                             : en:Chapter 1101:08:05.915                             : en:Chapter 1201:16:20.450                             : en:Chapter 1301:23:31.381                             : en:Chapter 1401:29:42.502                             : en:Chapter 1501:34:53.354                             : en:Chapter 1601:39:49.441                             : en:Chapter 1701:47:33.905                             : en:Chapter 1801:52:36.666                             : en:Chapter 1901:58:56.754                             : en:Chapter 20

piratbit.ru

Скачать фильм Трамбо через торрент в хорошем качестве бесплатно 1080p

Размер: 16.61 GB | Добавлен: 1 мес. 15 д. назад | Торрент скачан:13 раз
Реклама Дарим 3000 рублей за регистрацию, не упусти свой шанс получить шикарный бонус!!!

10-09-2017 20:10 Трамбо Скачать торрент  

Трамбо / Trumbo

Год выпуска: 2015Страна: СШАЖанр: драма, биографияПродолжительность: 02:04:39Перевод: Профессиональный многоголосый [Лицензия Blu-ray RUS]Субтитры: английские, румынские

Режиссер: Джей Роуч

В ролях:

Брайан Крэнстон, Дайан Лэйн, Хелен Миррен, Луис С.К., Эль Фаннинг, Джон Гудман, Майкл Стулбарг, Алан Тьюдик, Адевале Акинойе-Агбаже, Дин О’Горман

Описание:

Трамбо, коммунизм и список «Голливуд 10» - основная сюжетная линия покажет связь между популярным сценаристом, политикой и черным списком людей, оказавшихся не у дел только потому, что осмелились пойти против всех течений и не отказаться от внутренних убеждений. Никто не мог и подумать, что Далтон, чьи сценарии были так популярны в 30-х годах, внезапно останется без работы. Будучи на верном, надежном пути к Аллее Славы, Трамбо оказывается на обочине любого творчества только потому, что состоял в партии американских коммунистов. Кто в конце концов сдался: сценарист или система, расскажет биографическо-документальный фильм.

Качество: BDRip 1080pФормат: MKVВидео кодек: H.264Аудио кодек: DTS

Видео: 1920x1040 at 23.976 fps, [email protected], ~15700 kbps avgАудио#1: Russian: 48 kHz, DTS, 3/2 (L,C,R,l,r) + LFE ch, ~1509.00 kbps avg |Многоголосый закадровый, Blu-ray RUS|Аудио#2: English: 48 kHz, DTS, 3/2 (L,C,R,l,r) + LFE ch, ~1509.00 kbps avg

***Сохранены оригинальные главы как на Blu-ray.

В 1950-е годы сценарии Далтона Трамбо были удостоены двух премий «Оскар» в номинации «лучший сценарий», но Трамбо не получил ни одной из них. В титрах обоих фильмов были указаны другие авторы сценария, так как сам Трамбо был в чёрном списке. Первым фильмом, за который Трамбо получил награду, стали «Римские каникулы» (1953), романтическая комедия с Одри Хепбёрн и Грегори Пеком в главных ролях. Здесь автором сценария был указан Йен МакЛеллан Хантер, который действительно писал сценарии к фильмам и тоже впоследствии оказался в чёрном списке. В 1993 году, уже после смерти Трамбо и Хантера, Американская киноакадемия попыталась забрать у семьи Хантера статуэтку и передать её вдове Трамбо. Сын Хантера Тим, режиссёр («На берегу реки», «Текс» и другие) отказался расстаться со статуэткой, так что Американской киноакадемии пришлось выдать вдове Трамбо другую. В титрах фильма «Римские каникулы», вышедшем на DVD в 2003 году, вместо Хантера указана фамилия Трамбо. Вторым фильмом, завоевавшим Трамбо награду, стала драма «Храбрец» (1956). Здесь в титрах была указана фамилия Роберта Рича. В отличие от Хантера, Рич не имел вообще никакого отношения к написанию сценариев. Он просто был племянником одного из продюсеров фильма. В мае 1975 года, приблизительно за полтора года до смерти Трамбо, Американская киноакадемия вручила ему золотую статуэтку за сценарий к этому фильму.Вначале предполагалось, что роль Далтона Трамбо исполнит Гэри Олдман.В перерыве между съёмками Алан Тьюдик развлекал детей (включая Элайджа Мисковски, игравшего в фильме его сына), подражая голосам Короля Карамели («Ральф»), герцога («Холодное сердце») и Алистера Крея («Город героев»). Узнав, что Алан также принимал участие в озвучении компьютерной игры-шутера «Halo 3», дети до конца съёмок просто ходили за ним по пятам.Это уже третий художественный фильм за последние четыре года, в котором Джон Гудман сыграл роль владельца или топ-менеджера кинофирмы. Он уже снимался в фильмах «Артист» (2011) и «Операция «Арго» (2012). Кстати, обе эти картины получили «Оскара» в номинации «Лучший фильм».Фильм основан на реальных событиях.Хелен Миррен и Ричард Портноу снимались вместе в фильме «Хичкок» (2012), ещё одной картине, сюжет которой разворачивается в Голливуде ушедших лет. Сюжет фильма в основном сосредоточен на создании «Психо» (1960), в котором сыграла Джанет Ли. «Трамбо», в свою очередь, рассказывает о создании фильма «Спартак»(1960), в котором снялся муж Джанет Ли Тони Кёртис.У Трамбо был билет члена Коммунистической партии за N 47187.Как утверждает режиссёр Джей Роуч, многие сцены, где Трамбо пишет либо сидя за столом, либо лежа в ванне, были придуманы Брайаном Крэнстоном, что называется «на ходу». Более того, перед камерами Крэнстон действительно записывал на бумагу целые предложения.Четверо актёров, занятых в «Трамбо», снимались у Бена Аффлека: Брайан Крэнстон и Джон Гудман снялись в «Операции «Арго», Дайан Лэйн сыграла роль в фильмах «Смерть Супермена» и «Бэтмен против Супермена: На заре справедливости», а Эль Фаннинг — в «Ночной жизни», которая готовится к выходу на экран.Все фильмы, которые Джей Роуч снял до «Трамбо», были комедиями.Стив Мартин однажды заявил, что когда-то в молодости его тогдашняя подруга и её близкие познакомили его с совершенно новыми для него идеями и постулатами. Её отца звали Далтон Трамбо. Кто это такой, Мартин понятия не имел.Отто Преминджер был в действительности и режиссёром, и актёром. Он снялся в анимационном фильме «Хоббит» (1977) Артура Ранкина мл. и Джулза Басса. Дин О`Горман сыграл в трилогии «Хоббит» (2012-2014) Питера Джексона.В гостиной дома Трамбо на стене висит свидетельство о приёме в члены студенческого братства «Delta Tau Delta». Далтон Трамбо действительно принадлежал к этому братству в годы учёбы в Колорадском университете в Боулдере.Этого не было в реальной жизни, однако в фильме показано, как Эдвард Г. Робинсон совершает акт предательства по отношению к друзьям, называя их на заседании Комиссии по расследованию антиамериканской деятельности палаты представителей конгресса США коммунистами. Робинсон четырежды выступал перед Комиссией, но ни разу не назвал ни одного имени своих знакомых, даже тех, кого подозревал в симпатиях к коммунистам. Он признался, что сам стал жертвой обмана со стороны организаций, служивших коммунистам прикрытием, но ни Далтона Трамбо, ни кого-либо ещё коммунистами не называл. Робинсон заявил, что считает их, как и себя, либералами, и что некоторые из них периодически приглашали его на митинги и другие мероприятия, однако коммунистами не называл никого.

ОбщееУникальный идентификатор : 233091058930294669042625381469700675898 (0xAF5BB47BF263041AB595240C9326D93A)Полное имя : Trumbo.2015.1080p.BluRay.DTS.x264.Rus.Eng.Subs-HDMaNiAcS.mkvФормат : MatroskaВерсия формата : Version 4 / Version 2Размер файла : 16,6 ГбайтПродолжительность : 2 ч. 4 м.Общий поток : 19,1 Мбит/секНазвание фильма : released by aldershotДата кодирования : UTC 2016-04-12 16:30:20Программа кодирования : mkvmerge v6.9.1 ('Blue Panther') 64bit built on Apr 18 2014 18:23:38Библиотека кодирования : libebml v1.3.0 + libmatroska v1.4.1

ВидеоИдентификатор : 1Формат : AVCФормат/Информация : Advanced Video CodecПрофиль формата : [email protected]Параметр CABAC формата : ДаПараметр ReFrames формата : 4 кадраИдентификатор кодека : V_MPEG4/ISO/AVCПродолжительность : 2 ч. 4 м.Битрейт : 15,7 Мбит/секШирина : 1920 пикселейВысота : 1040 пикселейСоотношение сторон : 1,85:1Режим частоты кадров : ПостоянныйЧастота кадров : 23,976 кадра/секЦветовое пространство : YUVСубдискретизация насыщенности : 4:2:0Битовая глубина : 8 битТип развёртки : ПрогрессивнаяБит/(Пиксели*Кадры) : 0.327Размер потока : 13,7 Гбайт (82%)Заголовок : HDMaNiAcSБиблиотека кодирования : x264 core 146 r2538 121396cНастройки программы : cabac=1 / ref=4 / deblock=1:-3:-3 / analyse=0x3:0x133 / me=umh / subme=11 / psy=1 / psy_rd=1.00:0.00 / mixed_ref=1 / me_range=32 / chroma_me=1 / trellis=2 / 8x8dct=1 / cqm=0 / deadzone=21,11 / fast_pskip=0 / chroma_qp_offset=-2 / threads=48 / lookahead_threads=8 / sliced_threads=0 / nr=0 / decimate=0 / interlaced=0 / bluray_compat=0 / constrained_intra=0 / bframes=11 / b_pyramid=2 / b_adapt=2 / b_bias=0 / direct=3 / weightb=1 / open_gop=0 / weightp=2 / keyint=240 / keyint_min=23 / scenecut=40 / intra_refresh=0 / rc_lookahead=150 / rc=crf / mbtree=0 / crf=15.4 / qcomp=0.60 / qpmin=0 / qpmax=69 / qpstep=4 / vbv_maxrate=62500 / vbv_bufsize=78125 / crf_max=0.0 / nal_hrd=none / filler=0 / ip_ratio=1.40 / pb_ratio=1.30 / aq=1:0.80Язык : EnglishDefault : ДаForced : Нет

Аудио #1Идентификатор : 2Формат : DTSФормат/Информация : Digital Theater SystemsРежим : 16Параметр Endianness формата : BigИдентификатор кодека : A_DTSПродолжительность : 2 ч. 4 м.Вид битрейта : ПостоянныйБитрейт : 1509 Кбит/секКаналы : 6 каналовРасположение каналов : Front: L C R, Side: L R, LFEЧастота : 48,0 КГцБитовая глубина : 24 битМетод сжатия : С потерямиРазмер потока : 1,31 Гбайт (8%)Заголовок : DTS 5.1 @ 1536 Kbps, Многоголосый закадровый, Blu-Ray RUSЯзык : RussianDefault : ДаForced : Нет

Аудио #2Идентификатор : 3Формат : DTSФормат/Информация : Digital Theater SystemsРежим : 16Параметр Endianness формата : BigИдентификатор кодека : A_DTSПродолжительность : 2 ч. 4 м.Вид битрейта : ПостоянныйБитрейт : 1509 Кбит/секКаналы : 6 каналовРасположение каналов : Front: L C R, Side: L R, LFEЧастота : 48,0 КГцБитовая глубина : 24 битМетод сжатия : С потерямиРазмер потока : 1,31 Гбайт (8%)Заголовок : DTS 5.1 @ 1536Kbps, OriginalЯзык : EnglishDefault : НетForced : Нет

Текст #1Идентификатор : 4Формат : UTF-8Идентификатор кодека : S_TEXT/UTF8Идентификатор кодека/Информация : UTF-8 Plain TextЗаголовок : fullЯзык : RomanianDefault : НетForced : Нет

Текст #2Идентификатор : 5Формат : UTF-8Идентификатор кодека : S_TEXT/UTF8Идентификатор кодека/Информация : UTF-8 Plain TextЗаголовок : fullЯзык : EnglishDefault : ДаForced : Нет

Текст #3Идентификатор : 6Формат : UTF-8Идентификатор кодека : S_TEXT/UTF8Идентификатор кодека/Информация : UTF-8 Plain TextЗаголовок : SDHЯзык : EnglishDefault : НетForced : Нет

Меню00:00:00.000 : en:Chapter 100:07:30.200 : en:Chapter 200:14:59.315 : en:Chapter 300:20:57.047 : en:Chapter 400:26:34.510 : en:Chapter 500:33:53.031 : en:Chapter 600:37:17.444 : en:Chapter 700:44:06.602 : en:Chapter 800:49:25.171 : en:Chapter 900:55:12.100 : en:Chapter 1001:02:08.934 : en:Chapter 1101:08:05.915 : en:Chapter 1201:16:20.451 : en:Chapter 1301:23:31.381 : en:Chapter 1401:29:42.502 : en:Chapter 1501:34:53.354 : en:Chapter 1601:39:49.442 : en:Chapter 1701:47:33.906 : en:Chapter 1801:52:36.667 : en:Chapter 1901:58:56.755 : en:Chapter 20

Скачать Трамбо через торрент http://s018.radikal.ru/i519/1709/bb/28663a5531c7.png Скачать фильм Трамбо через торрент бесплантно в хорошем качестве Описание: Трамбо, коммунизм и список «Голливуд 10» - основная сюжетная линия покажет связь между популярным сценаристом, политикой и черным ... 2017-09-10 20:10 7.8 10 4

Loading...

Loading...

% Раздел Тема Автор DL S | L
Фильмы 2015 [DVDrip, WEB-DLRip, HDrip] [ 1.46 GB ] Трамбо / Trumbo [2015 биография BDRip] [] Twi7ter Скачать
Фильмы 2015 [DVDrip, WEB-DLRip, HDrip] [ 748 MB ] Трамбо / Trumbo [2015 биография HDRip] MVO Leonardo'D Скачать
Фильмы 2015 [DVDrip, WEB-DLRip, HDrip] [ 1.39 GB ] Трамбо / Trumbo [2015 биография HDRip $-DRON-$ Скачать
Фильмы [HD 720p, 1080p] (Хороший звук DUB, MVO) [ 9.1 GB ] Трамбо / Trumbo [2015 биография BDRip 1080p / ] Ворон Скачать
Фильмы 2015 [DVDrip, WEB-DLRip, HDrip] [ 2.18 GB ] Трамбо / Trumbo [2015 биография HDRip многоголосый ""] coc900 Скачать
Фильмы 2015 [DVDrip, WEB-DLRip, HDrip] [ 2.85 GB ] Трамбо / Trumbo [2015 биография BDRip-AVC] MVO potroks Скачать

Рекламный пират

Дорогой пользователь! Огромная просьба, поблагодарите релизера, оцените раздачу и оставьте свои комментарий, если Вы скачали Трамбо через торрент бесплатно! Внесите свою лепту в развитие PiratBit!

Комментировать посты могут только пользователи прошедшие не сложную регистрацию

Трамбо через торрент Скачать бесплатно Трамбо Трамбо скачать торрент Трамбо смотреть онлайн Cкачать фильм Трамбо бесплатно Трамбо скачать торрент в хорошем качестве Трамбо смотреть онлайн бесплатно в хорошем качестве

Вы не можете начинать темыВы не можете отвечать на сообщенияВы не можете редактировать свои сообщенияВы не можете удалять свои сообщенияВы не можете голосовать в опросахВы не можете прикреплять файлы к сообщениямВы можете скачивать файлы

piratbit.ru

Трамбо скачать торрент в хорошем качестве бесплатно

BDRip (hd)ПодробнееПроф. (многоголосый)MKV7.03 ГБскачатьПродолжительность: 02:04:40Формат: MKVВидео кодек: MPEG-4Аудио кодек: AC3Видео:   MPEG-4 AVC, 6021 Кбит/с, 1280x694, 23,976 fpsАудио:   Аудио 1: Rus, AC3, 384 kb/s (6 ch), 48 kHz Аудио 2: Eng, DTS, 1510 kb/s (6 ch), 48 kHzBDRipПодробнееПроф. (многоголосый)MKV2.85 ГБскачатьПродолжительность: 02:04:39Формат: MKVВидео кодек: AVCАудио кодек: AC3Видео:   AVC, 1056x572 (16:9), 2446 kbps, 23,976 fps, 0,169 bppАудио:   Аудио №1: AC3 / 5.1 / 48 kHz / 384 kbps / 16 bit | RUS Аудио №2: AC3 / 5.1 / 48 kHz / 448 kbps / 16 bit | ENG BDRipПодробнееПроф. (многоголосый)AVI1.39 ГБскачатьПродолжительность: 02:04:39Формат: AVIВидео кодек: XviDАудио кодек: AC3Видео:   704x384 (1.83:1), 23.976 fps, XviD build 73 ~1208 kbps avg, 0.19 bit/pixelАудио:   48 kHz, AC3 Dolby Digital, 3/2 (L,C,R,l,r) + LFE ch, ~384.00 kbps avgBDRip (hd)ПодробнееПроф. (многоголосый)MKV6.03 ГБскачатьПродолжительность: 02:04:39Формат: MKVВидео кодек: AVCАудио кодек: AC3Видео:   1280х694, 23.976 fps, AVC ~4713 kbps avgАудио:   Аудио1: 48 kHz, AC3 Dolby Digital, 3/2 (L,C,R,l,r) + LFE ch, ~384.00 kbps avg - многоголоска Аудио2: 48 kHz, DTS, 3/2 (L,C,R,l,r) + LFE ch, ~1536 kbps avg - оригинал BDRip (hd)ПодробнееПроф. (многоголосый)MKV9.10 ГБскачатьПродолжительность: 02:04:39Формат: MKVВидео кодек: AVCАудио кодек: AC3Видео:   AVC/H.264, 1920x1040, (1,85:1), 8355 Kbps, 23.976 fpsАудио:   Аудио1: AC3, 6 ch, 384 kbps - Русский Аудио2: DTS, 6 ch, 1509 kbps - Английский BDRipПодробнееПроф. (многоголосый)AVI747.80 МБскачатьПродолжительность: 02:04:39Формат: AVIВидео кодек: XviDАудио кодек: MP3Видео:   592x320 (1.85:1), 23.976 fps, XviD build 73 ~701 kbps avg, 0.15 bit/pixelАудио:   48 kHz, MPEG Layer 3, 2 ch, ~128.00 kbps avgBlu-Ray (hd)ПодробнееПроф. (многоголосый)MKV30.81 ГБскачатьПродолжительность: 02:04:39Формат: MKVВидео кодек: AVCАудио кодек: AC3Видео:   AVC/H.264, 1920x1080p, (16:9), ~29.0 Mbps, 23.976 fpsАудио:   Аудио1: AC3, 6 ch, 384 kbps - Русский Аудио2: DTS-HD MA, 6 ch, 3072 kbps - АнглийскийBDRipПодробнееПроф. (многоголосый)AVI2.12 ГБскачатьПродолжительность: 02:04:39Формат: AVIВидео кодек: XviDАудио кодек: AC3Видео:   704x384 (1.83:1), 23.976 fps, XviD build 73 ~2049 kbps avg, 0.32 bit/pixelАудио:   48 kHz, AC3 Dolby Digital, 3/2 (L,C,R,l,r) + LFE ch, ~384.00 kbps avgBDRip (hd)ПодробнееПроф. (многоголосый)MKV7.01 ГБскачатьПродолжительность: 02:04:39Формат: MKVВидео кодек: H.26xАудио кодек: DTSВидео:   1280x694 at 23.976 fps, [email protected], ~4868 kbps avgАудио:   Аудио#1: Russian: 48 kHz, DTS, 3/2 (L,C,R,l,r) + LFE ch, ~1509.00 kbps avg |Многоголосый закадровый, Blu-ray RUS| Аудио#2: English: 48 kHz, DTS, 3/2 (L,C,R,l,r) + LFE ch, ~1509.00 kbps avg BDRip (hd)ПодробнееПроф. (многоголосый)MKV16.61 ГБскачатьПродолжительность: 02:04:39Формат: MKVВидео кодек: H.26xАудио кодек: DTSВидео:   1920x1040 at 23.976 fps, [email protected], ~15700 kbps avgАудио:   Аудио#1: Russian: 48 kHz, DTS, 3/2 (L,C,R,l,r) + LFE ch, ~1509.00 kbps avg |Многоголосый закадровый, Blu-ray RUS| Аудио#2: English: 48 kHz, DTS, 3/2 (L,C,R,l,r) + LFE ch, ~1509.00 kbps avgBDRipПодробнееПроф. (многоголосый)AVI1.46 ГБскачатьПродолжительность: 02:04:39Формат: AVIВидео кодек: XviDАудио кодек: AC3Видео:   704x384 (1.83:1), 23.976 fps, XviD build 73 ~1222 kbps avg, 0.19 bit/pixelАудио:   48 kHz, AC3 Dolby Digital, 3/2 (L,C,R,l,r) + LFE ch, ~448 kbpsKPKПодробнееПроф. (многоголосый)MP4563.00 МБскачатьФормат: MP4Видео кодек: H.26xАудио кодек: AACВидео:   640x346 (1:85:1), 23.976 fps, 500 kbps (0.094 bit/pixel) Аудио:   48.0 KHz, 2 ch, 128 kbps BDRipПодробнееПроф. (многоголосый)AVI2.18 ГБскачатьПродолжительность: 02:04:39Формат: AVIВидео кодек: XviDАудио кодек: AC3Видео:   XviD, 1652 Кбит/с, 704x384Аудио:   Аудио1: Русский (AC3, 6 ch, 448 Кбит/с), Аудио2: английский (AC3, 6 ch, 384 Кбит/с)BDRipПодробнееПроф. (многоголосый)AVI2.18 ГБскачатьПродолжительность: 02:04:39Формат: AVIВидео кодек: XviDАудио кодек: AC3Видео:   704 x 384; 23.976 fps; 2049 kbps; 0.316 bit/pixelАудио:   AC3 Dolby Digital; 448 Kbps; 6 channels; 48 KHzBDRipПодробнееПроф. (многоголосый)MKV2.91 ГБскачатьПродолжительность: 02:04:39Формат: MKVВидео кодек: AVCАудио кодек: AC3Видео:   1056x572 (16:9), 2446 kbps, 23,976 fps, 0,169 bppАудио:   Аудио №1: AC3 / 5.1 / 48 kHz / 448 kbps / 16 bit | RUS Аудио №2: AC3 / 5.1 / 48 kHz / 448 kbps / 16 bit | ENG BDRipПодробнееПроф. (многоголосый)AVI2.18 ГБскачатьПродолжительность: 02:04:39Формат: AVIВидео кодек: XviDАудио кодек: AC3Видео:   704x384 (1.83:1), 23.976 fps, XviD build 65 ~2052 kbps avg, 0.32 bit/pixelАудио:   48 kHz, AC3 Dolby Digital, 3/2 (L,C,R,l,r) + LFE ch, ~448 kbps avg (RUS)

torrentskino.info


Смотрите также