Свет в океане скачать торрент в хорошем качестве hd 720


Фильм Свет в океане (2016) скачать торрент в хорошем качестве WEB-DLRip

Название: Свет в океане (Свет между океанами) Оригинальное название: The Light Between Oceans Год выпуска: 2016 Жанр: Драма, мелодрама Режиссер: Дерек Сиенфрэнс В ролях: Майкл Фассбендер, Алисия Викандер, Рэйчел Вайз, Флоренс Клери, Джек Томпсон, Томас Унгер, Джейн Менелос, Гарри МакДональд, Энтони Хэйес, Бенедикт Харди

Чувства, которые могут раскрываться для каждого человека в самые неожиданные периоды его жизни, становятся самыми ценными. И такие ощущения порой нельзя забыть на протяжений всей жизни. Так и в данной истории, где героями становятся люди, учесть которых станет воспитание красивой и милейшей девочки. Но именно она и принесет разрушение и столь серьезные страдания в их жизнь. Сюжетом к данной истории послужит находка, которую сделают в открытом океане, давая надежду на выживание. Так смотритель морского маяка и его жена, находясь в дали от островной части Австралии найдут мертвого мужчину и девочку, которая будут совершенно маленькой. Ради ее спасания они оставят все свои предрассудки и будут воспитывать ее как свою родную. Но с течением времени, придется отправить ее учится и прибыть на большую землю. Там с течением времени встреча родной матери девочки озадачит молодую пару людей. И теперь придется решать, рассказать свою страшную тайну или скрыть все события от родной матери. Мучение и раздражение, которое будет раздирать сердца обеих женщин будет невыносимым. Но нужно будет принять решение и дать повод вырваться чувствам наружу. Главное оставаться человеком и не предавать все свои ощущения и понимания счастья и благоразумия.Непростая история, которая будет способна затронуть за больное и чувственность каждого человека, показывая насколько тяжело и порой непросто демонстрировать свои чувственность и желания. Давая повод окунуться в страдания и счастье, доверяясь судьбе. За что кинолента и получает в жанре драмы стол высокие 10 из 10. А великолепно исполненные роли, полноценно перенесут каждого зрителя в небывалые переживания и эмоциональные потрясения. давая возможности понять суть происходящего.

Страна: Великобритания, Новая Зеландия, США Студия: Amblin Entertainment, DreamWorks SKG Продолжительность: 02:12:39 Перевод: Дублированный | iTunes

Формат: AVI Качество: WEB-DLRip Видео: XviD, 704x288, 23.976 fps, 1962 kbps Аудио: AC3, 6 ch, 384 kbps Субтитры: Русские форсированные (отдельно)

Поиск торрент раздач, пожалуйста подождите!

Информация о торрент файле

Скачать торрент Торрент: Зарегистрирован Статус: v Проверено Просмотров: 884 Категория: мелодрамы Общий размер: 2.18 GB

Поделитесь ссылкой на наш сайт с друзьями в соц.сетях ↓

mega-torrent.co

/ The Light Between Oceans (2016) BDRip 720p

: : The Light Between Oceans: , , : Amblin Entertainment, DreamWorks SKG: , : 2016: 02:12:51

: . . , . , , .

: MPEG-4 AVC, 6396 /, 1280x534, 23,976 fps: Rus, AC3, 384 kb/s (6 ch), 48 kHz 2: Eng, AC3, 640 kb/s (6 ch), 48 kHz : softsub (SRT)

x264 [info]: frame I:1049 Avg QP:13.55 size:122849x264 [info]: frame P:35964 Avg QP:15.03 size: 61279x264 [info]: frame B:154109 Avg QP:16.92 size: 27179x264 [info]: consecutive B-frames: 1.2% 1.2% 4.7% 10.9% 13.6% 51.8% 5.7% 1.0% 3.4% 2.2% 2.7% 1.5%

Format : MatroskaFormat version : Version 4 / Version 2File size : 7.03 GiBDuration : 2h 12mnOverall bit rate : 7 571 KbpsMovie name : . (Tonik)Encoded date : UTC 2017-01-11 03:30:55Writing application : mkvmerge v7.1.0 ('Good Love') 64bit built on Jul 27 2014 13:06:55Writing library : libebml v1.3.0 + libmatroska v1.4.1_STATISTICS_WRITING_APP : mkvmerge v7.1.0 ('Good Love') 64bit built on Jul 27 2014 13:06:55_STATISTICS_WRITING_DATE_UTC : 2017-01-11 03:30:55_STATISTICS_TAGS : BPS DURATION NUMBER_OF_FRAMES NUMBER_OF_BYTESDURATION : 02:12:50.976000000NUMBER_OF_FRAMES : 249093NUMBER_OF_BYTES : 382606848

VideoID : 1Format : AVCFormat/Info : Advanced Video CodecFormat profile : [email protected]Format settings, CABAC : YesFormat settings, ReFrames : 12 framesCodec ID : V_MPEG4/ISO/AVCDuration : 2h 12mnBit rate : 6 396 KbpsWidth : 1 280 pixelsHeight : 534 pixelsDisplay aspect ratio : 2.40:1Frame rate mode : ConstantFrame rate : 23.976 fpsColor space : YUVChroma subsampling : 4:2:0Bit depth : 8 bitsScan type : ProgressiveBits/(Pixel*Frame) : 0.390Stream size : 5.94 GiB (84%)Title : TonikWriting library : x264 core 148 r2744 b97ae06Encoding settings : cabac=1 / ref=12 / deblock=1:-3:-3 / analyse=0x3:0x133 / me=umh / subme=11 / psy=1 / psy_rd=1.00:0.00 / mixed_ref=1 / me_range=32 / chroma_me=1 / trellis=2 / 8x8dct=1 / cqm=0 / deadzone=21,11 / fast_pskip=0 / chroma_qp_offset=-2 / threads=12 / lookahead_threads=3 / sliced_threads=0 / nr=0 / decimate=0 / interlaced=0 / bluray_compat=0 / constrained_intra=0 / bframes=11 / b_pyramid=2 / b_adapt=2 / b_bias=0 / direct=1 / weightb=1 / open_gop=0 / weightp=2 / keyint=250 / keyint_min=23 / scenecut=40 / intra_refresh=0 / rc=crf / mbtree=0 / crf=16.0 / qcomp=0.60 / qpmin=0 / qpmax=69 / qpstep=4 / ip_ratio=1.40 / pb_ratio=1.30 / aq=1:0.80Language : EnglishDefault : YesForced : No_STATISTICS_WRITING_APP : mkvmerge v7.1.0 ('Good Love') 64bit built on Jul 27 2014 13:06:55_STATISTICS_WRITING_DATE_UTC : 2017-01-11 03:30:55_STATISTICS_TAGS : BPS DURATION NUMBER_OF_FRAMES NUMBER_OF_BYTESDURATION : 02:12:51.393000000NUMBER_OF_FRAMES : 191122NUMBER_OF_BYTES : 6521263692

Audio #1ID : 2Format : AC-3Format/Info : Audio Coding 3Mode extension : CM (complete main)Format settings, Endianness : BigCodec ID : A_AC3Duration : 2h 12mnBit rate mode : ConstantBit rate : 384 KbpsChannel(s) : 6 channelsChannel positions : Front: L C R, Side: L R, LFESampling rate : 48.0 KHzBit depth : 16 bitsCompression mode : LossyStream size : 365 MiB (5%)Title : iTunesLanguage : RussianDefault : YesForced : No

Audio #2ID : 3Format : AC-3Format/Info : Audio Coding 3Mode extension : CM (complete main)Format settings, Endianness : BigCodec ID : A_AC3Duration : 2h 12mnBit rate mode : ConstantBit rate : 640 KbpsChannel(s) : 6 channelsChannel positions : Front: L C R, Side: L R, LFESampling rate : 48.0 KHzBit depth : 16 bitsCompression mode : LossyStream size : 608 MiB (8%)Language : EnglishDefault : NoForced : No

Text #1ID : 4Format : UTF-8Codec ID : S_TEXT/UTF8Codec ID/Info : UTF-8 Plain TextTitle : ForcedLanguage : RussianDefault : YesForced : No

Text #2ID : 5Format : UTF-8Codec ID : S_TEXT/UTF8Codec ID/Info : UTF-8 Plain TextLanguage : RussianDefault : NoForced : No

Text #3ID : 6Format : UTF-8Codec ID : S_TEXT/UTF8Codec ID/Info : UTF-8 Plain TextTitle : ForcedLanguage : EnglishDefault : NoForced : No

Text #4ID : 7Format : UTF-8Codec ID : S_TEXT/UTF8Codec ID/Info : UTF-8 Plain TextLanguage : EnglishDefault : NoForced : No

Menu00:00:00.000 : :Chapter 0100:04:55.127 : :Chapter 0200:11:38.530 : :Chapter 0300:17:30.007 : :Chapter 0400:23:07.469 : :Chapter 0500:29:35.815 : :Chapter 0600:35:21.952 : :Chapter 0700:42:35.676 : :Chapter 0800:49:51.822 : :Chapter 0900:55:14.184 : :Chapter 1000:59:26.061 : :Chapter 1101:05:48.027 : :Chapter 1201:10:52.957 : :Chapter 1301:13:14.722 : :Chapter 1401:22:34.032 : :Chapter 1501:31:42.954 : :Chapter 1601:42:29.100 : :Chapter 1701:51:31.016 : :Chapter 1802:01:29.323 : :Chapter 1902:07:08.621 : :Chapter 2002:12:51.171 : :Chapter 21

hdreactor.info

Фильм Свет в океане (2016) скачать торрент в хорошем качестве BDRip 720p

Название: Свет в океане (Свет между океанами) Оригинальное название: The Light Between Oceans Год выпуска: 2016 Жанр: Драма, мелодрама Режиссер: Дерек Сиенфрэнс В ролях: Майкл Фассбендер, Алисия Викандер, Рэйчел Вайз, Флоренс Клери, Джек Томпсон, Томас Унгер, Джейн Менелос, Гарри МакДональд, Энтони Хэйес, Бенедикт Харди

Чувства, которые могут раскрываться для каждого человека в самые неожиданные периоды его жизни, становятся самыми ценными. И такие ощущения порой нельзя забыть на протяжений всей жизни. Так и в данной истории, где героями становятся люди, учесть которых станет воспитание красивой и милейшей девочки. Но именно она и принесет разрушение и столь серьезные страдания в их жизнь. Сюжетом к данной истории послужит находка, которую сделают в открытом океане, давая надежду на выживание. Так смотритель морского маяка и его жена, находясь в дали от островной части Австралии найдут мертвого мужчину и девочку, которая будут совершенно маленькой. Ради ее спасания они оставят все свои предрассудки и будут воспитывать ее как свою родную. Но с течением времени, придется отправить ее учится и прибыть на большую землю. Там с течением времени встреча родной матери девочки озадачит молодую пару людей. И теперь придется решать, рассказать свою страшную тайну или скрыть все события от родной матери. Мучение и раздражение, которое будет раздирать сердца обеих женщин будет невыносимым. Но нужно будет принять решение и дать повод вырваться чувствам наружу. Главное оставаться человеком и не предавать все свои ощущения и понимания счастья и благоразумия.Непростая история, которая будет способна затронуть за больное и чувственность каждого человека, показывая насколько тяжело и порой непросто демонстрировать свои чувственность и желания. Давая повод окунуться в страдания и счастье, доверяясь судьбе. За что кинолента и получает в жанре драмы стол высокие 10 из 10. А великолепно исполненные роли, полноценно перенесут каждого зрителя в небывалые переживания и эмоциональные потрясения. давая возможности понять суть происходящего..

Страна: Великобритания, Новая Зеландия, США Студия: Amblin Entertainment, DreamWorks SKG Продолжительность: 02:12:51 Перевод: Дублированный | iTunes

Качество: BDRip 720p Видео: MPEG-4 AVC, 1280x536, 5557 Kbit/s, 23.976 fps Звук: Аудио #01: 48 kHz, AC3, 5.1, 384 Kbps | Дублированный | iTunes |Аудио #02: 48 kHz, DTS, 5.1, 1510 kbps | Оригинал |Субтитры: Русские (полные, форсированные), английские

Поиск торрент раздач, пожалуйста подождите!

Информация о торрент файле

Скачать торрент Торрент: Зарегистрирован Статус: v Проверено Просмотров: 181 Категория: драмы Общий размер: 6.91 GB

Поделитесь ссылкой на наш сайт с друзьями в соц.сетях ↓

mega-torrent.co

Свет в океане через торрент

piratbit.ru

Размер: 1.37 GB | Добавлен: 1 год 1 мес. назад | Торрент скачан:185 раз
Реклама Дарим 3000 рублей за регистрацию, не упусти свой шанс получить шикарный бонус!!!

11-09-2016 08:53 Свет в океане Скачать торрент  

Свет в океане / The Light Between Oceans ««Love demands everything»» ИНФОРМАЦИЯ: Год выпуска:2016 Страна: Великобритания, Новая Зеландия, США Жанр: драма, мелодрама Продолжительность: 02:03:00 Перевод: Дубляж Режиссер: Дерек СиенфрэнсВ Ролях: Майкл Фассбендер (Tom Sherbourne), Алисия Викандер (Isabel Graysmark), Рэйчел Вайс (Hannah Roennfeldt), Флоренс Клери (Lucy-Grace), Джек Томпсон (Ralph Addicott), Томас Унгер (Bluey Smart), Джейн Менелос (Violet Graysmark), Гарри МакДональд (Bill Graysmark), Энтони Хэйес (Sergeant Vernon Knuckey), Бенедикт Харди (Constable Harry Garstone), Эмили Барклай (Gwen Potts), Брайан Браун (Septimus Potts)Описание: Вернувшийся с войны смотритель маяка Том встречает трепетную девушку по имени Изабель. Зародившаяся между ними любовь полностью преображает Изабель и возвращает опустошенному Тому веру в жизнь. Молодожены поселяются на уединенном острове, к берегу которого однажды пристает лодка с новорожденной девочкой. Супруги решают воспитать младенца как родную дочь, не представляя, насколько разрушительными будут последствия этого выбора.
  • Мировая премьера:1 сентября 2016 ТЕХ.ДАННЫЕ: Качество: CamRip Формат: AVI Видео: XviD, 720x288 (2.500), 1390 kbps, 29,970 fps, 0,224 bpp Аудио: AC3 / 2.0 / 48 kHz / 128 kbps / GeneralComplete name : W:\Торенты\The.Light.Between.Oceans.2O16.D.CAMRip.14OOMB.aviFormat : AVIFormat/Info : Audio Video InterleaveFile size : 1.37 GiBDuration : 2 h 3 minOverall bit rate : 1 590 kb/sWriting application : VirtualDubMod 1.5.10.2 (build 2540/release)Writing library : VirtualDubMod build 2540/release

    VideoID : 0Format : MPEG-4 VisualFormat profile : Advanced [email protected] settings, BVOP : 2Format settings, QPel : NoFormat settings, GMC : No warppointsFormat settings, Matrix : CustomCodec ID : XVIDCodec ID/Hint : XviDDuration : 2 h 3 minBit rate : 1 391 kb/sWidth : 720 pixelsHeight : 288 pixelsDisplay aspect ratio : 2.500Frame rate : 29.970 (30000/1001) FPSColor space : YUVChroma subsampling : 4:2:0Bit depth : 8 bitsScan type : ProgressiveCompression mode : LossyBits/(Pixel*Frame) : 0.224Stream size : 1.19 GiB (87%)Writing library : XviD 1.2.1 (UTC 2008-12-04)

    AudioID : 1Format : AC-3Format/Info : Audio Coding 3Mode extension : CM (complete main)Format settings, Endianness : BigCodec ID : 2000Duration : 2 h 3 minBit rate mode : ConstantBit rate : 128 kb/sChannel(s) : 2 channelsChannel positions : Front: L RSampling rate : 48.0 kHzFrame rate : 31.250 FPS (1536 spf)Compression mode : LossyStream size : 113 MiB (8%)Alignment : Split accross interleaves

    Скриншоты: © Оформление by .::Ворон::.
  • KВорон писал(а):

    Реклама от спонсора!

    Скачать Свет в океане через торрент http://piratpic.ru/images/6/ordi9.jpg Скачать фильм Свет в океане через торрент бесплантно в хорошем качестве Описание: Вернувшийся с войны смотритель маяка Том встречает трепетную девушку по имени Изабель. Зародившаяся между ними любовь полностью ... 2016-09-11 08:53 10 10 8

    Loading...

    Loading...

    % Раздел Тема Автор DL S | L
    Фильмы 2016 [DVDrip, WEB-DLRip, HDrip] (DUB, MVO) [ 1.46 GB ] Свет в океане / The Light Between Oceans [2016 BDRip-AVC] DUB [] bober100 Скачать
    Фильмы 2016 [DVDrip, WEB-DLRip, HDrip] (DUB, MVO) [ 2.18 GB ] Свет в океане / The Light Between Oceans [2016 BDRip] - [] Twi7ter Скачать
    Фильмы 2016 [DVDrip, WEB-DLRip, HDrip] (DUB, MVO) [ 1.46 GB ] Свет в океане / The Light Between Oceans [2016 BDRip] - [] Twi7ter Скачать
    Фильмы [HD 720p, 1080p] (Хороший звук DUB, MVO) [ 15.9 GB ] Свет в океане / The Light Between Oceans [2016 BDRip 1080p] - [] -Lexx- Скачать
    Фильмы 2016 [DVDrip, WEB-DLRip, HDrip] (DUB, MVO) [ 2.19 GB ] Свет в океане / The Light Between Oceans [2016 BDRip] - [] -Lexx- Скачать
    Фильмы (Blu-ray, BD-Remux, HDDVD) [ 27.98 GB ] Свет в океане / The Light Between Oceans [2016 Blu-Ray 1080p] / RUS Transfer / / -Lexx- Скачать
    Фильмы (WEB-DL 720p, 1080p) [ 5.01 GB ] Свет в океане / The Light Between Oceans [2016 WEB-DL 1080p] - -Lexx- Скачать

    Рекламный пират

    09-10-2016 20:16 Свет в океане Скачать торрент  

    Гляну на ночь, спасибо.

    Дорогой пользователь! Огромная просьба, поблагодарите релизера, оцените раздачу и оставьте свои комментарий, если Вы скачали Свет в океане через торрент бесплатно! Внесите свою лепту в развитие PiratBit!

    Комментировать посты могут только пользователи прошедшие не сложную регистрацию

    Свет в океане через торрент Скачать бесплатно Свет в океане Свет в океане скачать торрент Свет в океане смотреть онлайн Cкачать фильм Свет в океане бесплатно Свет в океане скачать торрент в хорошем качестве Свет в океане смотреть онлайн бесплатно в хорошем качестве

    Вы можете начинать темыВы можете отвечать на сообщенияВы не можете редактировать свои сообщенияВы не можете удалять свои сообщенияВы не можете голосовать в опросахВы не можете прикреплять файлы к сообщениямВы можете скачивать файлы

    Скачать фильм Свет в океане через торрент в хорошем качестве бесплатно WEB-DLRip

    piratbit.ru

    Раздают: 2 [ 0 KB/s ]
    Размер: 1.46 GB | Добавлен: 10 мес. назад | Торрент скачан:932 раза
    Реклама Дарим 3000 рублей за регистрацию, не упусти свой шанс получить шикарный бонус!!!

    10-12-2016 16:48 Свет в океане Скачать торрент  

    Свет в океане / The Light Between Oceans Год выпуска: 2016Страна: Великобритания, Новая Зеландия, СШАЖанр: драма, мелодрама

    Продолжительность: 02:12:39Перевод: Дубляж - [Лицензия / iTunes]Субтитры: Русские форсированные (отдельно)

    Режиссер: Дерек СиенфрэнсВ ролях: Майкл Фассбендер (Tom Sherbourne), Алисия Викандер (Isabel Graysmark), Рэйчел Вайс (Hannah Roennfeldt), Флоренс Клери (Lucy-Grace), Джек Томпсон (Ralph Addicott), Томас Унгер (Bluey Smart), Джейн Менелос (Violet Graysmark), Гарри МакДональд (Bill Graysmark), Энтони Хэйес (Sergeant Vernon Knuckey), Бенедикт Харди (Constable Harry Garstone), Эмили Барклай (Gwen Potts), Брайан Браун (Septimus Potts)Описание: Вернувшийся с войны смотритель маяка Том встречает трепетную девушку по имени Изабель. Зародившаяся между ними любовь полностью преображает Изабель и возвращает опустошенному Тому веру в жизнь. Молодожены поселяются на уединенном острове, к берегу которого однажды пристает лодка с новорожденной девочкой. Супруги решают воспитать младенца как родную дочь, не представляя, насколько разрушительными будут последствия этого выбора.Рейтинг: MPAA: PG-13 - Детям до 13 лет просмотр не желателенКачество: WEB-DLRipФормат: AVIВидео: XviD, 704x288 (2.40:1), 1312 kbps, 23,976 fps, 0,270 bppАудио: AC3 / 2.0 / 48 kHz / 192 kbps /Релиз от: MegaPeerGeneralComplete name : E:\The.Light.Between.Oceans.2016.WEB-DLRip.1.46Gb.MegaPeer\The.Light.Between.Oceans.2016.WEB-DLRip.1.46Gb.MegaPeer.aviFormat : AVIFormat/Info : Audio Video InterleaveFile size : 1.46 GiBDuration : 2 h 12 minOverall bit rate : 1 576 kb/s

    VideoID : 0Format : MPEG-4 VisualFormat profile : Advanced [email protected] settings, BVOP : 1Format settings, QPel : NoFormat settings, GMC : No warppointsFormat settings, Matrix : CustomCodec ID : XVIDCodec ID/Hint : XviDDuration : 2 h 12 minBit rate : 1 312 kb/sWidth : 704 pixelsHeight : 288 pixelsDisplay aspect ratio : 2.40:1Frame rate : 23.976 (24000/1001) FPSColor space : YUVChroma subsampling : 4:2:0Bit depth : 8 bitsScan type : ProgressiveCompression mode : LossyBits/(Pixel*Frame) : 0.270Stream size : 1.22 GiB (83%)Writing library : XviD 73

    AudioID : 1Format : AC-3Format/Info : Audio Coding 3Mode extension : CM (complete main)Format settings, Endianness : BigCodec ID : 2000Duration : 2 h 12 minBit rate mode : ConstantBit rate : 192 kb/sChannel(s) : 2 channelsChannel positions : Front: L RSampling rate : 48.0 kHzFrame rate : 31.250 FPS (1536 spf)Compression mode : LossyStream size : 182 MiB (12%)Alignment : Aligned on interleavesTitle : iTunes

    Скачать Свет в океане через торрент http://i3.imageban.ru/out/2016/12/10/f3a5eaccad2f9474f2158065bc52d7d8.png Скачать фильм Свет в океане через торрент бесплантно в хорошем качестве Описание: Вернувшийся с войны смотритель маяка Том встречает трепетную девушку по имени Изабель. Зародившаяся между ними любовь полностью ... 2016-12-10 16:48 9.5 10 23

    Loading...

    Loading...

    % Раздел Тема Автор DL S | L
    Фильмы 2016 [DVDrip, WEB-DLRip, HDrip] (DUB, MVO) [ 1.46 GB ] Свет в океане / The Light Between Oceans [2016 BDRip-AVC] DUB [] bober100 Скачать
    Фильмы 2016 [DVDrip, WEB-DLRip, HDrip] (DUB, MVO) [ 2.18 GB ] Свет в океане / The Light Between Oceans [2016 BDRip] - [] Twi7ter Скачать
    Фильмы 2016 [DVDrip, WEB-DLRip, HDrip] (DUB, MVO) [ 1.46 GB ] Свет в океане / The Light Between Oceans [2016 BDRip] - [] Twi7ter Скачать
    Фильмы [HD 720p, 1080p] (Хороший звук DUB, MVO) [ 15.9 GB ] Свет в океане / The Light Between Oceans [2016 BDRip 1080p] - [] -Lexx- Скачать
    Фильмы 2016 [DVDrip, WEB-DLRip, HDrip] (DUB, MVO) [ 2.19 GB ] Свет в океане / The Light Between Oceans [2016 BDRip] - [] -Lexx- Скачать
    Фильмы (Blu-ray, BD-Remux, HDDVD) [ 27.98 GB ] Свет в океане / The Light Between Oceans [2016 Blu-Ray 1080p] / RUS Transfer / / -Lexx- Скачать
    Фильмы (WEB-DL 720p, 1080p) [ 5.01 GB ] Свет в океане / The Light Between Oceans [2016 WEB-DL 1080p] - -Lexx- Скачать

    Рекламный пират

    10-12-2016 19:42 Свет в океане Скачать торрент  

    Спасибо за кино. Будем смотреть должно добротное кино

    12-12-2016 15:17 Свет в океане Скачать торрент  

    Шедевр!Проревел всю вторую половину фильма :)Последний раз такая истерика со мной была только от фильмов "Искусственный разум" (2001) и "Я - начало" (2014).Спасибо :)

    12-12-2016 15:52 Свет в океане Скачать торрент  

    Спасибо! Фильм очень понравился всей семье, рекомендую

    Дорогой пользователь! Огромная просьба, поблагодарите релизера, оцените раздачу и оставьте свои комментарий, если Вы скачали Свет в океане через торрент бесплатно! Внесите свою лепту в развитие PiratBit!

    Комментировать посты могут только пользователи прошедшие не сложную регистрацию

    Свет в океане через торрент Скачать бесплатно Свет в океане Свет в океане скачать торрент Свет в океане смотреть онлайн Cкачать фильм Свет в океане бесплатно Свет в океане скачать торрент в хорошем качестве Свет в океане смотреть онлайн бесплатно в хорошем качестве

    Вы можете начинать темыВы можете отвечать на сообщенияВы не можете редактировать свои сообщенияВы не можете удалять свои сообщенияВы не можете голосовать в опросахВы не можете прикреплять файлы к сообщениямВы можете скачивать файлы

    Скачать фильм Свет в океане через торрент в хорошем качестве бесплатно BDRip

    piratbit.ru

    Раздают: 1 [ 0 KB/s ]
    Размер: 2.19 GB | Добавлен: 7 мес. назад | Торрент скачан:311 раз
    Реклама Дарим 3000 рублей за регистрацию, не упусти свой шанс получить шикарный бонус!!!

    10-03-2017 13:44 Свет в океане Скачать торрент  

    Свет в океане / The Light Between Oceans Год выпуска: 2016Страна: Великобритания, Новая Зеландия, СШАЖанр: драма, мелодрама

    Продолжительность: 02:12:51Перевод: Дубляж - [Лицензия]Субтитры: Русские форсированные (отдельно)

    Режиссер: Дерек СиенфрэнсВ ролях: Майкл Фассбендер (Tom Sherbourne), Алисия Викандер (Isabel Graysmark), Рэйчел Вайс (Hannah Roennfeldt), Флоренс Клери (Lucy-Grace), Джек Томпсон (Ralph Addicott), Томас Унгер (Bluey Smart), Джейн Менелос (Violet Graysmark), Гарри МакДональд (Bill Graysmark), Энтони Хэйес (Sergeant Vernon Knuckey), Бенедикт Харди (Constable Harry Garstone), Эмили Барклай (Gwen Potts), Брайан Браун (Septimus Potts)Описание: Вернувшийся с войны смотритель маяка Том встречает трепетную девушку по имени Изабель. Зародившаяся между ними любовь полностью преображает Изабель и возвращает опустошенному Тому веру в жизнь. Молодожены поселяются на уединенном острове, к берегу которого однажды пристает лодка с новорожденной девочкой. Супруги решают воспитать младенца как родную дочь, не представляя, насколько разрушительными будут последствия этого выбора.Рейтинг: MPAA: PG-13 - Детям до 13 лет просмотр не желателенКачество: BDRipФормат: AVIВидео: XviD, 720x304 (2.35:1), 1894 kbps, 23,976 fps, 0,361 bppАудио: AC3 / 5.1 / 48 kHz / 448 kbps /Релиз от: MegaPeerGeneralComplete name : E:\The.Light.Between.Oceans.2016.BDRip.2.18Gb.Dub.MegaPeer\The.Light.Between.Oceans.2016.BDRip.2.18Gb.Dub.MegaPeer.aviFormat : AVIFormat/Info : Audio Video InterleaveFormat profile : OpenDMLFile size : 2.19 GiBDuration : 2 h 12 minOverall bit rate : 2 355 kb/sWriting application : VirtualDubMod 1.5.10.3 | www.virtualdub-fr.org || (build 2550/release)Writing library : VirtualDubMod build 2550/release

    VideoID : 0Format : MPEG-4 VisualFormat profile : Advanced [email protected] settings, BVOP : 1Format settings, QPel : NoFormat settings, GMC : No warppointsFormat settings, Matrix : CustomCodec ID : XVIDCodec ID/Hint : XviDDuration : 2 h 12 minBit rate : 1 895 kb/sWidth : 720 pixelsHeight : 304 pixelsDisplay aspect ratio : 2.35:1Frame rate : 23.976 (24000/1001) FPSColor space : YUVChroma subsampling : 4:2:0Bit depth : 8 bitsScan type : ProgressiveCompression mode : LossyBits/(Pixel*Frame) : 0.361Stream size : 1.76 GiB (80%)Writing library : XviD 73

    AudioID : 1Format : AC-3Format/Info : Audio Coding 3Mode extension : CM (complete main)Format settings, Endianness : BigCodec ID : 2000Duration : 2 h 12 minBit rate mode : ConstantBit rate : 448 kb/sChannel(s) : 6 channelsChannel positions : Front: L C R, Side: L R, LFESampling rate : 48.0 kHzFrame rate : 31.250 FPS (1536 spf)Compression mode : LossyStream size : 426 MiB (19%)Alignment : Split accross interleavesInterleave, duration : 42 ms (1.00 video frame)Interleave, preload duration : 500 ms

    Скачать Свет в океане через торрент http://i2.imageban.ru/out/2017/03/10/7478c90249b0a09ae10ee1d8d2256a46.jpg Скачать фильм Свет в океане через торрент бесплантно в хорошем качестве Описание: Вернувшийся с войны смотритель маяка Том встречает трепетную девушку по имени Изабель. Зародившаяся между ними любовь полностью ... 2017-03-10 13:44 8.9 10 10

    Loading...

    Loading...

    % Раздел Тема Автор DL S | L
    Фильмы 2016 [DVDrip, WEB-DLRip, HDrip] (DUB, MVO) [ 1.46 GB ] Свет в океане / The Light Between Oceans [2016 BDRip-AVC] DUB [] bober100 Скачать
    Фильмы 2016 [DVDrip, WEB-DLRip, HDrip] (DUB, MVO) [ 2.18 GB ] Свет в океане / The Light Between Oceans [2016 BDRip] - [] Twi7ter Скачать
    Фильмы 2016 [DVDrip, WEB-DLRip, HDrip] (DUB, MVO) [ 1.46 GB ] Свет в океане / The Light Between Oceans [2016 BDRip] - [] Twi7ter Скачать
    Фильмы [HD 720p, 1080p] (Хороший звук DUB, MVO) [ 15.9 GB ] Свет в океане / The Light Between Oceans [2016 BDRip 1080p] - [] -Lexx- Скачать
    Фильмы (Blu-ray, BD-Remux, HDDVD) [ 27.98 GB ] Свет в океане / The Light Between Oceans [2016 Blu-Ray 1080p] / RUS Transfer / / -Lexx- Скачать
    Фильмы (WEB-DL 720p, 1080p) [ 5.01 GB ] Свет в океане / The Light Between Oceans [2016 WEB-DL 1080p] - -Lexx- Скачать
    Фильмы 2016 [DVDrip, WEB-DLRip, HDrip] (DUB, MVO) [ 2.12 GB ] Свет в океане / The Light Between Oceans [2016 BDRip] - Twi7ter Скачать

    Рекламный пират

    Дорогой пользователь! Огромная просьба, поблагодарите релизера, оцените раздачу и оставьте свои комментарий, если Вы скачали Свет в океане через торрент бесплатно! Внесите свою лепту в развитие PiratBit!

    Комментировать посты могут только пользователи прошедшие не сложную регистрацию

    Свет в океане через торрент Скачать бесплатно Свет в океане Свет в океане скачать торрент Свет в океане смотреть онлайн Cкачать фильм Свет в океане бесплатно Свет в океане скачать торрент в хорошем качестве Свет в океане смотреть онлайн бесплатно в хорошем качестве

    Вы не можете начинать темыВы не можете отвечать на сообщенияВы не можете редактировать свои сообщенияВы не можете удалять свои сообщенияВы не можете голосовать в опросахВы не можете прикреплять файлы к сообщениямВы можете скачивать файлы


    Смотрите также