Стыд скачать торрент в хорошем качестве


2011 hd 720, 1080

vtorrents.net

!

: : Shame : 2011: : : , , , , , , - , , ,

IMDB: 7.2/10 (157 634 ) : 6.6/10 (41 625 )

:? 30- -, . , , - -. , . , .

: : 1 41 :

: AVI (XviD): TS

475

890

udp://shubt.net:2710

22 22 15

udp://tracker.openbittorrent.com:80/announce

52 23 80

udp://tracker.publicbt.com:80/announce

34 66 37

udp://open.demonii.com:1337

36 89 100

http://tracker.filetracker.pl:8089/announce

14 29 42

http://tracker2.wasabii.com.tw:6969/announce

20 88 28

http://tracker.grepler.com:6969/announce

41 85 30

http://125.227.35.196:6969/announce

30 13 88

http://tracker.tiny-vps.com:6969/announce

46 71 26

http://87.248.186.252:8080/announce

24 89 11

http://210.244.71.25:6969/announce

20 65 107

http://46.4.109.148:6969/announce

59 17 99

http://tracker.dler.org:6969/announce

44 86 17

udp://[2001:67c:28f8:92::1111:1]:2710

13 96 99

udp://ipv6.leechers-paradise.org:6969

20 51 44

1,36 Gb

279

Styd.2011.XviD.HDRip.ELEKTRI4KA.avi (1,36 Gb)

661

697

udp://shubt.net:2710

5 47 2

udp://open.demonii.com:1337

72 34 29

http://tracker.filetracker.pl:8089/announce

61 100 18

http://tracker2.wasabii.com.tw:6969/announce

92 95 54

http://tracker.grepler.com:6969/announce

86 14 14

http://125.227.35.196:6969/announce

61 82 70

http://tracker.tiny-vps.com:6969/announce

66 67 47

http://87.248.186.252:8080/announce

23 77 12

http://210.244.71.25:6969/announce

4 1 3

http://46.4.109.148:6969/announce

82 23 26

http://tracker.dler.org:6969/announce

73 72 63

udp://[2001:67c:28f8:92::1111:1]:2710

17 39 16

udp://ipv6.leechers-paradise.org:6969

19 46 88

4,83 Gb

12

Styd.2011.DUAL.BDRip.720p.x264.AC3.-HQ-ViDEO.mkv (4,83 Gb)

653

877

udp://shubt.net:2710

8 25 8

udp://tracker.openbittorrent.com:80/announce

11 35 54

udp://tracker.publicbt.com:80/announce

42 71 89

udp://open.demonii.com:1337

81 28 21

http://tracker.filetracker.pl:8089/announce

42 64 32

http://tracker2.wasabii.com.tw:6969/announce

15 55 74

http://tracker.grepler.com:6969/announce

67 67 99

http://125.227.35.196:6969/announce

44 93 82

http://tracker.tiny-vps.com:6969/announce

51 55 64

http://87.248.186.252:8080/announce

31 26 23

http://210.244.71.25:6969/announce

31 91 80

http://46.4.109.148:6969/announce

58 87 89

http://tracker.dler.org:6969/announce

69 59 83

udp://[2001:67c:28f8:92::1111:1]:2710

17 89 77

udp://ipv6.leechers-paradise.org:6969

86 32 78

7,75 Gb

18

Styd.(2011).BDRip.1080p.[envy].mkv (7,75 Gb)

Скачать фильм Стыд через торрент в хорошем качестве бесплатно 720p

ОбщееУникальный идентификатор : 238233438149781703558551817937180620195 (0xB33A175AC39642F7BAE5819D68AEF5A3)Полное имя : F:Стыд.2011.BDRip.720p.mkvФормат : MatroskaВерсия формата : Version 2Размер файла : 6,51 ГбайтПродолжительность : 1 ч. 41 м.Общий поток : 9222 Кбит/секНазвание фильма : СтыдДата кодирования : UTC 2012-06-20 15:34:03Программа кодирования : mkvmerge v5.1.0 ('And so it goes') built on Nov 28 2011 23:58:28Библиотека кодирования : libebml v1.2.3 + libmatroska v1.3.0

ВидеоИдентификатор : 1Формат : AVCФормат/Информация : Advanced Video CodecПрофиль формата : [email protected]Параметр CABAC формата : ДаПараметр ReFrames формата : 4 кадраИдентификатор кодека : V_MPEG4/ISO/AVCПродолжительность : 1 ч. 41 м.Битрейт : 5380 Кбит/секШирина : 1280 пикселейВысота : 544 пикселяСоотношение сторон : 2,35:1Режим частоты кадров : ПостоянныйЧастота кадров : 23,976 кадра/секЦветовое пространство : YUVСубдискретизация насыщенности : 4:2:0Битовая глубина : 8 битТип развёртки : ПрогрессивнаяБит/(Пиксели*Кадры) : 0.322Размер потока : 3,80 Гбайт (58%)Заголовок : СтыдБиблиотека кодирования : x264 core 116 r2057 0ba8a9cНастройки программы : cabac=1 / ref=3 / deblock=1:-3:-3 / analyse=0x3:0x133 / me=umh / subme=10 / psy=1 / psy_rd=1.00:0.00 / mixed_ref=1 / me_range=32 / chroma_me=1 / trellis=2 / 8x8dct=1 / cqm=0 / deadzone=21,11 / fast_pskip=0 / chroma_qp_offset=-2 / threads=18 / sliced_threads=0 / nr=0 / decimate=0 / interlaced=0 / bluray_compat=0 / constrained_intra=0 / bframes=7 / b_pyramid=2 / b_adapt=2 / b_bias=0 / direct=3 / weightb=1 / open_gop=0 / weightp=2 / keyint=250 / keyint_min=23 / scenecut=40 / intra_refresh=0 / rc_lookahead=40 / rc=crf / mbtree=0 / crf=17.0 / qcomp=0.65 / qpmin=0 / qpmax=40 / qpstep=4 / vbv_maxrate=50000 / vbv_bufsize=50000 / crf_max=0.0 / nal_hrd=none / ip_ratio=1.25 / pb_ratio=1.25 / aq=1:0.65Язык : EnglishDefault : ДаForced : Нет

Аудио #1Идентификатор : 2Формат : AC-3Формат/Информация : Audio Coding 3Расширение режима : CM (complete main)Параметр Endianness формата : BigИдентификатор кодека : A_AC3Продолжительность : 1 ч. 41 м.Вид битрейта : ПостоянныйБитрейт : 640 Кбит/секКаналы : 6 каналовРасположение каналов : Front: L C R, Side: L R, LFEЧастота : 48,0 КГцБитовая глубина : 16 битМетод сжатия : С потерямиРазмер потока : 463 Мбайт (7%)Заголовок : AC3 - ДубляжЯзык : RussianDefault : ДаForced : Нет

Аудио #2Идентификатор : 3Формат : DTSФормат/Информация : Digital Theater SystemsРежим : 16Параметр Endianness формата : BigИдентификатор кодека : A_DTSПродолжительность : 1 ч. 41 м.Вид битрейта : ПостоянныйБитрейт : 1509 Кбит/секКаналы : 6 каналовРасположение каналов : Front: L C R, Side: L R, LFEЧастота : 48,0 КГцБитовая глубина : 24 битМетод сжатия : С потерямиРазмер потока : 1,07 Гбайт (16%)Заголовок : DTS - AVO (Ю.Сербин)Язык : RussianDefault : НетForced : Нет

Аудио #3Идентификатор : 4Формат : DTSФормат/Информация : Digital Theater SystemsРежим : 16Параметр Endianness формата : BigИдентификатор кодека : A_DTSПродолжительность : 1 ч. 41 м.Вид битрейта : ПостоянныйБитрейт : 1509 Кбит/секКаналы : 6 каналовРасположение каналов : Front: L C R, Side: L R, LFEЧастота : 48,0 КГцБитовая глубина : 24 битМетод сжатия : С потерямиРазмер потока : 1,07 Гбайт (16%)Заголовок : DTSЯзык : EnglishDefault : НетForced : Нет

Текст #1Идентификатор : 5Формат : UTF-8Идентификатор кодека : S_TEXT/UTF8Идентификатор кодека/Информация : UTF-8 Plain TextЗаголовок : ak79Язык : RussianDefault : НетForced : Нет

Текст #2Идентификатор : 6Формат : UTF-8Идентификатор кодека : S_TEXT/UTF8Идентификатор кодека/Информация : UTF-8 Plain TextЗаголовок : Serene+dubЯзык : RussianDefault : НетForced : Нет

Текст #3Идентификатор : 7Формат : UTF-8Идентификатор кодека : S_TEXT/UTF8Идентификатор кодека/Информация : UTF-8 Plain TextЗаголовок : SDHЯзык : EnglishDefault : НетForced : Нет

Меню00:00:00.000 : en:Chapter 0100:09:10.216 : en:Chapter 0200:11:11.421 : en:Chapter 0300:12:51.020 : en:Chapter 0400:18:38.534 : en:Chapter 0500:22:56.083 : en:Chapter 0600:24:57.705 : en:Chapter 0700:26:25.793 : en:Chapter 0800:28:57.194 : en:Chapter 0900:34:04.084 : en:Chapter 1000:37:18.153 : en:Chapter 1100:42:53.488 : en:Chapter 1200:46:00.132 : en:Chapter 1300:53:37.297 : en:Chapter 1400:56:35.225 : en:Chapter 1501:00:27.958 : en:Chapter 1601:08:03.830 : en:Chapter 1701:09:49.560 : en:Chapter 1801:16:04.977 : en:Chapter 1901:22:47.588 : en:Chapter 2001:26:36.233 : en:Chapter 2101:31:31.277 : en:Chapter 2201:34:37.297 : en:Chapter 2301:36:23.778 : en:Chapter 24

piratbit.ru

2011 hd 720, 1080

vtorrents.net

!

: : Shame : 2011: : : , , , , , , - , , ,

IMDB: 7.2/10 (157 634 ) : 6.6/10 (41 625 )

:? 30- -, . , , - -. , . , .

: : 1 41 :

: AVI (XviD): TS

475

890

udp://shubt.net:2710

22 22 15

udp://tracker.openbittorrent.com:80/announce

52 23 80

udp://tracker.publicbt.com:80/announce

34 66 37

udp://open.demonii.com:1337

36 89 100

http://tracker.filetracker.pl:8089/announce

14 29 42

http://tracker2.wasabii.com.tw:6969/announce

20 88 28

http://tracker.grepler.com:6969/announce

41 85 30

http://125.227.35.196:6969/announce

30 13 88

http://tracker.tiny-vps.com:6969/announce

46 71 26

http://87.248.186.252:8080/announce

24 89 11

http://210.244.71.25:6969/announce

20 65 107

http://46.4.109.148:6969/announce

59 17 99

http://tracker.dler.org:6969/announce

44 86 17

udp://[2001:67c:28f8:92::1111:1]:2710

13 96 99

udp://ipv6.leechers-paradise.org:6969

20 51 44

1,36 Gb

279

Styd.2011.XviD.HDRip.ELEKTRI4KA.avi (1,36 Gb)

661

697

udp://shubt.net:2710

5 47 2

udp://open.demonii.com:1337

72 34 29

http://tracker.filetracker.pl:8089/announce

61 100 18

http://tracker2.wasabii.com.tw:6969/announce

92 95 54

http://tracker.grepler.com:6969/announce

86 14 14

http://125.227.35.196:6969/announce

61 82 70

http://tracker.tiny-vps.com:6969/announce

66 67 47

http://87.248.186.252:8080/announce

23 77 12

http://210.244.71.25:6969/announce

4 1 3

http://46.4.109.148:6969/announce

82 23 26

http://tracker.dler.org:6969/announce

73 72 63

udp://[2001:67c:28f8:92::1111:1]:2710

17 39 16

udp://ipv6.leechers-paradise.org:6969

19 46 88

4,83 Gb

12

Styd.2011.DUAL.BDRip.720p.x264.AC3.-HQ-ViDEO.mkv (4,83 Gb)

653

877

udp://shubt.net:2710

8 25 8

udp://tracker.openbittorrent.com:80/announce

11 35 54

udp://tracker.publicbt.com:80/announce

42 71 89

udp://open.demonii.com:1337

81 28 21

http://tracker.filetracker.pl:8089/announce

42 64 32

http://tracker2.wasabii.com.tw:6969/announce

15 55 74

http://tracker.grepler.com:6969/announce

67 67 99

http://125.227.35.196:6969/announce

44 93 82

http://tracker.tiny-vps.com:6969/announce

51 55 64

http://87.248.186.252:8080/announce

31 26 23

http://210.244.71.25:6969/announce

31 91 80

http://46.4.109.148:6969/announce

58 87 89

http://tracker.dler.org:6969/announce

69 59 83

udp://[2001:67c:28f8:92::1111:1]:2710

17 89 77

udp://ipv6.leechers-paradise.org:6969

86 32 78

7,75 Gb

18

Styd.(2011).BDRip.1080p.[envy].mkv (7,75 Gb)

Скачать фильм Стыд через торрент в хорошем качестве бесплатно BDRip-AVC

piratbit.ru

Раздают: 1 [ 0 KB/s ]
Размер: 2.18 GB | Добавлен: 5 лет 5 мес. назад | Торрент скачан:257 раз
Реклама Дарим 3000 рублей за регистрацию, не упусти свой шанс получить шикарный бонус!!!

18-05-2012 16:44 Стыд Скачать торрент  

Стыд / Shame Страна: ВеликобританияЖанр: ДрамаГод выпуска: 2011Продолжительность: 01:41:08Перевод: профессиональный (дублированный)
  • Оригинальная аудиодорожка: английская
Режиссер: Стив МакКуин / Steve McQueenВ ролях: Майкл Фассбендер, Люсиль Уолтерс, Мари-Анхе Рамирес, Джеймс Бэдж Дэйл, Николь Бихэйр, Алекс Манетт, Ханна Уэр, Элизабет Масуччи, Рэйчел Фаррар, Лорен Омер

Описание: Главный герой — житель Нью-Йорка, страдающий от эротомании и неспособный контролировать свою сексуальную жизнь. Он пытается обрести поддержку своих родных, а также ищет помощи у сотрудников.

  • Релиз: fanatus
  • Ограничения: Рейтинг NC-17 - Детям до 17 лет просмотр запрещен
Исходник: Blu-Ray (1080p)Качество видео: BDRip-AVCФормат видео: MKVВидео кодек : AVCАудио кодек : AC3Видео: MPEG-4 AVC, 2194 kbps , 1024x434, 2.35:1, 23.976 fpsАудио 1: русский (AC3, 6 ch, 48 kHz, 448 kbps)Аудио 2: английский (AC3, 6 ch, 48 kHz, 448 kbps)Субтитры: русские (Serene), русские (ak79), английскиеФормат субтитров: softsub (SRT)Главы: есть

GeneralUnique ID : 204234699807414292412348801611836061961 (0x99A62C22AE90AD7D9980AED594027909)Complete name : D:\Styd.2011.x264.BDRip.(AVC).fanatus.mkvFormat : MatroskaFormat version : Version 2File size : 2.18 GiBDuration : 1h 41mnOverall bit rate : 3 092 KbpsMovie name : Shame (2011) - fanatusEncoded date : UTC 2012-05-01 20:59:52Writing application : mkvmerge v3.4.0 ('Rapunzel') сборка от May 15 2010 09:38:20Writing library : libebml v0.8.0 + libmatroska v0.9.0VideoID : 1Format : AVCFormat/Info : Advanced Video CodecFormat profile : [email protected] settings, CABAC : YesFormat settings, ReFrames : 10 framesCodec ID : V_MPEG4/ISO/AVCDuration : 1h 41mnBit rate : 2 194 KbpsWidth : 1 024 pixelsHeight : 434 pixelsDisplay aspect ratio : 2.35:1Frame rate : 23.976 fpsColor space : YUVChroma subsampling : 4:2:0Bit depth : 8 bitsScan type : ProgressiveBits/(Pixel*Frame) : 0.206Stream size : 1.51 GiB (69%)Title : Shame (2011)Writing library : x264 core 120 r2164 da19765Encoding settings : cabac=1 / ref=10 / deblock=1:-3:-3 / analyse=0x3:0x133 / me=umh / subme=11 / psy=1 / psy_rd=1.00:0.10 / mixed_ref=1 / me_range=32 / chroma_me=1 / trellis=2 / 8x8dct=1 / cqm=0 / deadzone=21,11 / fast_pskip=0 / chroma_qp_offset=-3 / threads=16 / sliced_threads=0 / nr=0 / decimate=0 / interlaced=0 / bluray_compat=0 / constrained_intra=0 / bframes=11 / b_pyramid=2 / b_adapt=2 / b_bias=0 / direct=3 / weightb=1 / open_gop=0 / weightp=2 / keyint=240 / keyint_min=23 / scenecut=40 / intra_refresh=0 / rc_lookahead=60 / rc=2pass / mbtree=1 / bitrate=2194 / ratetol=1.0 / qcomp=0.60 / qpmin=0 / qpmax=69 / qpstep=4 / cplxblur=20.0 / qblur=0.5 / ip_ratio=1.40 / aq=2:0.90 / zones=138568,145486,q=44Language : EnglishAudio #1ID : 2Format : AC-3Format/Info : Audio Coding 3Mode extension : CM (complete main)Codec ID : A_AC3Duration : 1h 41mnBit rate mode : ConstantBit rate : 448 KbpsChannel(s) : 6 channelsChannel positions : Front: L C R, Side: L R, LFESampling rate : 48.0 KHzBit depth : 16 bitsCompression mode : LossyStream size : 324 MiB (14%)Title : DubLanguage : RussianAudio #2ID : 3Format : AC-3Format/Info : Audio Coding 3Mode extension : CM (complete main)Codec ID : A_AC3Duration : 1h 41mnBit rate mode : ConstantBit rate : 448 KbpsChannel(s) : 6 channelsChannel positions : Front: L C R, Side: L R, LFESampling rate : 48.0 KHzBit depth : 16 bitsCompression mode : LossyStream size : 324 MiB (14%)Title : OriginalLanguage : EnglishText #1ID : 4Format : UTF-8Codec ID : S_TEXT/UTF8Codec ID/Info : UTF-8 Plain TextTitle : SereneLanguage : RussianText #2ID : 5Format : UTF-8Codec ID : S_TEXT/UTF8Codec ID/Info : UTF-8 Plain TextTitle : ak79Language : RussianText #3ID : 6Format : UTF-8Codec ID : S_TEXT/UTF8Codec ID/Info : UTF-8 Plain TextLanguage : EnglishMenu00:00:00.000 : en:Chapter 0100:09:10.216 : en:Chapter 0300:11:11.420 : en:Chapter 0500:12:51.020 : en:Chapter 0700:18:38.534 : en:Chapter 0900:22:56.083 : en:Chapter 1100:24:57.704 : en:Chapter 1300:26:25.792 : en:Chapter 1500:28:57.193 : en:Chapter 1700:34:04.083 : en:Chapter 1900:37:18.152 : en:Chapter 2100:42:53.487 : en:Chapter 2300:46:00.132 : en:Chapter 2500:53:37.297 : en:Chapter 2700:56:35.225 : en:Chapter 2901:00:27.957 : en:Chapter 3101:08:03.829 : en:Chapter 3301:09:49.560 : en:Chapter 3501:16:04.977 : en:Chapter 3701:22:47.587 : en:Chapter 3901:26:36.232 : en:Chapter 4101:31:31.277 : en:Chapter 4301:34:37.296 : en:Chapter 4501:36:23.778 : en:Chapter 4701:41:07.853 : en:Chapter 48

Скачать Стыд через торрент http://pic.pb.wtf/images/2000/lqixz263py.png Скачать фильм Стыд через торрент бесплантно в хорошем качестве Описание: Главный герой — житель Нью-Йорка, страдающий от эротомании и неспособный контролировать свою сексуальную жизнь. Он пытается ... 2012-05-18 16:44 9 10 3

Loading...

Loading...

Последний раз редактировалось: Mr. Freeman (2012-05-19 09:14), всего редактировалось 1 раз

Рекламный пират

18-05-2012 20:25 Стыд Скачать торрент  

Видео кодек, аудио кодек, отдельной строкой. все остальные раздачи выложенные сейчас просто закрываю. Я тебе написала в лс, игнорирование полнейшее.

Дорогой пользователь! Огромная просьба, поблагодарите релизера, оцените раздачу и оставьте свои комментарий, если Вы скачали Стыд через торрент бесплатно! Внесите свою лепту в развитие PiratBit!

Комментировать посты могут только пользователи прошедшие не сложную регистрацию

Стыд через торрент Скачать бесплатно Стыд Стыд скачать торрент Стыд смотреть онлайн Cкачать фильм Стыд бесплатно Стыд скачать торрент в хорошем качестве Стыд смотреть онлайн бесплатно в хорошем качестве

Вы не можете начинать темыВы не можете отвечать на сообщенияВы не можете редактировать свои сообщенияВы не можете удалять свои сообщенияВы не можете голосовать в опросахВы не можете прикреплять файлы к сообщениямВы можете скачивать файлы


Смотрите также