Список контактов скачать торрент в хорошем качестве


Скачать фильм Список контактов через торрент в хорошем качестве бесплатно BDRip

piratbit.ru

Раздают: 2 [ 0 KB/s ]
Размер: 2.19 GB | Добавлен: 4 года 9 мес. назад | Торрент скачан:280 раз
Реклама Дарим 3000 рублей за регистрацию, не упусти свой шанс получить шикарный бонус!!!

02-01-2013 16:47 Список контактов Скачать торрент  

Список контактов / Deception

«Вы свободны сегодня вечером?»Год выпуска: 2008Страна: СШАЖанр: триллер, драма, криминал, детективПродолжительность: 01:47:49Перевод: Дубляж + Профессиональный (многоголосый закадровый) - (Украинский - 1+1) + Оригинал (Английский)

Режиссер: Марсель ЛангенеггерПродюссер: Робби Бреннер, Дэвид Л. Бушнелл, Кристофер ЭбертсСценарий: Марк Бомбэк

Бюджет: $25 000 000Премьера в мире: 24 апреля 2008

В ролях: Юэн МакГрегор, Хью Джекман, Мишель Уильямс, Брюс Олтмен, Эндрю Гинсбург, Стефани Рот Хаберли, Кристин Кан, Данте Спинотти, Каролина Мюллер, Агнет Орнсхолт, Мелисса Рэй Махон, Рэйчел Монтец Коллинз, Холли Крюкшенк, Дебора Йэтс, Билл Кэмп, Зои Перри, Ая Кэш, Фрэнк Жирардо, Наташа Хенстридж, Шарлотта Рэмплинг, Пас де ла Уэрта, Дэйзи Бейтс, Шэннан Клик, Малкольм Гудвин, Джордан Тестей, Рэйчел Тейлор, Сэлли Люн Байер, Кеннет Дж. Йонг, Лиза Гэй Хэмилтон, Пол Спаркс, Кеннет Ли, Джеймс Маццола, Лиза Крон, Маргарет Колин, Линн Коэн, Питер Сканавино, Мэгги Кью, Фрэнк Дил, Флоренция Лозаньо, Эмели Джеффрис, Дэнни Бурстейн, Чандлер Паркер, Питер Дж. Фернанде

Описание: Джонатан МакУори не живёт — у него нет девушки, нет семьи, друзей, и лишь карьера движет им. Однажды засидевшись допоздна в офисе, он знакомится с харизматичным и бойким молодым адвокатом Уайттом Босом. Они быстро находят общий язык, и вот Джонатан уже в ночном клубе в окружении сногсшибательных девушек, и Уайатт представляет ему «С» — женщину, о которой Джонатан ранее не смел и мечтать.Так у Джонатана появляется всё, чего ему так не хватало. Но бесплатный сыр бывает лишь в мышеловке… Уайтт далеко не безгрешен, а его вмешательство в судьбу Джонатана — не бескорыстно. В смертельно опасном мире Уайатта Джонатан всего лишь турист.

Качество: BDRip (Исходник Blu-Ray)Формат: AVIВидео кодек: XviDАудио кодек: AC3Видео: 720х304, 23,976 fps, 1730 kbps, 0.330 bit/pixelАудио#1: 48 kHz, AC3 5.1, 384.00 kbps / ДубляжАудио#2: 48 kHz, AC3 5.1, 384.00 kbps / Профессиональный (многоголосый закадровый) - (Украинский - 1+1)Аудио#3: 48 kHz, AC3 5.1, 384.00 kbps / Оригинал (Английский) &

ОбщееПолное имя : E:Фильмы МDeception.2008.BDRip.Rus.Ukr.Eng.aviФормат : AVIФормат/Информация : Audio Video InterleaveПрофиль формата : OpenDMLРазмер файла : 2,19 ГбайтПродолжительность : 1 ч. 47 м.Общий поток : 2906 Кбит/секПрограмма кодирования : VirtualDubModRus 1.5.10.2 (build 2542/release)Библиотека кодирования : VirtualDubMod build 2542/release

ВидеоИдентификатор : 0Формат : MPEG-4 VisualПрофиль формата : Advanced [email protected]Параметр BVOP формата : 1Параметр QPel формата : НетПараметр GMC формата : Без точки переходаПараметр матрицы формата : ВыборочнаяРежим смешивания : Сжатый битовый потокИдентификатор кодека : XVIDИдентификатор кодека/Подсказка : XviDПродолжительность : 1 ч. 47 м.Битрейт : 1730 Кбит/секШирина : 720 пикселейВысота : 304 пикселяСоотношение сторон : 2,35:1Частота кадров : 23,976 кадра/секЦветовое пространство : YUVСубдискретизация насыщенности : 4:2:0Битовая глубина : 8 битТип развёртки : ПрогрессивнаяМетод сжатия : С потерямиБит/(Пиксели*Кадры) : 0.330Размер потока : 1,30 Гбайт (60%)Библиотека кодирования : XviD 65

Аудио #1Идентификатор : 1Формат : AC-3Формат/Информация : Audio Coding 3Расширение режима : CM (complete main)Параметр Endianness формата : BigИдентификатор кодека : 2000Продолжительность : 1 ч. 47 м.Вид битрейта : ПостоянныйБитрейт : 384 Кбит/секКаналы : 6 каналовРасположение каналов : Front: L C R, Side: L R, LFEЧастота : 48,0 КГцБитовая глубина : 16 битМетод сжатия : С потерямиРазмер потока : 296 Мбайт (13%)Выравнивание : Разделение по промежуткамПродолжительность промежутка : 42 мс. (1,00 видеокадр)Время предзагрузки промежутка : 500 мс.Заголовок : Дубляж

Аудио #2Идентификатор : 2Формат : AC-3Формат/Информация : Audio Coding 3Расширение режима : CM (complete main)Параметр Endianness формата : BigИдентификатор кодека : 2000Продолжительность : 1 ч. 47 м.Вид битрейта : ПостоянныйБитрейт : 384 Кбит/секКаналы : 6 каналовРасположение каналов : Front: L C R, Side: L R, LFEЧастота : 48,0 КГцБитовая глубина : 16 битМетод сжатия : С потерямиРазмер потока : 296 Мбайт (13%)Выравнивание : Разделение по промежуткамПродолжительность промежутка : 42 мс. (1,00 видеокадр)Время предзагрузки промежутка : 500 мс.Заголовок : Профессиональный (многоголосый закадровый) - (Украинский - 1+1)

Аудио #3Идентификатор : 3Формат : AC-3Формат/Информация : Audio Coding 3Расширение режима : CM (complete main)Параметр Endianness формата : BigИдентификатор кодека : 2000Продолжительность : 1 ч. 47 м.Вид битрейта : ПостоянныйБитрейт : 384 Кбит/секКаналы : 6 каналовРасположение каналов : Front: L C R, Side: L R, LFEЧастота : 48,0 КГцБитовая глубина : 16 битМетод сжатия : С потерямиРазмер потока : 296 Мбайт (13%)Выравнивание : Разделение по промежуткамПродолжительность промежутка : 42 мс. (1,00 видеокадр)Время предзагрузки промежутка : 500 мс.Заголовок : Оригинал (Английский)

Список контактов скачать торрент

Скачать Список контактов через торрент http://i52.fastpic.ru/big/2013/0102/e6/6159bfcab867c5e70c0256544d6647e6.jpg Скачать фильм Список контактов через торрент бесплантно в хорошем качестве Описание: Джонатан МакУори не живёт — у него нет девушки, нет семьи, друзей, и лишь карьера движет им. Однажды засидевшись допоздна в ... 2013-01-02 16:47 7 10 3

Loading...

Loading...

Рекламный пират

Дорогой пользователь! Огромная просьба, поблагодарите релизера, оцените раздачу и оставьте свои комментарий, если Вы скачали Список контактов через торрент бесплатно! Внесите свою лепту в развитие PiratBit!

Комментировать посты могут только пользователи прошедшие не сложную регистрацию

Список контактов через торрент Скачать бесплатно Список контактов Список контактов скачать торрент Список контактов смотреть онлайн Cкачать фильм Список контактов бесплатно Список контактов скачать торрент в хорошем качестве Список контактов смотреть онлайн бесплатно в хорошем качестве

Вы не можете начинать темыВы не можете отвечать на сообщенияВы не можете редактировать свои сообщенияВы не можете удалять свои сообщенияВы не можете голосовать в опросахВы не можете прикреплять файлы к сообщениямВы можете скачивать файлы

Список контактов 2008 - скачать бесплатно через торрент в хорошем качестве. Без регистрации

www.kinovit.net

Название: Список контактов / Deception (2008) BDRip 720p | D
Качество видео: BDRip 720p
Перевод: Профессиональный (полное дублирование)
Формат видео: МКV
Видео: AVC 1280x532 (2.406), 23.976 fps, MPEG-4 AVC ~4 043 kbps avg
Аудио: АС3 | DTS АС3 | DTS48.0 kHz, AC3 Dolby Digital, 3/2 (L,C,R,l,r) + LFE ch, ~640 kbps | RUS48.0 kHz, Digital Theater Systems, 3/2 (L,C,R,l,r) + LFE ch, ~768 kbps | ENG
Скачать

Загрузка начнется в течение 5 сек.

4.29 GB

Название: Список контактов / Deception (2008) BDRip 1080p | D
Качество видео: BDRip 1080p
Перевод: Профессиональный (полное дублирование)
Формат видео: МКV
Видео: AVC 1920x800 (2.40:1), 23.976 fps, MPEG-4 AVC ~16.6 Mbps avg
Аудио: АС3 | DTS АС3 | DTS48.0 kHz, AC3 Dolby Digital, 3/2 (L,C,R,l,r) + LFE ch, ~448 kbps | RUS48.0 kHz, Digital Theater Systems, 3/2 (L,C,R,l,r) + LFE ch, ~1510 kbps | ENG
Скачать

Загрузка начнется в течение 5 сек.

13.95 GB

Название: Список контактов / Deception (2008) BDRip от HQCLUB
Качество видео: BDRip (источник: MaLLIeHbKa / BDRemux / 1080р)
Перевод: профессиональный (полное дублирование) + оригинал (английский)
Формат видео: AVI
Видео: 720x304 (2.37:1), 23,976 fps, XviD build 65 ~1996 kbps avg, 0.38 bit/pixel
Аудио: + Профессиональный (многоголосый, закадровый) украинский |1+1|48 kHz, AC3 Dolby Digital, 3/2 (L,C,R,l,r) + LFE ch, ~448 kbps avg (RUS)48 kHz, AC3 Dolby Digital, 3/2 (L,C,R,l,r) + LFE ch, ~448 kbps avg (ENG)48 kHz, AC3 Dolby Digital, 3/2 (L,C,R,l,r) + LFE ch, ~448 kbps avg (UKR) (отдельно)
Скачать

Загрузка начнется в течение 5 сек.

2.18 GB

Название: Список контактов / Deception (2008) Blu-ray 1080p | D
Качество видео: Blu-ray 1080p
Перевод: Профессиональный (полное дублирование) + Оригинал (Английский)
Формат видео: BDMV
Видео: MPEG-4 AVC Video 1920x1080 (16:9), 23.976 fps, MPEG-4 AVC Video, ~33637 kbps, High Profile 4.1
Аудио: DTS-HD Master Audio, Dolby TrueHD Audio DTS-HD Master Audio, Dolby TrueHD AudioDTS-HD Master Audio English 3613 kbps 5.1 / 48 kHz / 3613 kbps / 24-bit (DTS Core: 5.1 / 48 kHz / 1509 kbps / 24-bit)Dolby TrueHD Audio Russian 2874 kbps 5.1 / 48 kHz / 2874 kbps / 24-bit (AC3 Embedded: 5.1 / 48 kHz / 448 kbps / DN -4dB)
Скачать

Загрузка начнется в течение 5 сек.

41.62 GB

Название: Список контактов / Deception (2008) BDRemux 1080p от NovaLan
Качество видео: Blu-Ray Remux 1080p
Перевод: Дублированный / Любительский одноголосый (superarx) / Украинский
Видео: H.264 MPEG-4 AVC, 32174 Кбит/с, 1920х1080, 23.976 кадр/с
Аудио: Русский (DTS-HD MA, 6 ch, 3618 Кбит/с), (AC3, 2 ch, 192 Кбит/с), укаинский (AC3, 6 ch, 384 Кбит/с), английский (DTS-HD MA, 6 ch, 3611 Кбит/с)
Скачать

Загрузка начнется в течение 5 сек.

30.07 GB

Название: Список контактов / Deception (2008) BDRip от Rulya74
Качество видео: BDRip
Перевод: Дубляж + Профессиональный (многоголосый закадровый) - (Украинский - 1+1) + Оригинал (Английский)
Видео: XVID 720х304, 23,976 fps, 1730 kbps, 0.330 bit/pixel
Аудио: 48 kHz, AC3 5.1, 384.00 kbps / Дубляж48 kHz, AC3 5.1, 384.00 kbps / Профессиональный (многоголосый закадровый) - (Украинский - 1+1)48 kHz, AC3 5.1, 384.00 kbps / Оригинал (Английский)
Скачать

Загрузка начнется в течение 5 сек.

2.19 GB

Название: Список контактов / Deception (2008) HDRip от Scarabey
Качество видео: HDRip
Перевод: Профессиональный (полное дублирование) [Лицензия]
Формат видео: AVI
Видео: 720x304 (2.37:1), 23.976 fps, XviD build 50 ~1471 kbps avg, 0.28 bit/pixel
Аудио: 48 kHz, AC3 Dolby Digital, 3/2 (L,C,R,l,r) + LFE ch, ~448.00 kbps avg
Скачать

Загрузка начнется в течение 5 сек.

1.45 GB

Название: Список контактов / Deception (2008) HDRip от Scarabey
Качество видео: HDRip
Перевод: Профессиональный (полное дублирование) [Лицензия]
Формат видео: AVI
Видео: 688x288 (2.39:1), 23.976 fps, XviD build 50 ~828 kbps avg, 0.17 bit/pixel
Аудио: 48 kHz, MPEG Layer 3, 2 ch, ~128.00 kbps avg
Скачать

Загрузка начнется в течение 5 сек.

744.88 MB

Название: Список контактов / Deception (2008) HDRip-AVC
Качество видео: HDRip
Перевод: Профессиональный (полное дублирование)
Видео: AVC, MKV, H.264 720 x 304 (2.35:1), 23,976 fps, AVC (х264), [email protected], ~ 837 Kbps, 0.159 bit/pixel
Аудио: 48 kHz, MPEG Layer 3, 2 ch, ~128.00 kbps avg
Скачать

Загрузка начнется в течение 5 сек.

745.40 MB

Название: Список контактов / Deception (2008) BDRip 1080p
Качество видео: BDRip 1080p
Перевод: Дублированный
Видео: x264 1920x800, 5384 Kbps, 23.976 fps
Аудио: 48 kHz, AC3, 6c, 448 kbps
Скачать

Загрузка начнется в течение 5 сек.

4.38 GB

Название: Список контактов / Deception (2008) BDRip-AVC от PowerTracker
Качество видео: BDRip-AVC
Видео: кодек: x264, размер кадра: 1024x426, битрейт: 2069 кб/с, bit/pixel: 0.198
Аудио: язык: Русский , перевод: Профессиональный дублированный (дубляж), кодек: AC3 5.1, битрейт: 320.00 кб/сязык: Украинский , перевод: Профессиональный многоголосый закадровый (1+1), кодек: AC3 5.1, битрейт: 320.00 кб/сязык: Английский , перевод: оригинал, кодек: AC3 2.0, битрейт: 192.00 кб/с
Скачать

Загрузка начнется в течение 5 сек.

2.19 GB

Скачать фильм Список контактов через торрент в хорошем качестве бесплатно 720p by msltel

ОбщееУникальный идентификатор : 247818988042146381684956692825796273274 (0xBA703373CE5E15A4860E1E84DE10647A)Полное имя : D:\Video\Список контактов.2008.BDRip.720p by msltel.mkvФормат : MatroskaВерсия формата : Version 4 / Version 2Размер файла : 3,98 ГбайтПродолжительность : 1 ч. 47 м.Общий поток : 5290 Кбит/секНазвание фильма : Rip by msltelДата кодирования : UTC 2017-10-05 11:07:20Программа кодирования : mkvmerge v8.2.0 ('World of Adventure') 64bitБиблиотека кодирования : libebml v1.3.1 + libmatroska v1.4.2

ВидеоИдентификатор : 1Формат : AVCФормат/Информация : Advanced Video CodecПрофиль формата : [email protected]Параметр CABAC формата : ДаПараметр RefFrames формата : 9 кадровИдентификатор кодека : V_MPEG4/ISO/AVCПродолжительность : 1 ч. 47 м.Битрейт : 4392 Кбит/секШирина : 1280 пикселейВысота : 534 пикселяСоотношение сторон : 2,40:1Режим частоты кадров : ПостоянныйЧастота кадров : 23,976 (24000/1001) кадра/секЦветовое пространство : YUVСубдискретизация насыщенности : 4:2:0Битовая глубина : 8 битТип развёртки : ПрогрессивнаяБит/(Пиксели*Кадры) : 0.268Размер потока : 3,31 Гбайт (83%)Библиотека кодирования : x264 core 146 r2538 121396cНастройки программы : cabac=1 / ref=9 / deblock=1:-3:-2 / analyse=0x3:0x113 / me=umh / subme=11 / psy=1 / psy_rd=1.00:0.15 / mixed_ref=1 / me_range=32 / chroma_me=1 / trellis=2 / 8x8dct=1 / cqm=0 / deadzone=21,11 / fast_pskip=0 / chroma_qp_offset=-3 / threads=6 / lookahead_threads=1 / sliced_threads=0 / nr=0 / decimate=1 / interlaced=0 / bluray_compat=0 / constrained_intra=0 / bframes=8 / b_pyramid=2 / b_adapt=2 / b_bias=0 / direct=1 / weightb=1 / open_gop=0 / weightp=2 / keyint=230 / keyint_min=23 / scenecut=40 / intra_refresh=0 / rc_lookahead=40 / rc=crf / mbtree=0 / crf=19.7 / qcomp=0.60 / qpmin=0 / qpmax=69 / qpstep=4 / vbv_maxrate=62500 / vbv_bufsize=78125 / crf_max=0.0 / nal_hrd=none / filler=0 / ip_ratio=1.40 / pb_ratio=1.30 / aq=1:1.00Язык : EnglishDefault : ДаForced : Нет

Аудио #1Идентификатор : 2Формат : AC-3Формат/Информация : Audio Coding 3Параметр Endianness формата : BigИдентификатор кодека : A_AC3Продолжительность : 1 ч. 47 м.Вид битрейта : ПостоянныйБитрейт : 448 Кбит/секКаналы : 6 каналовРасположение каналов : Front: L C R, Side: L R, LFEЧастота : 48,0 КГцЧастота кадров : 31,250 кадров/сек (1536 SPF)Битовая глубина : 16 битМетод сжатия : С потерямиРазмер потока : 346 Мбайт (8%)Заголовок : DUBЯзык : RussianServiceKind/String : Complete MainDefault : ДаForced : Нет

Аудио #2Идентификатор : 3Формат : AC-3Формат/Информация : Audio Coding 3Параметр Endianness формата : BigИдентификатор кодека : A_AC3Продолжительность : 1 ч. 47 м.Вид битрейта : ПостоянныйБитрейт : 448 Кбит/секКаналы : 6 каналовРасположение каналов : Front: L C R, Side: L R, LFEЧастота : 48,0 КГцЧастота кадров : 31,250 кадров/сек (1536 SPF)Битовая глубина : 16 битМетод сжатия : С потерямиРазмер потока : 346 Мбайт (8%)Заголовок : originalЯзык : EnglishServiceKind/String : Complete MainDefault : НетForced : Нет

Текст #1Идентификатор : 4Формат : UTF-8Идентификатор кодека : S_TEXT/UTF8Идентификатор кодека/Информация : UTF-8 Plain TextПродолжительность : 1 ч. 39 м.Битрейт : 74 бит/секElementCount : 969Размер потока : 53,8 Кбайт (0%)Заголовок : русскиеЯзык : RussianDefault : НетForced : Нет

Текст #2Идентификатор : 5Формат : UTF-8Идентификатор кодека : S_TEXT/UTF8Идентификатор кодека/Информация : UTF-8 Plain TextПродолжительность : 1 ч. 33 м.Битрейт : 48 бит/секElementCount : 898Размер потока : 33,0 Кбайт (0%)Заголовок : английскиеЯзык : EnglishDefault : НетForced : Нет

Меню00:00:00.000 : :Chapter 0100:05:52.977 : :Chapter 0200:08:16.412 : :Chapter 0300:15:10.075 : :Chapter 0400:18:20.641 : :Chapter 0500:23:05.008 : :Chapter 0600:27:57.467 : :Chapter 0700:34:01.998 : :Chapter 0800:40:16.831 : :Chapter 0900:43:20.347 : :Chapter 1000:47:46.363 : :Chapter 1100:54:02.989 : :Chapter 1200:59:05.250 : :Chapter 1301:02:57.398 : :Chapter 1401:06:25.189 : :Chapter 1501:14:53.780 : :Chapter 1601:18:56.231 : :Chapter 1701:26:13.960 : :Chapter 1801:32:14.862 : :Chapter 1901:37:38.519 : :Chapter 2001:47:49.212 : :Chapter 21

piratbit.ru

Скачать фильм Список контактов через торрент в хорошем качестве бесплатно 1080p by msltel

ОбщееУникальный идентификатор : 242632700005690527213110366936327015179 (0xB6895BB5CDA6177A9CB35BF7DE4C4B0B)Полное имя : D:\Video\Список контактов.2008.BDRip.1080p by msltel.mkvФормат : MatroskaВерсия формата : Version 4 / Version 2Размер файла : 11,8 ГбайтПродолжительность : 1 ч. 47 м.Общий поток : 15,6 Мбит/секНазвание фильма : Rip by msltelДата кодирования : UTC 2017-10-06 09:58:06Программа кодирования : mkvmerge v8.2.0 ('World of Adventure') 64bitБиблиотека кодирования : libebml v1.3.1 + libmatroska v1.4.2

ВидеоИдентификатор : 1Формат : AVCФормат/Информация : Advanced Video CodecПрофиль формата : [email protected]Параметр CABAC формата : ДаПараметр RefFrames формата : 4 кадраИдентификатор кодека : V_MPEG4/ISO/AVCПродолжительность : 1 ч. 47 м.Битрейт : 13,7 Мбит/секШирина : 1920 пикселейВысота : 800 пикселейСоотношение сторон : 2,40:1Режим частоты кадров : ПостоянныйЧастота кадров : 23,976 (24000/1001) кадра/секЦветовое пространство : YUVСубдискретизация насыщенности : 4:2:0Битовая глубина : 8 битТип развёртки : ПрогрессивнаяБит/(Пиксели*Кадры) : 0.371Размер потока : 10,3 Гбайт (87%)Библиотека кодирования : x264 core 146 r2538 121396cНастройки программы : cabac=1 / ref=4 / deblock=1:-3:-2 / analyse=0x3:0x113 / me=umh / subme=11 / psy=1 / psy_rd=1.00:0.15 / mixed_ref=1 / me_range=32 / chroma_me=1 / trellis=2 / 8x8dct=1 / cqm=0 / deadzone=21,11 / fast_pskip=0 / chroma_qp_offset=-3 / threads=6 / lookahead_threads=1 / sliced_threads=0 / nr=0 / decimate=1 / interlaced=0 / bluray_compat=0 / constrained_intra=0 / bframes=8 / b_pyramid=2 / b_adapt=2 / b_bias=0 / direct=1 / weightb=1 / open_gop=0 / weightp=2 / keyint=230 / keyint_min=23 / scenecut=40 / intra_refresh=0 / rc_lookahead=40 / rc=crf / mbtree=0 / crf=20.3 / qcomp=0.60 / qpmin=0 / qpmax=69 / qpstep=4 / vbv_maxrate=62500 / vbv_bufsize=78125 / crf_max=0.0 / nal_hrd=none / filler=0 / ip_ratio=1.40 / pb_ratio=1.30 / aq=1:1.00Язык : EnglishDefault : ДаForced : Нет

Аудио #1Идентификатор : 2Формат : AC-3Формат/Информация : Audio Coding 3Параметр Endianness формата : BigИдентификатор кодека : A_AC3Продолжительность : 1 ч. 47 м.Вид битрейта : ПостоянныйБитрейт : 448 Кбит/секКаналы : 6 каналовРасположение каналов : Front: L C R, Side: L R, LFEЧастота : 48,0 КГцЧастота кадров : 31,250 кадров/сек (1536 SPF)Битовая глубина : 16 битМетод сжатия : С потерямиРазмер потока : 346 Мбайт (3%)Заголовок : DUBЯзык : RussianServiceKind/String : Complete MainDefault : ДаForced : Нет

Аудио #2Идентификатор : 3Формат : DTSФормат/Информация : Digital Theater SystemsРежим : 16Параметр Endianness формата : BigИдентификатор кодека : A_DTSПродолжительность : 1 ч. 47 м.Вид битрейта : ПостоянныйБитрейт : 1509 Кбит/секКаналы : 6 каналовРасположение каналов : Front: L C R, Side: L R, LFEЧастота : 48,0 КГцЧастота кадров : 93,750 кадра/сек (512 SPF)Битовая глубина : 24 битМетод сжатия : С потерямиРазмер потока : 1,14 Гбайт (10%)Заголовок : originalЯзык : EnglishDefault : НетForced : Нет

Текст #1Идентификатор : 4Формат : UTF-8Идентификатор кодека : S_TEXT/UTF8Идентификатор кодека/Информация : UTF-8 Plain TextПродолжительность : 1 ч. 39 м.Битрейт : 74 бит/секElementCount : 969Размер потока : 53,8 Кбайт (0%)Заголовок : русскиеЯзык : RussianDefault : НетForced : Нет

Текст #2Идентификатор : 5Формат : UTF-8Идентификатор кодека : S_TEXT/UTF8Идентификатор кодека/Информация : UTF-8 Plain TextПродолжительность : 1 ч. 33 м.Битрейт : 48 бит/секElementCount : 898Размер потока : 33,0 Кбайт (0%)Заголовок : английскиеЯзык : EnglishDefault : НетForced : Нет

Меню00:00:00.000 : :Chapter 0100:05:52.977 : :Chapter 0200:08:16.412 : :Chapter 0300:15:10.075 : :Chapter 0400:18:20.641 : :Chapter 0500:23:05.008 : :Chapter 0600:27:57.467 : :Chapter 0700:34:01.998 : :Chapter 0800:40:16.831 : :Chapter 0900:43:20.347 : :Chapter 1000:47:46.363 : :Chapter 1100:54:02.989 : :Chapter 1200:59:05.250 : :Chapter 1301:02:57.398 : :Chapter 1401:06:25.189 : :Chapter 1501:14:53.780 : :Chapter 1601:18:56.231 : :Chapter 1701:26:13.960 : :Chapter 1801:32:14.862 : :Chapter 1901:37:38.519 : :Chapter 2001:47:49.212 : :Chapter 21

piratbit.ru

Скачать фильм Список контактов через торрент в хорошем качестве бесплатно 720p)

piratbit.ru

Размер: 4.29 GB | Добавлен: 6 лет 7 мес. назад | Торрент скачан:41 раз
Реклама Дарим 3000 рублей за регистрацию, не упусти свой шанс получить шикарный бонус!!!

08-03-2011 06:09 Список контактов Скачать торрент  

Список контактов / Deception

Год выпуска: 2008Страна: СШАЖанр: триллер, драма, криминал, детективПродолжительность: 01:47:49Перевод: Профессиональный (полное дублирование)Субтитры: Русские, Английские

Режиссер: Марсель Лангенеггер

Продюссер: Робби Бреннер, Дэвид Л. Бушнелл, Кристофер Эбертс

Сценарий: Марк Бомбэк

Бюджет: $25 000 000

Премьера в мире:24 апреля 2008

В ролях: Юэн МакГрегор,Хью Джекман,Мишель Уильямс,Брюс Олтмен,Эндрю Гинсбург,Стефани Рот,Кристин Кан,Данте Спинотти,Каролина Мюллер,Агнет ОрнсхолтОписание: Джонатан МакУори не живёт — у него нет девушки, нет семьи, друзей, и лишь карьера движет им. Однажды засидевшись допоздна в офисе, он знакомится с харизматичным и бойким молодым адвокатом Уайттом Босом. Они быстро находят общий язык, и вот Джонатан уже в ночном клубе в окружении сногсшибательных девушек, и Уайатт представляет ему «С» — женщину, о которой Джонатан ранее не смел и мечтать.

Так у Джонатана появляется всё, чего ему так не хватало. Но бесплатный сыр бывает лишь в мышеловке… Уайтт далеко не безгрешен, а его вмешательство в судьбу Джонатана — не бескорыстно. В смертельно опасном мире Уайатта Джонатан всего лишь турист.

Качество: BDRip (720p)Формат: MKVВидео кодек: H.26xАудио кодек: AC3, DTSВидео: 1280x532 ~ 4295 kbps, 23.976 fpsАудио#1: Russian: 48 kHz, ~640.00 kbps Аудио#2: English: 48 kHz, ~768.00 kbps Скачать Список контактов через торрент http://piratbit.in.ua/172c18284f095c66eb3fbad925663cfd.jpg Скачать фильм Список контактов через торрент бесплантно в хорошем качестве Описание: Джонатан МакУори не живёт — у него нет девушки, нет семьи, друзей, и лишь карьера движет им. Однажды засидевшись допоздна в ... 2011-03-08 06:26 10 10 2

Loading...

Loading...

Рекламный пират

Дорогой пользователь! Огромная просьба, поблагодарите релизера, оцените раздачу и оставьте свои комментарий, если Вы скачали Список контактов через торрент бесплатно! Внесите свою лепту в развитие PiratBit!

Комментировать посты могут только пользователи прошедшие не сложную регистрацию

Список контактов через торрент Скачать бесплатно Список контактов Список контактов скачать торрент Список контактов смотреть онлайн Cкачать фильм Список контактов бесплатно Список контактов скачать торрент в хорошем качестве Список контактов смотреть онлайн бесплатно в хорошем качестве

Вы не можете начинать темыВы не можете отвечать на сообщенияВы не можете редактировать свои сообщенияВы не можете удалять свои сообщенияВы не можете голосовать в опросахВы не можете прикреплять файлы к сообщениямВы можете скачивать файлы

Скачать фильм Список контактов через торрент в хорошем качестве бесплатно BDRip

piratbit.ru

Размер: 2.05 GB | Добавлен: 7 лет назад | Торрент скачан:263 раза
Реклама Дарим 3000 рублей за регистрацию, не упусти свой шанс получить шикарный бонус!!!

10-10-2010 09:25 Список контактов Скачать торрент  

Список контактов / DeceptionГод выпуска: 2008Страна: США Жанр: триллер, драма, криминал, детективПродолжительность: 01:47:49Перевод: Профессиональный (полное дублирование)Тип релиза: Лицензия

Режиссер: Марсель Лангенеггер

В ролях: Хью Джекман, Юэн МакГрегор, Мишель Уильямс, Лиза Гэй Хэмилтон, Мэгги Кью, Наташа Хенстридж, Линн Коэн, Дэнни Бурстейн, Малкольм Гудвин, Шарлотта Рэмплинг

Описание: Джонатан МакУори не живёт — у него нет девушки, нет семьи, друзей, и лишь карьера движет им. Однажды засидевшись допоздна в офисе, он знакомится с харизматичным и бойким молодым адвокатом Уайттом Босом. Они быстро находят общий язык, и вот Джонатан уже в ночном клубе в окружении сногсшибательных девушек, и Уайатт представляет ему «С» — женщину, о которой Джонатан ранее не смел и мечтать.Так у Джонатана появляется всё, чего ему так не хватало. Но бесплатный сыр бывает лишь в мышеловке… Уайтт далеко не безгрешен, а его вмешательство в судьбу Джонатана — не бескорыстно. В смертельно опасном мире Уайатта Джонатан всего лишь турист.

Качество: BDRipФормат: AVIВидео кодек: XviDАудио кодек: AC3Видео: 720x304 (2.37:1), 23.976 fps, XviD build 50 ~1821 kbps avg, 0.35 bit/pixelАудио: Russian / English: 48 kHz, AC3 Dolby Digital, 3/2 (L,C,R,l,r) + LFE ch, ~448.00 kbps avg

Скачать Список контактов через торрент http://img12.binimage.org/70/d/1/kinopoiskru-Deception-717503.jpg Скачать фильм Список контактов через торрент бесплантно в хорошем качестве Описание: Джонатан МакУори не живёт — у него нет девушки, нет семьи, друзей, и лишь карьера движет им. Однажды засидевшись допоздна в ... 2010-10-10 09:25 9 10 2

Loading...

Loading...

Рекламный пират

10-10-2010 09:39 Список контактов Скачать торрент  

Фильм очень классный. Рекомендую.

10-10-2010 10:42 Список контактов Скачать торрент  

10-10-2010 11:09 Список контактов Скачать торрент  

Классный фильм) советую)

09-02-2011 18:49 Список контактов Скачать торрент  

спасибо за раздачу!

13-01-2012 22:21 Список контактов Скачать торрент  

хороший фильм!!!!!!

Дорогой пользователь! Огромная просьба, поблагодарите релизера, оцените раздачу и оставьте свои комментарий, если Вы скачали Список контактов через торрент бесплатно! Внесите свою лепту в развитие PiratBit!

Комментировать посты могут только пользователи прошедшие не сложную регистрацию

Список контактов через торрент Скачать бесплатно Список контактов Список контактов скачать торрент Список контактов смотреть онлайн Cкачать фильм Список контактов бесплатно Список контактов скачать торрент в хорошем качестве Список контактов смотреть онлайн бесплатно в хорошем качестве

Вы не можете начинать темыВы не можете отвечать на сообщенияВы не можете редактировать свои сообщенияВы не можете удалять свои сообщенияВы не можете голосовать в опросахВы не можете прикреплять файлы к сообщениямВы можете скачивать файлы


Смотрите также