Спасти рядового райана скачать торрент в хорошем качестве hd 720


Спасти рядового Райана через торрент

ОбщееУникальный идентификатор : 195466255129319619321506008965991634275 (0x930D6E6F6234FD8DBC3ED1B5B75C1563)Полное имя : J:Спасти рядового Райана.BDRip-720pФормат : MatroskaВерсия формата : Version 2Размер файла : 7,93 ГбайтПродолжительность : 2 ч. 48 м.Общий поток : 6727 Кбит/секНазвание фильма : Saving Private RyanДата кодирования : UTC 2010-04-15 02:54:43Программа кодирования : mkvmerge v3.3.0 ('Language') built on Mar 24 2010 14:59:24Библиотека кодирования : libebml v0.8.0 + libmatroska v0.9.0

ВидеоИдентификатор : 1Формат : AVCФормат/Информация : Advanced Video CodecПрофиль формата : [email protected]Параметр CABAC формата : ДаПараметр ReFrames формата : 9 кадровИдентификатор кодека : V_MPEG4/ISO/AVCПродолжительность : 2 ч. 48 м.Битрейт : 5697 Кбит/секШирина : 1280 пикселейВысота : 692 пикселяСоотношение сторон : 1,85:1Режим частоты кадров : ПостоянныйЧастота кадров : 23,976 кадра/секЦветовое пространство : YUVСубдискретизация насыщенности : 4:2:0Битовая глубина : 8 битТип развёртки : ПрогрессивнаяБит/(Пиксели*Кадры) : 0.268Размер потока : 6,71 Гбайт (85%)Заголовок : Saving Private RyanБиблиотека кодирования : x264 core 93 r1538 bd72d46Настройки программы : cabac=1 / ref=9 / deblock=1:-2:-2 / analyse=0x3:0x133 / me=umh / subme=9 / psy=1 / psy_rd=1.25:0.00 / mixed_ref=1 / me_range=64 / chroma_me=1 / trellis=2 / 8x8dct=1 / cqm=0 / deadzone=21,11 / fast_pskip=0 / chroma_qp_offset=-2 / threads=9 / sliced_threads=0 / nr=0 / decimate=1 / interlaced=0 / constrained_intra=0 / bframes=16 / b_pyramid=2 / b_adapt=2 / b_bias=0 / direct=3 / wpredb=1 / wpredp=2 / keyint=250 / keyint_min=25 / scenecut=40 / intra_refresh=0 / rc_lookahead=60 / rc=crf / mbtree=0 / crf=20.7 / qcomp=0.60 / qpmin=10 / qpmax=51 / qpstep=4 / vbv_maxrate=50000 / vbv_bufsize=50000 / crf-max=0.0 / ip_ratio=1.40 / pb_ratio=1.30 / aq=1:1.20 / nal_hrd=noneЯзык : EnglishDefault : НетForced : Нет

Аудио #1Идентификатор : 2Формат : AC-3Формат/Информация : Audio Coding 3Расширение режима : CM (complete main)Параметр Endianness формата : BigИдентификатор кодека : A_AC3Продолжительность : 2 ч. 48 м.Вид битрейта : ПостоянныйБитрейт : 448 Кбит/секКаналы : 6 каналовРасположение каналов : Front: L C R, Side: L R, LFEЧастота : 48,0 КГцБитовая глубина : 16 битМетод сжатия : С потерямиРазмер потока : 541 Мбайт (7%)Заголовок : DD 5.1 48 KHz 448 kbps[Dub]Язык : RussianDefault : ДаForced : Нет

Аудио #2Идентификатор : 3Формат : AC-3Формат/Информация : Audio Coding 3Расширение режима : CM (complete main)Параметр Endianness формата : BigИдентификатор кодека : A_AC3Продолжительность : 2 ч. 48 м.Вид битрейта : ПостоянныйБитрейт : 448 Кбит/секКаналы : 6 каналовРасположение каналов : Front: L C R, Side: L R, LFEЧастота : 48,0 КГцБитовая глубина : 16 битМетод сжатия : С потерямиРазмер потока : 541 Мбайт (7%)Заголовок : DD 5.1 48 KHz 448 kbps[Original]Язык : EnglishDefault : НетForced : Нет

Текст #1Идентификатор : 4Формат : UTF-8Идентификатор кодека : S_TEXT/UTF8Идентификатор кодека/Информация : UTF-8 Plain TextЯзык : RussianDefault : НетForced : Нет

Текст #2Идентификатор : 5Формат : UTF-8Идентификатор кодека : S_TEXT/UTF8Идентификатор кодека/Информация : UTF-8 Plain TextЯзык : EnglishDefault : НетForced : Нет

piratbit.ru

Спасти рядового Райана через торрент

piratbit.ru

Размер: 1.46 GB | Добавлен: 4 года 6 мес. назад | Торрент скачан:905 раз
Реклама Дарим 3000 рублей за регистрацию, не упусти свой шанс получить шикарный бонус!!!

29-03-2013 11:35 Спасти рядового Райана Скачать торрент  

Спасти рядового Райана / Saving Private Ryan

Год выпуска: 1998Страна: СШАЖанр: Военный, Боевик, ДрамаПродолжительность: 02:49:28Перевод: ДубляжТип релиза: Пиратка

Режиссер: Стивен СпилбергПродюссер: Йен Брюс, Марк Гордон, Гари ЛевинсонСценарий: Роберт Родат

Бюджет: $70 000 000Премьера в мире: 24 июля 1998

В ролях: Том Хэнкс, Том Сайзмор, Эдвард Бернс, Бэрри Пеппер, Адам Голдберг, Вин Дизель, Джованни Рибизи, Джереми Дейвис, Мэтт Дэймон, Тед Дансон

Описание: Капитан Джон Миллер получает тяжелое задание. Вместе с отрядом из восьми человек Миллер должен отправиться в тыл врага на поиски рядового Джеймса Райана, три родных брата которого почти одновременно погибли на полях сражений. Командование приняло решение демобилизовать Райана и отправить его на родину к безутешной матери. Но для того, чтобы найти и спасти солдата, крошечному отряду придется пройти через все круги ада…

Качество: DVDRipФормат: AVIВидео кодек: XviDАудио кодек: MP3 Видео: 688x384 (1.79:1), 23.976 fps, XviD build 47 ~1098 kbps avg, 0.17 bit/pixelАудио: 48 kHz, MPEG Layer 3, 2 ch, ~128.00 kbps avg

Скачать Спасти рядового Райана через торрент http://i2.fastpic.ru/big/2010/0321/2c/3031004f2076891450533a255fd8722c.png Скачать фильм Спасти рядового Райана через торрент бесплантно в хорошем качестве Описание: Капитан Джон Миллер получает тяжелое задание. Вместе с отрядом из восьми человек Миллер должен отправиться в тыл врага на поиски ... 2013-03-29 11:35 10 10 28

Loading...

Loading...

% Раздел Тема Автор DL S | L
Фильмы (Blu-ray, BD-Remux, HDDVD) [ 52.85 GB ] Спасти рядового Райана / Saving Private Ryan [1998 военный BD-Remux ] Jack_orsk Скачать
Фильмы (HD 720p, 1080p) (48-60 fps) [ 45.04 GB ] Спасти рядового Райана / Saving Private Ryan [1998 военный BDRip 1080p [ ][hand made 60fps] flatro1 Скачать
Фильмы [HD 720p, 1080p] (Хороший звук DUB, MVO) [ 28.18 GB ] Спасти рядового Райана / Saving Private Ryan [1998 Военный BDRip 1080p ] Артронах Скачать
Фильмы [HD 720p, 1080p] (Хороший звук DUB, MVO) [ 28.8 GB ] Спасти рядового Райана / Saving Private Ryan [1998 военный BDRip 1080p] DUB 6xMVO 4xAVO _denis_100 Скачать
Фильмы [HD 720p, 1080p] (Хороший звук DUB, MVO) [ 14.74 GB ] Спасти рядового Райана / Saving Private Ryan [1998 военный история BDRip 720p ] Russian Mafia Скачать
Фильмы [HD 720p, 1080p] (Хороший звук DUB, MVO) [ 7.93 GB ] Спасти рядового Райана / Saving Private Ryan [1998 Военный BDRip 720p ] Артронах Скачать
Фильмы с авторской озвучкой [ 2.9 GB ] Спасти рядового Райана / Saving Private Ryan [1999 военный BDRip] [AVO] killermax2013 Скачать

Рекламный пират

Дорогой пользователь! Огромная просьба, поблагодарите релизера, оцените раздачу и оставьте свои комментарий, если Вы скачали Спасти рядового Райана через торрент бесплатно! Внесите свою лепту в развитие PiratBit!

Комментировать посты могут только пользователи прошедшие не сложную регистрацию

Спасти рядового Райана через торрент Скачать бесплатно Спасти рядового Райана Спасти рядового Райана скачать торрент Спасти рядового Райана смотреть онлайн Cкачать фильм Спасти рядового Райана бесплатно Спасти рядового Райана скачать торрент в хорошем качестве Спасти рядового Райана смотреть онлайн бесплатно в хорошем качестве

Вы не можете начинать темыВы не можете отвечать на сообщенияВы не можете редактировать свои сообщенияВы не можете удалять свои сообщенияВы не можете голосовать в опросахВы не можете прикреплять файлы к сообщениямВы можете скачивать файлы

Спасти рядового Райана через торрент

GeneralID : 1 (0x1)Complete name : D:[Фильмы]Спасти Рядового Райана ~ Saving Private Ryan (1998) BD-Remux.m2tsFormat : BDAVFormat/Info : Blu-ray VideoFile size : 52.8 GiBDuration : 2h 48mnOverall bit rate mode : VariableOverall bit rate : 44.8 MbpsMaximum Overall bit rate : 35.5 Mbps

VideoID : 4113 (0x1011)Menu ID : 1 (0x1)Format : AVCFormat/Info : Advanced Video CodecFormat profile : [email protected] settings, CABAC : YesFormat settings, ReFrames : 4 framesCodec ID : 27Duration : 2h 48mnBit rate mode : VariableMaximum bit rate : 37.0 MbpsWidth : 1 920 pixelsHeight : 1 080 pixelsDisplay aspect ratio : 16:9Frame rate : 23.976 fpsColor space : YUVChroma subsampling : 4:2:0Bit depth : 8 bitsScan type : ProgressiveColor primaries : BT.709Transfer characteristics : BT.709Matrix coefficients : BT.709

Audio #1ID : 4352 (0x1100)Menu ID : 1 (0x1)Format : AC-3Format/Info : Audio Coding 3Mode extension : CM (complete main)Format settings, Endianness : BigCodec ID : 129Duration : 2h 48mnBit rate mode : ConstantBit rate : 448 KbpsChannel(s) : 6 channelsChannel positions : Front: L C R, Side: L R, LFESampling rate : 48.0 KHzBit depth : 16 bitsCompression mode : LossyStream size : 541 MiB (1%)Language : Russian

Audio #2ID : 4353 (0x1101)Menu ID : 1 (0x1)Format : DTSFormat/Info : Digital Theater SystemsFormat profile : MA / CoreMode : 16Format settings, Endianness : BigMuxing mode : Stream extensionCodec ID : 134Duration : 2h 48mnBit rate mode : VariableBit rate : Unknown / 1 509 KbpsChannel(s) : 6 channelsChannel positions : Front: L C R, Side: L R, LFESampling rate : 48.0 KHzBit depth : 24 bitsCompression mode : Lossless / LossyLanguage : Russian

Audio #3ID : 4354 (0x1102)Menu ID : 1 (0x1)Format : DTSFormat/Info : Digital Theater SystemsMode : 16Format settings, Endianness : BigCodec ID : 130Duration : 2h 48mnBit rate mode : ConstantBit rate : 755 KbpsChannel(s) : 6 channelsChannel positions : Front: L C R, Side: L R, LFESampling rate : 48.0 KHzBit depth : 24 bitsCompression mode : LossyStream size : 909 MiB (2%)Language : Russian

Audio #4ID : 4355 (0x1103)Menu ID : 1 (0x1)Format : AC-3Format/Info : Audio Coding 3Mode extension : CM (complete main)Format settings, Endianness : BigCodec ID : 129Duration : 2h 48mnBit rate mode : ConstantBit rate : 448 KbpsChannel(s) : 6 channelsChannel positions : Front: L C R, Side: L R, LFESampling rate : 48.0 KHzBit depth : 16 bitsCompression mode : LossyStream size : 539 MiB (1%)Language : Russian

Audio #5ID : 4356 (0x1104)Menu ID : 1 (0x1)Format : AC-3Format/Info : Audio Coding 3Mode extension : CM (complete main)Format settings, Endianness : BigCodec ID : 129Duration : 2h 48mnBit rate mode : ConstantBit rate : 256 KbpsChannel(s) : 2 channelsChannel positions : Front: L RSampling rate : 48.0 KHzBit depth : 16 bitsCompression mode : LossyStream size : 308 MiB (1%)Language : Ukrainian

Audio #6ID : 4357 (0x1105)Menu ID : 1 (0x1)Format : DTSFormat/Info : Digital Theater SystemsFormat profile : MA / CoreMode : 16Format settings, Endianness : BigMuxing mode : Stream extensionCodec ID : 134Duration : 2h 48mnBit rate mode : VariableBit rate : Unknown / 1 509 KbpsChannel(s) : 6 channelsChannel positions : Front: L C R, Side: L R, LFESampling rate : 48.0 KHzBit depth : 24 bitsCompression mode : Lossless / LossyLanguage : Russian

Audio #7ID : 4358 (0x1106)Menu ID : 1 (0x1)Format : DTSFormat/Info : Digital Theater SystemsFormat profile : MA / CoreMode : 16Format settings, Endianness : BigMuxing mode : Stream extensionCodec ID : 134Duration : 2h 48mnBit rate mode : VariableBit rate : Unknown / 1 509 KbpsChannel(s) : 6 channelsChannel positions : Front: L C R, Side: L R, LFESampling rate : 48.0 KHzBit depth : 24 bitsCompression mode : Lossless / LossyLanguage : English

Text #1ID : 4608 (0x1200)Menu ID : 1 (0x1)Format : PGSCodec ID : 144Language : Russian

Text #2ID : 4609 (0x1201)Menu ID : 1 (0x1)Format : PGSCodec ID : 144Language : English

Text #3ID : 4610 (0x1202)Menu ID : 1 (0x1)Format : PGSCodec ID : 144Language : English

piratbit.ru

Спасти рядового Райана через торрент

Format                                   : MatroskaFormat version                           : Version 2File size                                : 28.8 GiBDuration                                 : 2h 48mnOverall bit rate                         : 24.5 MbpsMovie name                               : Spasti rjadovogo Rajana.(1998).BDRip.1080p.[denis100]Encoded date                             : UTC 2015-05-21 12:31:25Writing application                      : mkvmerge v5.8.0 ('No Sleep / Pillow') built on Sep  2 2012 15:37:04Writing library                          : libebml v1.2.3 + libmatroska v1.3.0

VideoID                                       : 1Format                                   : AVCFormat/Info                              : Advanced Video CodecFormat profile                           : [email protected] settings, CABAC                   : YesFormat settings, ReFrames                : 4 framesCodec ID                                 : V_MPEG4/ISO/AVCDuration                                 : 2h 48mnBit rate                                 : 19.5 MbpsWidth                                    : 1 920 pixelsHeight                                   : 1 038 pixelsDisplay aspect ratio                     : 1.850Frame rate                               : 23.976 fpsColor space                              : YUVChroma subsampling                       : 4:2:0Bit depth                                : 8 bitsScan type                                : ProgressiveBits/(Pixel*Frame)                       : 0.408Stream size                              : 22.4 GiB (78%)Title                                    : Spasti rjadovogo Rajana.(1998).BDRip.1080p.[denis100]Writing library                          : x264 core 146 r2538 121396cEncoding settings                        : cabac=1 / ref=4 / deblock=1:-3:-3 / analyse=0x3:0x133 / me=umh / subme=11 / psy=1 / psy_rd=1.00:0.15 / mixed_ref=1 / me_range=48 / chroma_me=1 / trellis=2 / 8x8dct=1 / cqm=0 / deadzone=21,11 / fast_pskip=0 / chroma_qp_offset=-3 / threads=6 / lookahead_threads=1 / sliced_threads=0 / nr=0 / decimate=1 / interlaced=0 / bluray_compat=0 / constrained_intra=0 / bframes=10 / b_pyramid=2 / b_adapt=2 / b_bias=0 / direct=3 / weightb=1 / open_gop=0 / weightp=2 / keyint=240 / keyint_min=23 / scenecut=40 / intra_refresh=0 / rc=2pass / mbtree=0 / bitrate=19500 / ratetol=1.0 / qcomp=0.60 / qpmin=0 / qpmax=69 / qpstep=4 / cplxblur=20.0 / qblur=0.5 / ip_ratio=1.40 / pb_ratio=1.30 / aq=1:1.00Language                                 : EnglishDefault                                  : YesForced                                   : No

Audio #1ID                                       : 2Format                                   : AC-3Format/Info                              : Audio Coding 3Mode extension                           : CM (complete main)Codec ID                                 : A_AC3Duration                                 : 2h 48mnBit rate mode                            : ConstantBit rate                                 : 640 KbpsChannel(s)                               : 6 channelsChannel positions                        : Front: L C R, Side: L R, LFESampling rate                            : 48.0 KHzBit depth                                : 16 bitsCompression mode                         : LossyStream size                              : 771 MiB (3%)Title                                    : DUBLanguage                                 : RussianDefault                                  : YesForced                                   : No

Audio #2ID                                       : 3Format                                   : AC-3Format/Info                              : Audio Coding 3Mode extension                           : CM (complete main)Codec ID                                 : A_AC3Duration                                 : 2h 48mnBit rate mode                            : ConstantBit rate                                 : 640 KbpsChannel(s)                               : 6 channelsChannel positions                        : Front: L C R, Side: L R, LFESampling rate                            : 48.0 KHzBit depth                                : 16 bitsCompression mode                         : LossyStream size                              : 771 MiB (3%)Title                                    : MVO, Позитив-МультимедиаLanguage                                 : RussianDefault                                  : NoForced                                   : No

Audio #3ID                                       : 4Format                                   : AC-3Format/Info                              : Audio Coding 3Mode extension                           : CM (complete main)Codec ID                                 : A_AC3Duration                                 : 2h 48mnBit rate mode                            : ConstantBit rate                                 : 640 KbpsChannel(s)                               : 6 channelsChannel positions                        : Front: L C R, Side: L R, LFESampling rate                            : 48.0 KHzBit depth                                : 16 bitsCompression mode                         : LossyStream size                              : 771 MiB (3%)Title                                    : MVO, КарусельLanguage                                 : RussianDefault                                  : NoForced                                   : No

Audio #4ID                                       : 5Format                                   : AC-3Format/Info                              : Audio Coding 3Mode extension                           : CM (complete main)Codec ID                                 : A_AC3Duration                                 : 2h 48mnBit rate mode                            : ConstantBit rate                                 : 192 KbpsChannel(s)                               : 2 channelsChannel positions                        : Front: L RSampling rate                            : 48.0 KHzBit depth                                : 16 bitsCompression mode                         : LossyStream size                              : 231 MiB (1%)Title                                    : MVO, ОРТLanguage                                 : RussianDefault                                  : NoForced                                   : No

Audio #5ID                                       : 6Format                                   : AC-3Format/Info                              : Audio Coding 3Mode extension                           : CM (complete main)Codec ID                                 : A_AC3Duration                                 : 2h 48mnBit rate mode                            : ConstantBit rate                                 : 192 KbpsChannel(s)                               : 2 channelsChannel positions                        : Front: L RSampling rate                            : 48.0 KHzBit depth                                : 16 bitsCompression mode                         : LossyStream size                              : 231 MiB (1%)Title                                    : MVO, НТВLanguage                                 : RussianDefault                                  : NoForced                                   : No

Audio #6ID                                       : 7Format                                   : AC-3Format/Info                              : Audio Coding 3Mode extension                           : CM (complete main)Codec ID                                 : A_AC3Duration                                 : 2h 48mnBit rate mode                            : ConstantBit rate                                 : 640 KbpsChannel(s)                               : 6 channelsChannel positions                        : Front: L C R, Side: L R, LFESampling rate                            : 48.0 KHzBit depth                                : 16 bitsCompression mode                         : LossyStream size                              : 771 MiB (3%)Title                                    : AVO, А.ГавриловLanguage                                 : RussianDefault                                  : NoForced                                   : No

Audio #7ID                                       : 8Format                                   : AC-3Format/Info                              : Audio Coding 3Mode extension                           : CM (complete main)Codec ID                                 : A_AC3Duration                                 : 2h 48mnBit rate mode                            : ConstantBit rate                                 : 640 KbpsChannel(s)                               : 6 channelsChannel positions                        : Front: L C R, Side: L R, LFESampling rate                            : 48.0 KHzBit depth                                : 16 bitsCompression mode                         : LossyStream size                              : 771 MiB (3%)Title                                    : AVO, Ю.ЖивовLanguage                                 : RussianDefault                                  : NoForced                                   : No

Audio #8ID                                       : 9Format                                   : AC-3Format/Info                              : Audio Coding 3Mode extension                           : CM (complete main)Codec ID                                 : A_AC3Duration                                 : 2h 48mnBit rate mode                            : ConstantBit rate                                 : 192 KbpsChannel(s)                               : 2 channelsChannel positions                        : Front: L RSampling rate                            : 48.0 KHzBit depth                                : 16 bitsCompression mode                         : LossyStream size                              : 231 MiB (1%)Title                                    : AVO, С.ВизгуновLanguage                                 : RussianDefault                                  : NoForced                                   : No

Audio #9ID                                       : 10Format                                   : AC-3Format/Info                              : Audio Coding 3Mode extension                           : CM (complete main)Codec ID                                 : A_AC3Duration                                 : 2h 48mnBit rate mode                            : ConstantBit rate                                 : 192 KbpsChannel(s)                               : 2 channelsChannel positions                        : Front: L RSampling rate                            : 48.0 KHzBit depth                                : 16 bitsCompression mode                         : LossyStream size                              : 231 MiB (1%)Title                                    : AVO, АнтоновLanguage                                 : RussianDefault                                  : NoForced                                   : No

Audio #10ID                                       : 11Format                                   : AC-3Format/Info                              : Audio Coding 3Mode extension                           : CM (complete main)Codec ID                                 : A_AC3Duration                                 : 2h 48mnBit rate mode                            : ConstantBit rate                                 : 192 KbpsChannel(s)                               : 2 channelsChannel positions                        : Front: L RSampling rate                            : 48.0 KHzBit depth                                : 16 bitsCompression mode                         : LossyStream size                              : 231 MiB (1%)Title                                    : MVO, НТНLanguage                                 : UkrainianDefault                                  : NoForced                                   : No

Audio #11ID                                       : 12Format                                   : AC-3Format/Info                              : Audio Coding 3Mode extension                           : CM (complete main)Codec ID                                 : A_AC3Duration                                 : 2h 48mnBit rate mode                            : ConstantBit rate                                 : 192 KbpsChannel(s)                               : 2 channelsChannel positions                        : Front: L RSampling rate                            : 48.0 KHzBit depth                                : 16 bitsCompression mode                         : LossyStream size                              : 231 MiB (1%)Title                                    : MVO, ICTVLanguage                                 : UkrainianDefault                                  : NoForced                                   : No

Audio #12ID                                       : 13Format                                   : AC-3Format/Info                              : Audio Coding 3Mode extension                           : CM (complete main)Codec ID                                 : A_AC3Duration                                 : 2h 48mnBit rate mode                            : ConstantBit rate                                 : 640 KbpsChannel(s)                               : 6 channelsChannel positions                        : Front: L C R, Side: L R, LFESampling rate                            : 48.0 KHzBit depth                                : 16 bitsCompression mode                         : LossyStream size                              : 771 MiB (3%)Language                                 : EnglishDefault                                  : NoForced                                   : No

Text #1ID                                       : 14Format                                   : UTF-8Codec ID                                 : S_TEXT/UTF8Codec ID/Info                            : UTF-8 Plain TextTitle                                    : ForcedLanguage                                 : RussianDefault                                  : YesForced                                   : No

Text #2ID                                       : 15Format                                   : UTF-8Codec ID                                 : S_TEXT/UTF8Codec ID/Info                            : UTF-8 Plain TextLanguage                                 : RussianDefault                                  : NoForced                                   : No

Text #3ID                                       : 16Format                                   : UTF-8Codec ID                                 : S_TEXT/UTF8Codec ID/Info                            : UTF-8 Plain TextLanguage                                 : EnglishDefault                                  : NoForced                                   : No

Menu00:00:00.000                             : en:00:00:00.00000:03:48.353                             : en:00:03:48.35300:13:04.990                             : en:00:13:04.99000:18:14.800                             : en:00:18:14.80000:26:11.403                             : en:00:26:11.40300:35:29.710                             : en:00:35:29.71000:45:05.452                             : en:00:45:05.45200:56:57.371                             : en:00:56:57.37101:04:44.255                             : en:01:04:44.25501:13:03.752                             : en:01:13:03.75201:16:59.988                             : en:01:16:59.98801:23:22.997                             : en:01:23:22.99701:34:47.640                             : en:01:34:47.64001:46:01.104                             : en:01:46:01.10401:58:53.457                             : en:01:58:53.45702:06:43.511                             : en:02:06:43.51102:16:29.514                             : en:02:16:29.51402:26:12.305                             : en:02:26:12.30502:32:00.653                             : en:02:32:00.65302:41:56.832                             : en:02:41:56.832

piratbit.ru

Спасти рядового торрент скачать | Скачать торренты в BDRip и HDRip качестве

Спасти рядового Райана / Saving Private Ryan (1998) BDRip от HQ-ViDEO | D2.92 GBСпасти рядового Райана / Saving Private Ryan (Стивен Спилберг / Steven Spielberg) [1998, США, Боевик, драма, военный, BDRip-AVC] Dub + Sub1.45 GBСпасти рядового Райана / Saving Private Ryan (1998) BDRip 1080p7.94 GBСпасти рядового Райана / Saving Private Ryan (1998) BDRip2.16 GBСпасти рядового Райана / Saving Private Ryan (Стивен Спилберг / Steven Spielberg) [1998, драма, военный, BDRip] [720p / DVD9] Dub + Original + Sub (rus, eng)7.93 GBСпасти рядового Райана / Saving private Ryan (Стивен Спилберг / Steven Spielberg) [1998, США, Военная драма, DVDRip] Dub1.46 GBСпасти рядового Райана / Saving Private Ryan / 1998 / ДБ, 2 x ПМ, АП (Живов), СТ / BDRip (1080p) / 16.45 ГБ16.45 GBСпасти рядового Райана / Saving Private Ryan (Стивен Спилберг / Steven Spielberg) [1998, драма, военный, 1080p, BDRip]28.18 GBСпасти рядового Райана / Saving Private Ryan / 1998 / ДБ / HDTVRip / 2.73 ГБ2.73 GBСпасение рядового Райана / Saving Private Ryan / Спасти рядового Райана (Стивен Спилберг / Steven Spielberg) [1998, США, военная драма, HDRip - AVC] Dub + MVO + Org + sub3.46 GBСпасти рядового Райана / Saving Private Ryan (1998) BDRip | D1.46 GBСпасти рядового Райана / Saving Private Ryan / 1998 / ДБ / BDRip / 2.74 ГБ2.74 GBСпасти рядового Райана / Saving Private Ryan (Стивен Спилберг / Steven Spielberg) [1999, США, Боевик, драма, военный, BDRip] DUB + Subs (Rus, Eng)2.91 GBСпасти рядового Райана / Saving Private Ryan (Стивен Спилберг / Steven Spielberg) [1998, США, Боевик, драма, военный, HDTVRip-AVC] Dub + MVO + Org + sub2.9 GBСпасти рядового Райана / Saving Private Ryan (1998) BDRip от MediaClub | КПК760.98 MBСпасти рядового Райана / Saving private Ryan (1998) DVDRip1.46 GBСпасти рядового Райана / Saving Private Ryan / 1998 / ДБ / BDRip / 1.46 ГБ1.46 GBСпасти рядового Райана / Saving Private Ryan (1998) BDRip [H.265/1080p-LQ]14.4 GBСпасти рядового Райана / Saving Private Ryan (Стивен Спилберг / Steven Spielberg) [1998, США, Боевик, драма, военный, BDRip-AVC] Dub (BD) + MVO (Позитив-Мультимедиа) + MVO (Карусель) + MVO (Superbit) + AVO (Ю. Живов) + Sub Rus, Eng + Original Eng8.44 GBСпасти рядового Райана / Saving Private Ryan / 1998 / ДБ, СТ / BDRip (AVC) / 4.58 ГБ4.58 GBСпасти рядового Райана / Saving Private Ryan (1998) BDRemux | D, P, A44.97 GBВоенная приемка. Спасти рядового раненого (2015) SATRip498.62 MBСпасти рядового Райана / Saving Private Ryan (1998) BDRip 1080p от NNNB | D,P,A28.8 GBСпасти рядового Райана / Saving Private Ryan (Стивен Спилберг) [1998, США, боевик, драма, военный, BDRip 720p] Rus (Dub, MVO, AVO), Ukr (MVO), Subs8.74 GBСпасти рядового Райана / Saving Private Ryan (Стивен Спилберг / Steven Spielberg) [1080p] [1998, драма, военный, Blu-ray]45.19 GBСпасти рядового Райана / Saving Private Ryan (1998) BDRip-AVC | D2.91 GBСпасти рядового Райана / Saving Private Ryan (Стивен Спилберг) [1080p] [1998, боевик, драма, военный, HDTV]21.3 GBСпасти рядового Райана / Saving Private Ryan (1998) BDRip [H.264/1080p]34.3 GBСпасти рядового Райана / Saving Private Ryan (1998) BDRip 720p от Leonardo and Scarabey | D, P15.59 GBСпасти рядового Райана / Saving Private Ryan (1998) BDRip-AVC | iPhone | D2.46 GBСпасти рядового Райана / Saving Private Ryan / 1998 / ДБ / HDRip / 2.18 ГБ2.18 GB(Score) Спасти рядового Райана / Saving Private Ryan (by John Williams) (1998) [FLAC (Tracks+.CUE), lossless]241 MB[iPhone] Спасти рядового Райана / Saving Private Ryan (Стивен Спилберг) [1998, боевик, драма, военный, HDTVRip]862.3 MBСпасти рядового Райана / Saving Private Ryan (Стивен Спилберг / Steven Spielberg) [1998, США, боевик, драма, военный, история, BDRip] DUB + MVO (Карусель) + AVO (Ю.Живов)1.76 GBСпасти рядового Райана / Saving private Ryan (1998) HDRip от Scarabey | D2.18 GBСпасти рядового Райана / Saving Private Ryan (Стивен Спилберг / Steven Spielberg) [1998, США, боевик, драма, военный, история, BDRip] DUB + MVO (Superbit / Карусель) + AVO (Ю.Живов)3.79 GBСпасти рядового Райана / Saving Private Ryan / 1998 / ПМ, АП (Живов) / BDRip (AVC) / 4.64 ГБ4.64 GBСпасти рядового Райана / Saving Private Ryan (Стивен Спилберг / Steven Spielberg) [1998, США, драма, военный, BDRemux 1080p] Dub + 3x MVO + AVO + Ukr + Sub Rus, Eng + Original Eng52.85 GBСпасти рядового Райана / Saving private Ryan (Стивен Спилберг / Steven Spielberg) [1998, AC3] Dub + MVO + MVO (Позитив) + AVO (Ю. Живов) + Original + Subs (Rus, Eng)2.56 GBСпасти рядового Райана / Saving Private Ryan / 1998 / ДБ, 4 x ПМ, ПД, АП (Живов, Гаврилов, Антонов, Визгунов), СТ / Blu-Ray Remux (1080p) / 68.27 ГБ68.27 GBСпасти рядового Райана / Saving Private Ryan (Стивен Спилберг / Steven Spielberg) [1999, США, Боевик, драма, военный, BDRip] AVO Гаврилов2.9 GBСпасти рядового Райана / Saving Private Ryan (Стивен Спилберг) -=Позитив=- [1998, США, военная драма, 2хDVD9]13.46 GBСпасти рядового Райана / Saving Private Ryan / 1998 / ДБ, СТ / HEVC / BDRip (1080p) / 14.43 ГБ14.43 GBСпасти рядового Райана / Saving Private Ryan (Стивен Спилберг) [720p/DVD5] [1998,боевик, драма, военный, HDTVRip]3.69 GB[VIDEO] Спасти рядового Райана / Saving Private Ryan (Стивен Спилберг / Steven Spielberg) [1998, драма, военный, BDRip] [MP4, 640x]1.06 GBСпасти рядового Райана / Saving Private Ryan (Стивен Спилберг / Steven Spielberg) [1998, драма, военный, 720p, BDRip]17.14 GBСпасти рядового Райана / Saving Private Ryan (Стивен Спилберг / Steven Spielberg) [1998, США, боевик, драма, военный, HDRip] MVO ("Superbit")1.46 GBСпасти рядового Райана / Saving Private Ryan (1998) BDRip 720p17 GB(Фортепиано / Саундтрек) John Williams / Джон Уильямс - Ноты к фильму "Спасти рядового Райана"/ "Saving Private Ryan" [1998, PDF, ENG]8.9 MBСпасти рядового Райана / Saving Private Ryan (Стивен Спилберг / Steven Spielberg) [1998, военный, боевик, драма, DTS, NTSC] Dub1.78 GB tparser.org – торрент поисковик по популярным торрент трекерам. Находить и скачивать новинки кино в HDRip и BDRip качестве через tparser намного проще! Добро пожаловать на крупный торрент архив фильмов и игр tparser.org. Вам больше не придется искать торренты на основных торрент трекерах в поисках нужной раздачи – мы предлагаем найти и скачать фильмы в хорошем качестве прямо на нашем сайте. Наш сервис поиска торрентов в реальном времени собирает информацию с крупных торрент трекеров и сортирует полученные результаты в удобную таблицу. Скачивайте торренты без ограничений и без всяких регистраций на трекерах. Начните скачивать торрент Спасти рядового прямо сейчас!

tparser.org


Смотрите также