Сноуден скачать торрент в хорошем качестве


Скачать торрент Сноуден / Snowden (2016) BDRip 1080p от ExKinoRay

Информация о фильмеНазвание: СноуденОригинальное название: SnowdenГод выхода: 2016Жанр: Триллер, драма, биографияРежиссер: Оливер СтоунВ ролях: Джозеф Гордон-Левитт, Шейлин Вудли, Мелисса Лео, Закари Куинто, Том Уилкинсон, Скотт Иствуд, Рис Иванс, Николас Кейдж, Тимоти Олифант, Джеймс Батлер

О фильме:Он мечтал продолжить семейную традицию и посвятить свою жизнь служению Родине. Он безоговорочно верил в правительство США и поддерживал антитеррористическую программу. На заре его карьеры в спецслужбах никто, даже он сам, не мог бы предположить, что именно он, Эдвард Сноуден, совершит самое крупное разоблачение в мировой истории, обнародовав секретные документы, касающиеся тотальной слежки США за своими гражданами и гражданами других государств. Открыв миру глаза на правду, он навсегда закрыл для себя двери в счастливое будущее: отказался от карьеры, любимой девушки и Родины, которая назвала его предателем...

Страна: Франция, Германия, СШАСтудия: Endgame Entertainment, KrautPack Entertainment, Vendian EntertainmentПродолжительность: 02:14:49Перевод: Дублированный | iTunes

ФайлКачество: BDRip 1080pВидео: MPEG-4 AVC, 1920x800, 14.6 Mbit/s, 23.976 fpsЗвук: Аудио #01: 48 kHz, AC3, 5.1, 384 Kbps | Дублированный | iTunes |Аудио #02: 48 kHz, AC3, 5.1, 640 kbps | Оригинал |Субтитры: Английские

MI

General Unique ID : 175655626296612635956978551494152895590 (0x84260B05E151C19EA0CE73F22FB93C66) Complete name : F:VideoSnowden.2016.BDRip.1080p.ExKinoRay.mkv Format : Matroska Format version : Version 4 / Version 2 File size : 14.8 GiB Duration : 2 h 14 min Overall bit rate : 15.7 Mb/s Movie name : Snowden.2016 ***селезень*** Encoded date : UTC 2016-12-21 22:20:57 Writing application : mkvmerge v8.3.0 ('Over the Horizon') 64bit Writing library : libebml v1.3.1 + libmatroska v1.4.2

Video ID : 1 Format : AVC Format/Info : Advanced Video Codec Format profile : [email protected] Format settings, CABAC : Yes Format settings, ReFrames : 5 frames Codec ID : V_MPEG4/ISO/AVC Duration : 2 h 14 min Bit rate : 14.6 Mb/s Width : 1 920 pixels Height : 800 pixels Display aspect ratio : 2.40:1 Frame rate mode : Constant Frame rate : 23.976 (24000/1001) FPS Color space : YUV Chroma subsampling : 4:2:0 Bit depth : 8 bits Scan type : Progressive Bits/(Pixel*Frame) : 0.398 Stream size : 13.8 GiB (93%) Title : Snowden.2016 ***селезень*** Writing library : x264 core 142 r2431+42 c69a006 tMod [[email protected] X86_64] Encoding settings : cabac=1 / ref=5 / deblock=1:-3:-3 / analyse=0x3:0x113 / me=umh / subme=11 / psy=1 / fade_compensate=0.00 / psy_rd=1.05:1.00 / mixed_ref=1 / me_range=48 / chroma_me=1 / trellis=2 / 8x8dct=1 / cqm=0 / deadzone=21,11 / fast_pskip=0 / chroma_qp_offset=-4 / threads=16 / lookahead_threads=2 / sliced_threads=0 / nr=0 / decimate=0 / interlaced=0 / bluray_compat=0 / constrained_intra=0 / fgo=0 / bframes=8 / b_pyramid=2 / b_adapt=2 / b_bias=0 / direct=3 / weightb=1 / open_gop=0 / weightp=2 / keyint=240 / keyint_min=23 / scenecut=40 / intra_refresh=0 / rc_lookahead=150 / rc=2pass / mbtree=0 / bitrate=14650 / ratetol=1.0 / qcomp=0.60 / qpmin=0:0:0 / qpmax=69:69:69 / qpstep=4 / cplxblur=20.0 / qblur=0.5 / vbv_maxrate=62500 / vbv_bufsize=78125 / nal_hrd=none / filler=0 / ip_ratio=1.30 / pb_ratio=1.20 / aq=2:0.80 / aq-sensitivity=10.00 / aq-factor=1.00:1.00:1.00 / aq2=0 / aq3=0 Language : English Default : Yes Forced : No Color range : Limited Color primaries : BT.709 Transfer characteristics : BT.709 Matrix coefficients : BT.709

Audio #1 ID : 2 Format : AC-3 Format/Info : Audio Coding 3 Mode extension : CM (complete main) Format settings, Endianness : Big Codec ID : A_AC3 Duration : 2 h 14 min Bit rate mode : Constant Bit rate : 384 kb/s Channel(s) : 6 channels Channel positions : Front: L C R, Side: L R, LFE Sampling rate : 48.0 kHz Frame rate : 31.250 FPS (1536 spf) Bit depth : 16 bits Compression mode : Lossy Stream size : 370 MiB (2%) Title : iTunes Language : Russian Default : Yes Forced : No

Audio #2 ID : 3 Format : AC-3 Format/Info : Audio Coding 3 Mode extension : CM (complete main) Format settings, Endianness : Big Codec ID : A_AC3 Duration : 2 h 14 min Bit rate mode : Constant Bit rate : 640 kb/s Channel(s) : 6 channels Channel positions : Front: L C R, Side: L R, LFE Sampling rate : 48.0 kHz Frame rate : 31.250 FPS (1536 spf) Bit depth : 16 bits Compression mode : Lossy Stream size : 617 MiB (4%) Title : Original Language : English Default : No Forced : No

Text #1 ID : 4 Format : UTF-8 Codec ID : S_TEXT/UTF8 Codec ID/Info : UTF-8 Plain Text Duration : 2 h 9 min Bit rate : 75 b/s Count of elements : 2032 Stream size : 71.8 KiB (0%) Title : Full Language : English Default : No Forced : No

Text #2 ID : 5 Format : UTF-8 Codec ID : S_TEXT/UTF8 Codec ID/Info : UTF-8 Plain Text Duration : 2 h 9 min Bit rate : 84 b/s Count of elements : 2176 Stream size : 80.8 KiB (0%) Title : SDH Language : English Default : No Forced : No

Menu 00:00:00.000 : en:00:00:00.000 00:07:42.379 : en:00:07:42.379 00:15:49.991 : en:00:15:49.991 00:20:06.038 : en:00:20:06.038 00:26:32.007 : en:00:26:32.007 00:30:10.976 : en:00:30:10.976 00:35:30.211 : en:00:35:30.211 00:41:42.875 : en:00:41:42.875 00:51:45.769 : en:00:51:45.769 00:59:14.301 : en:00:59:14.301 01:04:44.547 : en:01:04:44.547 01:12:47.822 : en:01:12:47.822 01:18:07.474 : en:01:18:07.474 01:25:11.398 : en:01:25:11.398 01:30:30.717 : en:01:30:30.717 01:38:11.427 : en:01:38:11.427 01:50:06.141 : en:01:50:06.141 01:57:00.472 : en:01:57:00.472 02:03:22.353 : en:02:03:22.353 02:07:49.161 : en:02:07:49.161

Релиз от: Автор релиза:

krutor.org

rutor.org :: Сноуден / Snowden (2016) BDRip 720p от Scarabey

main-rutor.org

Год выпуска: 2016Страна: Франция, Германия, СШАЖанр: триллер, драма, биографияПродолжительность: 02:14:06Перевод: Профессиональный (полное дублирование) [iTunes]Субтитры: нет

Режиссер: Оливер Стоун / Oliver Stone

В ролях: Джозеф Гордон-Левитт, Шейлин Вудли, Мелисса Лео, Закари Куинто, Том Уилкинсон, Скотт Иствуд, Рис Иванс, Николас Кейдж, Тимоти Олифант, Джеймс Батлер

Описание: Он мечтал продолжить семейную традицию и посвятить свою жизнь служению Родине. Он безоговорочно верил в правительство США и поддерживал антитеррористическую программу. На заре его карьеры в спецслужбах никто, даже он сам, не мог бы предположить, что именно он, Эдвард Сноуден, совершит самое крупное разоблачение в мировой истории, обнародовав секретные документы, касающиеся тотальной слежки США за своими гражданами и гражданами других государств. Открыв миру глаза на правду, он навсегда закрыл для себя двери в счастливое будущее: отказался от карьеры, любимой девушки и Родины, которая назвала его предателем…

Качество видео: BDRip 720p (HDS)Формат видео: MKV

Видео: 1280х534, 23,976 fps, AVC ~5136 kbps avgАудио: 48 kHz, AC3 Dolby Digital, 3/2 (L,C,R,l,r) + LFE ch, ~384.00 kbps avg

Релиз от:

АНОНСЫ МОИХ РАЗДАЧ!

Инфо

Snowden.2016.720p_BDRip_[scarabey.org].mkv Формат : Matroska Версия формата : Version 4 / Version 2 Размер файла : 5,30 Гбайт Продолжительность : 2 ч. 14 м. Общий поток : 5632 Кбит/сек Название фильма : Snowden 2016 720p BluRay DTS x264-HDS Дата кодирования : UTC 2016-12-22 13:19:49 Программа кодирования : mkvmerge v6.1.0 ('Old Devil') built on Mar 4 2013 09:10:42 Библиотека кодирования : libebml v1.3.0 + libmatroska v1.4.0

Видео Идентификатор : 1 Формат : AVC Формат/Информация : Advanced Video Codec Профиль формата : [email protected] Параметр CABAC формата : Да Параметр ReFrames формата : 12 кадров Идентификатор кодека : V_MPEG4/ISO/AVC Продолжительность : 2 ч. 14 м. Битрейт : 5136 Кбит/сек Ширина : 1280 пикселей Высота : 534 пикселя Соотношение сторон : 2,40:1 Режим частоты кадров : Постоянный Частота кадров : 23,976 (24000/1001) кадра/сек Цветовое пространство : YUV Субдискретизация насыщенности : 4:2:0 Битовая глубина : 8 бит Тип развёртки : Прогрессивная Бит/(Пиксели*Кадры) : 0.313 Размер потока : 4,84 Гбайт (91%) Заголовок : 环环@HDS Библиотека кодирования : x264 core 148 r2699+6+41 29a38aa Yuuki [[email protected]:2:0 X86_64][GCC 5.3.0] Настройки программы : cabac=1 / ref=12 / deblock=1:-3:-3 / analyse=0x3:0x113 / me=umh / subme=11 / psy=1 / fade_compensate=0.00 / psy_rd=1.00:0.05 / mixed_ref=1 / me_range=32 / chroma_me=1 / trellis=2 / 8x8dct=1 / cqm=0 / deadzone=21,11 / fast_pskip=0 / chroma_qp_offset=-2 / threads=24 / lookahead_threads=4 / sliced_threads=0 / nr=0 / decimate=1 / interlaced=0 / bluray_compat=0 / constrained_intra=0 / fgo=0 / bframes=8 / b_pyramid=2 / b_adapt=2 / b_bias=0 / direct=3 / weightb=1 / open_gop=0 / weightp=2 / keyint=250 / keyint_min=23 / scenecut=40 / intra_refresh=0 / rc=crf / mbtree=0 / crf=17.7000 / qcomp=0.60 / qpmin=0:0:0 / qpmax=69:69:69 / qpstep=4 / ip_ratio=1.40 / pb_ratio=1.30 / aq=3:0.90 Default : Да Forced : Нет

Аудио Идентификатор : 2 Формат : AC-3 Формат/Информация : Audio Coding 3 Расширение режима : CM (complete main) Параметр Endianness формата : Big Идентификатор кодека : A_AC3 Продолжительность : 2 ч. 14 м. Вид битрейта : Постоянный Битрейт : 384 Кбит/сек Каналы : 6 каналов Расположение каналов : Front: L C R, Side: L R, LFE Частота : 48,0 КГц Частота кадров : 31,250 кадров/сек (1536 spf) Метод сжатия : С потерями Размер потока : 370 Мбайт (7%) Заголовок : Дубляж - iTunes Язык : Russian Default : Да Forced : Нет

Скачать фильм Сноуден через торрент в хорошем качестве бесплатно WEB-DLRip by _Один_777

piratbit.ru

Размер: 749 MB | Добавлен: 11 мес. назад | Торрент скачан:398 раз
Реклама Дарим 3000 рублей за регистрацию, не упусти свой шанс получить шикарный бонус!!!

21-11-2016 19:27 Сноуден Скачать торрент  

Сноуден / Snowden«Беги, пока можешь»

Год выпуска: 2016Страна: Франция, Германия, США / Endgame Entertainment, KrautPack Entertainment, Vendian EntertainmentЖанр: Триллер, драма, биографияПродолжительность: 02:14:04Перевод: Профессиональный (полное дублирование) LineCубтитры: нет

Режиссер: Оливер Стоун / Oliver Stone

В ролях: Джозеф Гордон-Левитт, Шейлин Вудли, Мелисса Лео, Закари Куинто, Том Уилкинсон, Скотт Иствуд, Рис Иванс, Николас Кейдж, Тимоти Олифант, Джеймс Батлер...

Описание: Он мечтал продолжить семейную традицию и посвятить свою жизнь служению Родине. Он безоговорочно верил в правительство США и поддерживал антитеррористическую программу. На заре его карьеры в спецслужбах никто, даже он сам, не мог бы предположить, что именно он, Эдвард Сноуден, совершит самое крупное разоблачение в мировой истории, обнародовав секретные документы, касающиеся тотальной слежки США за своими гражданами и гражданами других государств. Открыв миру глаза на правду, он навсегда закрыл для себя двери в счастливое будущее: отказался от карьеры, любимой девушки и Родины, которая назвала его предателем…

Сэмпл: http://sendfile.su/1284399

Качество: WEB-DLRipФормат: AVIВидео кодек: XviDАудио кодек: МР3Видео: 640x272 (2.35:1), 24 fps, XviD build 73 ~643 kbps avg, 0.15 bit/pixelАудио: 48 kHz, MPEG Layer 3, 2 ch, ~128.00 kbps avg

ОбщееПолное имя : G:\Snouden.2016.WEB-DLRip.740.[Один 777].aviФормат : AVIФормат/Информация : Audio Video InterleaveРазмер файла : 749 МбайтПродолжительность : 2 ч. 14 м.Общий поток : 781 Кбит/секПрограмма кодирования : VirtualDubMod 1.5.10.3 | www.virtualdub-fr.org || (build 2550/release)Библиотека кодирования : VirtualDubMod build 2550/release

ВидеоИдентификатор : 0Формат : MPEG-4 VisualПрофиль формата : Advanced [email protected]Параметр BVOP формата : 1Параметр QPel формата : НетПараметр GMC формата : Без точки переходаПараметр матрицы формата : Default (H.263)Идентификатор кодека : XVIDИдентификатор кодека/Подсказка : XviDПродолжительность : 2 ч. 14 м.Битрейт : 644 Кбит/секШирина : 640 пикселейВысота : 272 пикселяСоотношение сторон : 2,35:1Частота кадров : 24,000 кадра/секЦветовое пространство : YUVСубдискретизация насыщенности : 4:2:0Битовая глубина : 8 битТип развёртки : ПрогрессивнаяМетод сжатия : С потерямиБит/(Пиксели*Кадры) : 0.154Размер потока : 617 Мбайт (82%)Библиотека кодирования : XviD 73

АудиоИдентификатор : 1Формат : MPEG AudioВерсия формата : Version 1Профиль формата : Layer 3Идентификатор кодека : 55Идентификатор кодека/Подсказка : MP3Продолжительность : 2 ч. 14 м.Вид битрейта : ПостоянныйБитрейт : 128 Кбит/секКаналы : 2 каналаЧастота : 48,0 КГцМетод сжатия : С потерямиРазмер потока : 123 Мбайт (16%)Выравнивание : Соединение по промежуткамПродолжительность промежутка : 42 мс. (1,00 видеокадр)Время предзагрузки промежутка : 504 мс.Библиотека кодирования : LAME3.99rНастройки программы : -m s -V 4 -q 2 -lowpass 17 -b 128

Скачать Сноуден через торрент http://i5.imageban.ru/out/2016/11/21/390ff4f8ac772fdc214a24bbd2771f4c.jpg Скачать фильм Сноуден через торрент бесплантно в хорошем качестве Описание: Он мечтал продолжить семейную традицию и посвятить свою жизнь служению Родине. Он безоговорочно верил в правительство США и ... 2016-11-21 19:27 9.2 10 11

Loading...

Loading...

Рекламный пират

22-11-2016 11:05 Сноуден Скачать торрент  

ну какой с Джозефа Левитта СНОУДЕН.... 21 век, у нас в России и то на телепередаче *ОДИН В ОДИН* лучше гримируют ))

22-11-2016 15:09 Сноуден Скачать торрент  

Уже фильм про него сняли о как

05-12-2016 14:48 Сноуден Скачать торрент  

надо глянуть))

Дорогой пользователь! Огромная просьба, поблагодарите релизера, оцените раздачу и оставьте свои комментарий, если Вы скачали Сноуден через торрент бесплатно! Внесите свою лепту в развитие PiratBit!

Комментировать посты могут только пользователи прошедшие не сложную регистрацию

Сноуден через торрент Скачать бесплатно Сноуден Сноуден скачать торрент Сноуден смотреть онлайн Cкачать фильм Сноуден бесплатно Сноуден скачать торрент в хорошем качестве Сноуден смотреть онлайн бесплатно в хорошем качестве

Вы можете начинать темыВы можете отвечать на сообщенияВы не можете редактировать свои сообщенияВы не можете удалять свои сообщенияВы не можете голосовать в опросахВы не можете прикреплять файлы к сообщениямВы можете скачивать файлы

Скачать фильм Сноуден через торрент в хорошем качестве бесплатно 1080p

GeneralUnique ID : 241474285059196385819090314233335659060 (0xB5AA4171971E7C2CBB3A53FB63AE3A34)Complete name : E:\Snowden.2016.1080p.BluRay.x264.mkvFormat : MatroskaFormat version : Version 4 / Version 2File size : 10.2 GiBDuration : 2 h 14 minOverall bit rate : 10.8 Mb/sEncoded date : UTC 2016-12-09 12:04:30Writing application : mkvmerge v9.6.0 ('Slave To Your Mind') 64bitWriting library : libebml v1.3.4 + libmatroska v1.4.5

VideoID : 1Format : AVCFormat/Info : Advanced Video CodecFormat profile : [email protected] settings, CABAC : YesFormat settings, ReFrames : 5 framesCodec ID : V_MPEG4/ISO/AVCDuration : 2 h 14 minBit rate : 8 939 kb/sWidth : 1 920 pixelsHeight : 800 pixelsDisplay aspect ratio : 2.40:1Frame rate mode : ConstantFrame rate : 23.976 FPSColor space : YUVChroma subsampling : 4:2:0Bit depth : 8 bitsScan type : ProgressiveBits/(Pixel*Frame) : 0.243Stream size : 8.21 GiB (81%)Writing library : x264 core 148 r2705 3f5ed56Encoding settings : cabac=1 / ref=5 / deblock=1:0:0 / analyse=0x3:0x133 / me=umh / subme=7 / psy=1 / psy_rd=1.00:0.00 / mixed_ref=1 / me_range=16 / chroma_me=1 / trellis=1 / 8x8dct=1 / cqm=0 / deadzone=21,11 / fast_pskip=0 / chroma_qp_offset=-2 / threads=18 / lookahead_threads=3 / sliced_threads=0 / nr=0 / decimate=1 / interlaced=0 / bluray_compat=0 / constrained_intra=0 / bframes=3 / b_pyramid=2 / b_adapt=1 / b_bias=0 / direct=1 / weightb=1 / open_gop=0 / weightp=2 / keyint=250 / keyint_min=23 / scenecut=40 / intra_refresh=0 / rc_lookahead=40 / rc=2pass / mbtree=1 / bitrate=8939 / ratetol=1.0 / qcomp=0.60 / qpmin=0 / qpmax=69 / qpstep=4 / cplxblur=20.0 / qblur=0.5 / ip_ratio=1.40 / aq=1:1.00Language : EnglishDefault : YesForced : No

Audio #1ID : 2Format : DTSFormat/Info : Digital Theater SystemsMode : 16Format settings, Endianness : BigCodec ID : A_DTSDuration : 2 h 14 minBit rate mode : ConstantBit rate : 1 509 kb/sChannel(s) : 6 channelsChannel positions : Front: L C R, Side: L R, LFESampling rate : 48.0 kHzFrame rate : 93.750 FPS (512 spf)Bit depth : 24 bitsCompression mode : LossyStream size : 1.42 GiB (14%)Language : EnglishDefault : YesForced : No

Audio #2ID : 4Format : AC-3Format/Info : Audio Coding 3Mode extension : CM (complete main)Format settings, Endianness : BigCodec ID : A_AC3Duration : 2 h 14 minBit rate mode : ConstantBit rate : 384 kb/sChannel(s) : 2 channelsChannel positions : Front: L RSampling rate : 48.0 kHzFrame rate : 31.250 FPS (1536 spf)Bit depth : 16 bitsCompression mode : LossyStream size : 370 MiB (4%)Language : RussianDefault : NoForced : No

TextID : 3Format : VobSubMuxing mode : zlibCodec ID : S_VOBSUBCodec ID/Info : Picture based subtitle format used on DVDsLanguage : EnglishDefault : YesForced : No

Menu00:00:00.000 : en:00:00:00.00000:07:42.379 : en:00:07:42.37900:15:49.991 : en:00:15:49.99100:20:06.038 : en:00:20:06.03800:26:32.007 : en:00:26:32.00700:30:10.976 : en:00:30:10.97600:35:30.211 : en:00:35:30.21100:41:42.875 : en:00:41:42.87500:51:45.769 : en:00:51:45.76900:59:14.301 : en:00:59:14.30101:04:44.547 : en:01:04:44.54701:12:47.822 : en:01:12:47.82201:18:07.474 : en:01:18:07.47401:25:11.398 : en:01:25:11.39801:30:30.717 : en:01:30:30.71701:38:11.427 : en:01:38:11.42701:50:06.141 : en:01:50:06.14101:57:00.472 : en:01:57:00.47202:03:22.353 : en:02:03:22.35302:07:49.161 : en:02:07:49.161

piratbit.ru

Скачать фильм Сноуден через торрент в хорошем качестве бесплатно WEB-DLRip

piratbit.ru

Раздают: 2 [ 0 KB/s ]
Размер: 2.05 GB | Добавлен: 11 мес. назад | Торрент скачан:198 раз
Реклама Дарим 3000 рублей за регистрацию, не упусти свой шанс получить шикарный бонус!!!

15-11-2016 03:12 Сноуден Скачать торрент  

Сноуден / Snowden Год выпуска: 2016Страна: Франция, Германия, СШАЖанр: триллер, драма, биография

Продолжительность: 02:14:18Перевод: Дубляж - [Звук CamRip]

Режиссер: Оливер СтоунВ ролях: Джозеф Гордон-Левитт (Edward Snowden), Шейлин Вудли (Lindsay Mills), Мелисса Лео (Laura Poitras), Закари Куинто (Glenn Greenwald), Том Уилкинсон (Ewen MacAskill), Скотт Иствуд (Trevor James), Рис Иванс (Corbin O'Brian), Николас Кейдж (Hank Forrester), Тимоти Олифант (CIA Agent Geneva), Джеймс Батлер (Drill Sergeant), Роберт Фёрт (Dr. Stillwell), Рэйчел Хэндшоу (CIA Polygraph Adminstrator)Описание: Он мечтал продолжить семейную традицию и посвятить свою жизнь служению Родине. Он безоговорочно верил в правительство США и поддерживал антитеррористическую программу. На заре его карьеры в спецслужбах никто, даже он сам, не мог бы предположить, что именно он, Эдвард Сноуден, совершит самое крупное разоблачение в мировой истории, обнародовав секретные документы, касающиеся тотальной слежки США за своими гражданами и гражданами других государств. Открыв миру глаза на правду, он навсегда закрыл для себя двери в счастливое будущее: отказался от карьеры, любимой девушки и Родины, которая назвала его предателем...Рейтинг: MPAA: R - Лицам до 17 лет обязательно присутствие взрослогоКачество: WEB-DLRipФормат: AVIВидео: XviD, 720x304 (2.35:1), 1791 kbps, 24 fps, 0,341 bppАудио: AC3 / 2.0 / 48 kHz / 384 kbps / GeneralComplete name : D:\Proba\CHoYDeN.2O16.D.WEB-DLRip.21OOMB_KOSHARA.aviFormat : AVIFormat/Info : Audio Video InterleaveFormat profile : OpenDMLFile size : 2.05 GiBDuration : 2 h 14 minOverall bit rate : 2 188 kb/sWriting application : VirtualDubMod 1.5.10.2 (build 2540/release)Writing library : VirtualDubMod build 2540/release

VideoID : 0Format : MPEG-4 VisualFormat profile : Advanced [email protected] settings, BVOP : 2Format settings, QPel : NoFormat settings, GMC : No warppointsFormat settings, Matrix : CustomCodec ID : XVIDCodec ID/Hint : XviDDuration : 2 h 14 minBit rate : 1 792 kb/sWidth : 720 pixelsHeight : 304 pixelsDisplay aspect ratio : 2.35:1Frame rate : 24.000 FPSColor space : YUVChroma subsampling : 4:2:0Bit depth : 8 bitsScan type : ProgressiveCompression mode : LossyBits/(Pixel*Frame) : 0.341Stream size : 1.68 GiB (82%)Writing library : XviD 1.2.1 (UTC 2008-12-04)

AudioID : 1Format : AC-3Format/Info : Audio Coding 3Mode extension : CM (complete main)Format settings, Endianness : BigCodec ID : 2000Duration : 2 h 14 minBit rate mode : ConstantBit rate : 384 kb/sChannel(s) : 2 channelsChannel positions : Front: L RSampling rate : 48.0 kHzFrame rate : 31.250 FPS (1536 spf)Compression mode : LossyStream size : 369 MiB (18%)Alignment : Split accross interleavesInterleave, duration : 42 ms (1.00 video frame)Interleave, preload duration : 500 ms

Имеется реклама

Скачать Сноуден через торрент http://i1.imageban.ru/out/2016/11/15/936b8fb73228a9dea48a0ee0a2caa600.jpg Скачать фильм Сноуден через торрент бесплантно в хорошем качестве Описание: Он мечтал продолжить семейную традицию и посвятить свою жизнь служению Родине. Он безоговорочно верил в правительство США и ... 2016-11-15 03:12 10 10 5

Loading...

Loading...

Рекламный пират

15-11-2016 07:42 Сноуден Скачать торрент  

Цитата:

но скорее всего CamRip

Факт! кошароказлинщики все время впаривают что с TS, при том что никакого TS и не было

Дорогой пользователь! Огромная просьба, поблагодарите релизера, оцените раздачу и оставьте свои комментарий, если Вы скачали Сноуден через торрент бесплатно! Внесите свою лепту в развитие PiratBit!

Комментировать посты могут только пользователи прошедшие не сложную регистрацию

Сноуден через торрент Скачать бесплатно Сноуден Сноуден скачать торрент Сноуден смотреть онлайн Cкачать фильм Сноуден бесплатно Сноуден скачать торрент в хорошем качестве Сноуден смотреть онлайн бесплатно в хорошем качестве

Вы можете начинать темыВы можете отвечать на сообщенияВы не можете редактировать свои сообщенияВы не можете удалять свои сообщенияВы не можете голосовать в опросахВы не можете прикреплять файлы к сообщениямВы можете скачивать файлы

РУТОРГ :: Сноуден / Snowden (2016) BDRip 1080p | iTunes

xn--c1avfbif.org

Сноуден / Snowden

Страна: США Германия Франция Производство: Endgame Entertainment, KrautPack Entertainment, Vendian EntertainmentГод выпуска: 2016Жанр: триллер, драма, биографияПродолжительность: 02:14:49

Режиссер: Оливер СтоунАвторы сценария: Киран Фицджералд, Оливер Стоун, Анатолий Кучерена

В ролях: Джозеф Гордон-Левитт, Шейлин Вудли, Мелисса Лео, Закари Куинто, Том Уилкинсон, Скотт Иствуд, Рис Иванс, Николас Кейдж, Тимоти Олифант

Описание: Он мечтал продолжить семейную традицию и посвятить свою жизнь служению Родине. Он безоговорочно верил в правительство США и поддерживал антитеррористическую программу. На заре его карьеры в спецслужбах никто, даже он сам, не мог бы предположить, что именно он, Эдвард Сноуден, совершит самое крупное разоблачение в мировой истории, обнародовав секретные документы, касающиеся тотальной слежки США за своими гражданами и гражданами других государств. Открыв миру глаза на правду, он навсегда закрыл для себя двери в счастливое будущее: отказался от карьеры, любимой девушки и Родины, которая назвала его предателем…

Перевод: Профессиональный (полное дублирование) | iTunesСубтитры: русские (full), английские (full)

Качество: BDRip 1080pФормат: M4VВидео кодек: AVCАудио кодек: AAC | АС3Видео №1: 1920x800 (2.40:1), 23.976 fps, MPEG-4 AVC ~8 000 kbps avgВидео №2: 640x266 (2.40:1), 0.002 fps, MPEG-4 AVC ~817 bps avg

Аудио №1: 48.0 kHz, Advanced Audio Codec LC, 2/0 (L,R) ch, ~156 kbps | RUSАудио №2: 48.0 kHz, Advanced Audio Codec LC, 2/0 (L,R) ch, ~157 kbps | ENGАудио №3: 48.0 kHz, AC3 Dolby Digital, 3/2 (L,C,R,l,r) + LFE ch, ~384 kbps | RUSАудио №4: 48.0 kHz, AC3 Dolby Digital, 3/2 (L,C,R,l,r) + LFE ch, ~640 kbps | ENGФормат субтитров: Timed text, Apple text

Дата премьеры (мир): 21 июля 2016Дата премьеры (РФ): 15 сентября 2016, «Централ Партнершип»

Media Info

General Complete name : Snowden (1080p HD).m4v Format : MPEG-4 Codec ID : M4V (M4V /M4A /mp42/isom) File size : 8.80 GiB Duration : 2h 14mn Overall bit rate mode : Variable Overall bit rate : 9 342 Kbps Recorded date : UTC 2016-07-21 08:00:00 Encoded date : UTC 2016-12-30 09:44:39 Tagged date : UTC 2016-12-30 09:50:40 Copyright : © 2016 Open Road Films. All Rights Reserved. AppleStoreCatalogID : 1153715896 Vendor : Apple:vendor_id:2016-843831 ContentRating : mpaa|R|400|

Video #1 ID : 1 Format : AVC Format/Info : Advanced Video Codec Format profile : [email protected] Format settings, CABAC : Yes Format settings, ReFrames : 4 frames Codec ID : avc1 Codec ID/Info : Advanced Video Coding Duration : 2h 14mn Source duration : 2h 14mn Bit rate : 8 000 Kbps Width : 1 920 pixels Height : 800 pixels Display aspect ratio : 2.40:1 Frame rate mode : Variable Frame rate : 23.976 (24000/1001) fps Minimum frame rate : 23.974 fps Maximum frame rate : 23.981 fps Color space : YUV Chroma subsampling : 4:2:0 Bit depth : 8 bits Scan type : Progressive Bits/(Pixel*Frame) : 0.217 Stream size : 7.53 GiB (86%) Source stream size : 7.53 GiB (86%) Title : Main Program Writing library : x264 core 142 r2479 dd79a61 Encoding settings : cabac=1 / ref=4 / deblock=1:-2:-2 / analyse=0x3:0x133 / me=umh / subme=10 / psy=1 / psy_rd=1.00:0.15 / mixed_ref=1 / me_range=32 / chroma_me=1 / trellis=2 / 8x8dct=1 / cqm=0 / deadzone=21,11 / fast_pskip=0 / chroma_qp_offset=-3 / threads=36 / lookahead_threads=6 / sliced_threads=0 / nr=0 / decimate=0 / interlaced=0 / bluray_compat=0 / constrained_intra=0 / bframes=16 / b_pyramid=2 / b_adapt=2 / b_bias=0 / direct=3 / weightb=1 / open_gop=0 / weightp=2 / keyint=240 / keyint_min=24 / scenecut=40 / intra_refresh=0 / rc_lookahead=60 / rc=2pass / mbtree=1 / bitrate=8000 / ratetol=1.0 / qcomp=0.70 / qpmin=0 / qpmax=69 / qpstep=4 / cplxblur=20.0 / qblur=0.5 / vbv_maxrate=25000 / vbv_bufsize=25000 / nal_hrd=none / filler=0 / ip_ratio=1.40 / aq=1:1.00 Language : English Encoded date : UTC 2016-12-30 09:44:39 Tagged date : UTC 2016-12-30 09:45:15 Color range : Limited Color primaries : BT.709 Transfer characteristics : BT.709 Matrix coefficients : BT.709 Menus : 8,9

Video #2 ID : 9 Format : JPEG Codec ID : jpeg Duration : 2h 14mn Bit rate mode : Variable Bit rate : 817 bps Width : 640 pixels Height : 266 pixels Display aspect ratio : 2.40:1 Frame rate mode : Variable Frame rate : 0.002 fps Minimum frame rate : 0.001 fps Maximum frame rate : 0.005 fps Color space : YUV Chroma subsampling : 4:2:0 Bit depth : 8 bits Compression mode : Lossy Bits/(Pixel*Frame) : 2.400 Stream size : 997 KiB (0%) Title : Chapter Images Language : English Default : No Encoded date : UTC 2016-12-30 09:45:59 Tagged date : UTC 2016-12-30 09:45:59 Menu For : 1

Audio #1 ID : 2 Format : AAC Format/Info : Advanced Audio Codec Format profile : LC Codec ID : 40 Duration : 2h 14mn Bit rate mode : Variable Bit rate : 156 Kbps Maximum bit rate : 222 Kbps Channel(s) : 2 channels Channel positions : Front: L R Sampling rate : 48.0 KHz Frame rate : 46.875 fps (1024 spf) Compression mode : Lossy Stream size : 150 MiB (2%) Title : Russian Stereo Language : Russian Default : Yes Alternate group : 1 Encoded date : UTC 2016-12-30 09:44:39 Tagged date : UTC 2016-12-30 09:45:16 Fallback From : 4 Menus : 8

Audio #2 ID : 3 Format : AAC Format/Info : Advanced Audio Codec Format profile : LC Codec ID : 40 Duration : 2h 14mn Bit rate mode : Variable Bit rate : 157 Kbps Maximum bit rate : 247 Kbps Channel(s) : 2 channels Channel positions : Front: L R Sampling rate : 48.0 KHz Frame rate : 46.875 fps (1024 spf) Compression mode : Lossy Stream size : 151 MiB (2%) Title : English Stereo Language : English Default : No Alternate group : 1 Encoded date : UTC 2016-12-30 09:44:39 Tagged date : UTC 2016-12-30 09:45:16 Fallback From : 5

Audio #3 ID : 4 Format : AC-3 Format/Info : Audio Coding 3 Mode extension : CM (complete main) Format settings, Endianness : Big Codec ID : ac-3 Duration : 2h 14mn Bit rate mode : Constant Bit rate : 384 Kbps Channel(s) : 6 channels Channel positions : Front: L C R, Side: L R, LFE Sampling rate : 48.0 KHz Frame rate : 31.250 fps (1536 spf) Bit depth : 16 bits Compression mode : Lossy Stream size : 370 MiB (4%) Title : Russian DD 5.1 Language : Russian Default : Inherited From: 2 Alternate group : 1 Encoded date : UTC 2016-12-30 09:44:39 Tagged date : UTC 2016-12-30 09:44:46 Fallback To : 2

Audio #4 ID : 5 Format : AC-3 Format/Info : Audio Coding 3 Mode extension : CM (complete main) Format settings, Endianness : Big Codec ID : ac-3 Duration : 2h 14mn Bit rate mode : Constant Bit rate : 640 Kbps Channel(s) : 6 channels Channel positions : Front: L C R, Side: L R, LFE Sampling rate : 48.0 KHz Frame rate : 31.250 fps (1536 spf) Bit depth : 16 bits Compression mode : Lossy Stream size : 617 MiB (7%) Title : English DD 5.1 Language : English Default : No Alternate group : 1 Encoded date : UTC 2016-12-30 09:44:39 Tagged date : UTC 2016-12-30 09:44:46 Fallback To : 3

Text #1 ID : 6 Format : Timed Text Muxing mode : sbtl Codec ID : tx3g Duration : 2h 10mn Bit rate mode : Variable Bit rate : 108 bps Stream size : 103 KiB (0%) Title : Russian full Language : Russian Default : Yes Forced : No Alternate group : 2 Encoded date : UTC 2016-12-30 09:44:39 Tagged date : UTC 2016-12-30 09:45:49

Text #2 ID : 7 Format : Timed Text Muxing mode : sbtl Codec ID : tx3g Duration : 2h 10mn Bit rate mode : Variable Bit rate : 99 bps Stream size : 94.2 KiB (0%) Title : English fhll Language : English Default : No Forced : No Alternate group : 2 Encoded date : UTC 2016-12-30 09:44:39 Tagged date : UTC 2016-12-30 09:45:49

Menu #1 00:00:00.000 : Chapter 1 00:07:42.462 : Chapter 2 00:15:50.074 : Chapter 3 00:20:06.122 : Chapter 4 00:26:32.090 : Chapter 5 00:30:11.059 : Chapter 6 00:35:29.419 : Chapter 7 00:41:42.959 : Chapter 8 00:51:45.853 : Chapter 9 00:59:14.384 : Chapter 10 01:04:44.506 : Chapter 11 01:12:47.154 : Chapter 12 01:18:07.558 : Chapter 13 01:25:11.481 : Chapter 14 01:30:30.800 : Chapter 15 01:38:11.511 : Chapter 16 01:50:06.225 : Chapter 17 01:57:00.055 : Chapter 18 02:03:22.437 : Chapter 19 02:07:48.995 : Chapter 20

Menu #2 ID : 8 Codec ID : text Duration : 2h 14mn Language : English Encoded date : UTC 2016-12-30 09:45:49 Tagged date : UTC 2016-12-30 09:45:49 Menu For : 2,1 00:00:00.000 : Chapter 1 00:07:42.462 : Chapter 2 00:15:50.074 : Chapter 3 00:20:06.122 : Chapter 4 00:26:32.090 : Chapter 5 00:30:11.059 : Chapter 6 00:35:29.419 : Chapter 7 00:41:42.959 : Chapter 8 00:51:45.853 : Chapter 9 00:59:14.384 : Chapter 10 01:04:44.506 : Chapter 11 01:12:47.154 : Chapter 12 01:18:07.558 : Chapter 13 01:25:11.481 : Chapter 14 01:30:30.800 : Chapter 15 01:38:11.511 : Chapter 16 01:50:06.225 : Chapter 17 01:57:00.055 : Chapter 18 02:03:22.437 : Chapter 19 02:07:48.995 : Chapter 20 Bit rate mode : VBR

Дополнительная информация: релиз подготовлен для просмотра на Apple TV, iPad, iPhone, iPod Touch. Для просмотра данного релиза на компьютере с ОС Windows рекомендуется использовать VLC media player

Скачать фильм Сноуден через торрент в хорошем качестве бесплатно BDRip-AVC

GeneralUnique ID : 180065096698487875688964958707809947736 (0x877746B2E26B5CBBBCA6D9B6AA8E9058)Complete name : D:\download\Snowden.2016.BDRip-AVC by schultz R.G.Resident.mkvFormat : MatroskaFormat version : Version 4 / Version 2File size : 3.51 GiBDuration : 2 h 14 minOverall bit rate : 3 732 kb/sEncoded date : UTC 2016-12-22 01:55:05Writing application : mkvmerge v8.9.0 ('Father Daughter') 64bitWriting library : libebml v1.3.3 + libmatroska v1.4.4

VideoID : 1Format : AVCFormat/Info : Advanced Video CodecFormat profile : [email protected] settings, CABAC : YesFormat settings, ReFrames : 12 framesCodec ID : V_MPEG4/ISO/AVCDuration : 2 h 14 minBit rate : 2 898 kb/sWidth : 1 024 pixelsHeight : 426 pixelsDisplay aspect ratio : 2.40:1Frame rate mode : ConstantFrame rate : 23.976 (23976/1000) FPSColor space : YUVChroma subsampling : 4:2:0Bit depth : 8 bitsScan type : ProgressiveBits/(Pixel*Frame) : 0.277Stream size : 2.73 GiB (78%)Writing library : x264 core 146 r2538 121396cEncoding settings : cabac=1 / ref=12 / deblock=1:-3:-3 / analyse=0x3:0x113 / me=umh / subme=11 / psy=1 / psy_rd=1.00:0.00 / mixed_ref=1 / me_range=48 / chroma_me=1 / trellis=2 / 8x8dct=1 / cqm=0 / deadzone=21,11 / fast_pskip=0 / chroma_qp_offset=-2 / threads=12 / lookahead_threads=3 / sliced_threads=0 / nr=0 / decimate=0 / interlaced=0 / bluray_compat=0 / constrained_intra=0 / bframes=11 / b_pyramid=2 / b_adapt=2 / b_bias=0 / direct=3 / weightb=1 / open_gop=0 / weightp=2 / keyint=240 / keyint_min=23 / scenecut=40 / intra_refresh=0 / rc_lookahead=40 / rc=2pass / mbtree=1 / bitrate=2898 / ratetol=1.0 / qcomp=0.60 / qpmin=0 / qpmax=69 / qpstep=4 / cplxblur=20.0 / qblur=0.5 / vbv_maxrate=50000 / vbv_bufsize=62500 / nal_hrd=none / filler=0 / ip_ratio=1.40 / aq=1:1.00Language : EnglishDefault : YesForced : No

Audio #1ID : 2Format : AC-3Format/Info : Audio Coding 3Mode extension : CM (complete main)Format settings, Endianness : BigCodec ID : A_AC3Duration : 2 h 14 minBit rate mode : ConstantBit rate : 384 kb/sChannel(s) : 6 channelsChannel positions : Front: L C R, Side: L R, LFESampling rate : 48.0 kHzFrame rate : 31.250 FPS (1536 spf)Compression mode : LossyStream size : 370 MiB (10%)Language : RussianDefault : YesForced : No

Audio #2ID : 3Format : AC-3Format/Info : Audio Coding 3Mode extension : CM (complete main)Format settings, Endianness : BigCodec ID : A_AC3Duration : 2 h 14 minBit rate mode : ConstantBit rate : 448 kb/sChannel(s) : 6 channelsChannel positions : Front: L C R, Side: L R, LFESampling rate : 48.0 kHzFrame rate : 31.250 FPS (1536 spf)Compression mode : LossyStream size : 432 MiB (12%)Language : EnglishDefault : NoForced : No

Text #1ID : 4Format : UTF-8Codec ID : S_TEXT/UTF8Codec ID/Info : UTF-8 Plain TextDuration : 2 h 9 minBit rate : 76 b/sCount of elements : 2032Stream size : 72.0 KiB (0%)Title : fullLanguage : EnglishDefault : NoForced : No

Text #2ID : 5Format : UTF-8Codec ID : S_TEXT/UTF8Codec ID/Info : UTF-8 Plain TextDuration : 2 h 9 minBit rate : 82 b/sCount of elements : 2176Stream size : 78.2 KiB (0%)Title : SDHLanguage : EnglishDefault : NoForced : No

Menu00:00:00.000 : en:00:00:00.00000:07:42.379 : en:00:07:42.37900:15:49.991 : en:00:15:49.99100:20:06.038 : en:00:20:06.03800:26:32.007 : en:00:26:32.00700:30:10.976 : en:00:30:10.97600:35:30.211 : en:00:35:30.21100:41:42.875 : en:00:41:42.87500:51:45.769 : en:00:51:45.76900:59:14.301 : en:00:59:14.30101:04:44.547 : en:01:04:44.54701:12:47.822 : en:01:12:47.82201:18:07.474 : en:01:18:07.47401:25:11.398 : en:01:25:11.39801:30:30.717 : en:01:30:30.71701:38:11.427 : en:01:38:11.42701:50:06.141 : en:01:50:06.14101:57:00.472 : en:01:57:00.47202:03:22.353 : en:02:03:22.35302:07:49.161 : en:02:07:49.161

piratbit.ru


Смотрите также