Скачать все путем торрент в хорошем качестве


Скачать фильм Всё путем! (2010) через торрент

gig-torrent.net

21 апреля 2016 13:44 Всё путем / Everything Must Go (2010) HDRip от New-Team | P .torrent   [Информация о файле (нажмите для просмотра)] Перевод: Профессиональный (многоголосый закадровый) - лицензияКачество: HDRipФормат: AVIВидео: 720x304 (2.35:1), 25.000 fps, XviD MPEG-4 ~936 kbps avg, 0.178 bit/pixelАудио: Русский: 48 kHz, МР3, 2 ch, 128.00 kbps ConstantВидео: Идентификатор : 0 Формат : MPEG-4 Visual Профиль формата : Advanced [email protected] Параметр BVOP формата : 1 Параметр QPel формата : Нет Параметр GMC формата : Без точки перехода Параметр матрицы формата : Выборочная Идентификатор кодека : XVID Идентификатор кодека/Подсказка : XviD Продолжительность : 1 ч. 37 м. Битрейт : 936 Кбит/сек Ширина : 720 пикселей Высота : 304 пикселя Соотношение сторон : 2,35:1 Частота кадров : 23,976 кадра/сек Цветовое пространство : YUV Субдискретизация насыщенности : 4:2:0 Битовая глубина : 8 бит Тип развёртки : Прогрессивная Метод сжатия : С потерями Бит/(Пиксели*Кадры) : 0.178 Размер потока : 650 Мбайт (88%) Библиотека кодирования : XviD 65Аудио: Идентификатор : 1 Формат : MPEG Audio Версия формата : Version 1 Профиль формата : Layer 3 Режим : Joint stereo Расширение режима : MS Stereo Идентификатор кодека : 55 Идентификатор кодека/Подсказка : MP3 Продолжительность : 1 ч. 33 м. Вид битрейта : Постоянный Битрейт : 128 Кбит/сек Каналы : 2 канала Частота : 48,0 КГц Метод сжатия : С потерями Размер потока : 85,3 Мбайт (11%) Выравнивание : Соединение по промежуткам Продолжительность промежутка : 43 мс. (1,04 видеокадр) Время предзагрузки промежутка : 504 мс. 745,26 Mb 6 8
21 апреля 2016 13:44 Всё путем! / Everything Must Go (2010) BDRip от HQCLUB | Лицензия .torrent   [Информация о файле (нажмите для просмотра)] Перевод: Профессиональный (многоголосый, закадровый) R5 [НТВ+]Субтитры: русские, английские, украинскиеФормат: AVIКачество: BDRip (источник:Видео: 720x304 (2.37:1), 23.976 fps, XviD build 65 ~1940 kbps avg, 0.37 bit/pixelАудио #1: 48 kHz, AC3 Dolby Digital, 2/0 (L,R) ch, ~192 kbps avg (RUS)Аудио #2: 48 kHz, AC3 Dolby Digital, 3/2 (L,C,R,l,r) + LFE ch, ~448 kbps avg (ENG)(отдельно) 1,45 Gb 8 4
21 апреля 2016 13:44 Всё путем / Everything Must Go (2010) BDRip 720p от New-Team | P .torrent   [Информация о файле (нажмите для просмотра)] Перевод: Профессиональный (многоголосый закадровый) - лицензия от Новый Диск-трейдКачество: BDRip 720pФормат: MKVВидео: 1280x534 (2.40:1), 25.000 fps, h364 ~4895 kbps avg, 0.299 bit/pixelАудио 1: Русский: 48 kHz, Dolby AC3, 2 ch, 192.00 kbps ConstantАудио 2: Английский: 48 kHz, DTS, 6 ch, 1536.00 kbps ConstantВидео: Идентификатор : 1 Формат : AVC Формат/Информация : Advanced Video Codec Профиль формата : [email protected] Параметр CABAC формата : Да Параметр ReFrames формата : 12 кадров Идентификатор кодека : V_MPEG4/ISO/AVC Продолжительность : 1 ч. 37 м. Битрейт : 4895 Кбит/сек Ширина : 1280 пикселей Высота : 534 пикселя Соотношение сторон : 2,40:1 Частота кадров : 23,976 кадра/сек Цветовое пространство : YUV Субдискретизация насыщенности : 4:2:0 Битовая глубина : 8 бит Тип развёртки : Прогрессивная Бит/(Пиксели*Кадры) : 0.299 Размер потока : 3,26 Гбайт (72%) Заголовок : x264 Video Stream Библиотека кодирования : x264 core 116 r2037 f8ebd4a Настройки программы : cabac=1 / ref=12 / deblock=1:-3:-2 / analyse=0x3:0x133 / me=umh / subme=10 / psy=1 / psy_rd=0.90:0.10 / mixed_ref=1 / me_range=32 / chroma_me=1 / trellis=2 / 8x8dct=1 / cqm=0 / deadzone=21,11 / fast_pskip=0 / chroma_qp_offset=-3 / threads=9 / sliced_threads=0 / nr=0 / decimate=0 / interlaced=0 / bluray_compat=0 / constrained_intra=0 / bframes=7 / b_pyramid=2 / b_adapt=2 / b_bias=0 / direct=3 / weightb=1 / open_gop=0 / weightp=2 / keyint=360 / keyint_min=2 / scenecut=40 / intra_refresh=0 / rc_lookahead=50 / rc=2pass / mbtree=1 / bitrate=4895 / ratetol=1.0 / qcomp=0.70 / qpmin=0 / qpmax=69 / qpstep=4 / cplxblur=20.0 / qblur=0.5 / vbv_maxrate=50000 / vbv_bufsize=30000 / nal_hrd=none / ip_ratio=1.40 / aq=2:1.00 Default : Да Forced : НетАудио #1: Идентификатор : 2 Формат : AC-3 Формат/Информация : Audio Coding 3 Расширение режима : CM (complete main) Параметр Endianness формата : Big Идентификатор кодека : A_AC3 Продолжительность : 1 ч. 37 м. Вид битрейта : Постоянный Битрейт : 192 Кбит/сек Каналы : 2 канала Расположение каналов : Front: L R Частота : 48,0 КГц Битовая глубина : 16 бит Метод сжатия : С потерями Размер потока : 133 Мбайт (3%) Язык : Russian Default : Да Forced : НетАудио #2: Идентификатор : 3 Формат : DTS Формат/Информация : Digital Theater Systems Идентификатор кодека : A_DTS Продолжительность : 1 ч. 37 м. Вид битрейта : Постоянный Битрейт : 1510 Кбит/сек Каналы : 6 каналов Расположение каналов : Front: L C R, Side: L R, LFE Частота : 48,0 КГц Битовая глубина : 24 бит Метод сжатия : С потерями Размер потока : 1,02 Гбайт (23%) Заголовок : English DTS 5.1 Язык : English Default : Нет Forced : Нет 4,5 Gb 2 5
21 апреля 2016 13:44 Всё путем / Everything Must Go (2010) HDRip от New-Team | P .torrent   [Информация о файле (нажмите для просмотра)] Перевод: Профессиональный (многоголосый закадровый) - лицензия от Новый Диск-трейдКачество: HDRipФормат: AVIВидео: 720x304 (2.35:1), 25.000 fps, XviD MPEG-4 ~1755 kbps avg, 0.334 bit/pixelАудио 1: Русский: 48 kHz, Dolby AC3, 2 ch, 192.00 kbps ConstantАудио 2: Английский: 48 kHz, Dolby AC3, 2 ch, 192.00 kbps ConstantВидео: Идентификатор : 0 Формат : MPEG-4 Visual Профиль формата : Advanced [email protected] Параметр BVOP формата : 1 Параметр QPel формата : Нет Параметр GMC формата : Без точки перехода Параметр матрицы формата : Выборочная Идентификатор кодека : XVID Идентификатор кодека/Подсказка : XviD Продолжительность : 1 ч. 37 м. Битрейт : 1755 Кбит/сек Ширина : 720 пикселей Высота : 304 пикселя Соотношение сторон : 2,35:1 Частота кадров : 23,976 кадра/сек Цветовое пространство : YUV Субдискретизация насыщенности : 4:2:0 Битовая глубина : 8 бит Тип развёртки : Прогрессивная Метод сжатия : С потерями Бит/(Пиксели*Кадры) : 0.334 Размер потока : 1,19 Гбайт (81%) Библиотека кодирования : XviD 65Аудио #1: Идентификатор : 1 Формат : AC-3 Формат/Информация : Audio Coding 3 Расширение режима : CM (complete main) Параметр Endianness формата : Big Идентификатор кодека : 2000 Продолжительность : 1 ч. 37 м. Вид битрейта : Постоянный Битрейт : 192 Кбит/сек Каналы : 2 канала Расположение каналов : Front: L R Частота : 48,0 КГц Битовая глубина : 16 бит Метод сжатия : С потерями Размер потока : 133 Мбайт (9%) Выравнивание : Разделение по промежуткам Продолжительность промежутка : 42 мс. (1,00 видеокадр) Время предзагрузки промежутка : 500 мс.Аудио #2: Идентификатор : 2 Формат : AC-3 Формат/Информация : Audio Coding 3 Расширение режима : CM (complete main) Параметр Endianness формата : Big Идентификатор кодека : 2000 Продолжительность : 1 ч. 37 м. Вид битрейта : Постоянный Битрейт : 192 Кбит/сек Каналы : 2 канала Расположение каналов : Front: L R Частота : 48,0 КГц Битовая глубина : 16 бит Метод сжатия : С потерями Размер потока : 133 Мбайт (9%) Выравнивание : Разделение по промежуткам Продолжительность промежутка : 42 мс. (1,00 видеокадр) Время предзагрузки промежутка : 500 мс. 1,46 Gb 5 3
21 апреля 2016 13:44 Всё путем / Everything Must Go (2010) HDRip | НТВ .torrent   [Информация о файле (нажмите для просмотра)] Формат: AVI (XviD)Качество: HDRipВидео: 1753 kb/s, 720x304Аудио: Russian / English: AC3, 192 kb/s (2 ch) 1,46 Gb 3 5
21 апреля 2016 13:44 Всё путем / Everything Must Go (2010) HDRip | НТВ .torrent   [Информация о файле (нажмите для просмотра)] Формат: AVI (XviD)Качество: HDRipВидео: 866 kb/s, 640x272Аудио: MP3, 128 kb/s (2 ch) 697,32 Mb 3 1
21 апреля 2016 13:44 Всё путем / Everything Must Go (2010) BDRip-AVC от FireBit .torrent   [Информация о файле (нажмите для просмотра)] Перевод: Любительский (одноголосый закадровый)Формат: Advanced Video Codec (AVC)Контейнер: .mkvКачество: BDRip 1,63 Gb 4 1

Скачать фильм Всё путём через торрент в хорошем качестве бесплатно 720p)

piratbit.ru

Размер: 4.37 GB | Добавлен: 6 лет 7 мес. назад | Торрент скачан:23 раза
Реклама Дарим 3000 рублей за регистрацию, не упусти свой шанс получить шикарный бонус!!!

09-03-2011 15:44 Всё путём Скачать торрент  

Всё путём / Everybody's FineГод выпуска: 2009Страна: США, ИталияЖанр: драмаПродолжительность: 99 мин.Перевод: Профессиональный (полное дублирование)

Режиссер: Кирк ДжонсПродюссер: Витторио Чекки Гори, Тед Филд, Глайнис МюррэйСценарий: Кирк Джонс, Массимо Де Рита, Тонино Гуэрра

Бюджет: $21 000 000

PG-13

-Детям до 13 лет просмотр не желателенМировой рейтинг IMDB 7.20 (13 948)

В ролях: Роберт Де Ниро, Дрю Бэрримор, Кейт Бекинсейл, Сэм Рокуэлл, Люсиан Майсел, Дамиан Янг, Джеймс Фрейн, Мелисса Лео, Кэтрин Монниг, Брендан Секстон I

Описание: Овдовевший пенсионер осознает, что долгие годы именно его жена связывала воедино их большое семейство. Чтобы самому поближе узнать, как живут его дети, он отправляется навестить их — и во время импровизированного путешествия по домам своих отпрысков открывает для себя много неожиданного…

Качество: BDRip (720p)Формат: MKVВидео кодек: H.264Аудио кодек: AC3 | DTSВидео : 1280x544 (2.39 : 1), 23.976 fps, ~4338 kbps avgАудио #1: 48 kHz, AC3, 5.1 ch, 384 kbps avg |Дубляж, R5|Аудио #2: 48 kHz, DTS, 5.1 ch, 1536 kbps avg |Оригинал|Субтитры: русские, английские

Скачать Всё путём через торрент http://linkme.ufanet.ru/images/454dc96e200bb42cd6f9f04542f2b685.png Скачать фильм Всё путём через торрент бесплантно в хорошем качестве Описание: Овдовевший пенсионер осознает, что долгие годы именно его жена связывала воедино их большое семейство. Чтобы самому поближе ... 2011-03-09 15:44 10 10 1

Loading...

Loading...

Рекламный пират

09-03-2011 17:55 Всё путём Скачать торрент  

И что за фильм?

Дорогой пользователь! Огромная просьба, поблагодарите релизера, оцените раздачу и оставьте свои комментарий, если Вы скачали Всё путём через торрент бесплатно! Внесите свою лепту в развитие PiratBit!

Комментировать посты могут только пользователи прошедшие не сложную регистрацию

Всё путём через торрент Скачать бесплатно Всё путём Всё путём скачать торрент Всё путём смотреть онлайн Cкачать фильм Всё путём бесплатно Всё путём скачать торрент в хорошем качестве Всё путём смотреть онлайн бесплатно в хорошем качестве

Вы не можете начинать темыВы не можете отвечать на сообщенияВы не можете редактировать свои сообщенияВы не можете удалять свои сообщенияВы не можете голосовать в опросахВы не можете прикреплять файлы к сообщениямВы можете скачивать файлы

Скачать фильм Всё путём через торрент в хорошем качестве бесплатно 1080p

Complete name Всё путём.(2009).BDRip.1080p.NOLIMITS-TEAM.mkvFormat : MatroskaFile size : 4.17 GiBDuration : 1h 40mnOverall bit rate : 5 952 KbpsMovie name : Rip by NigAndr (NOLIMITS-TEAM.RU)Encoded date : UTC 2011-05-01 09:17:10Writing application : mkvmerge v3.0.0 ('Hang up your Hang-Ups') built on Dec 12 2009 15:20:35Writing library : libebml v0.7.9 + libmatroska v0.8.1

VideoID : 1Format : AVCFormat/Info : Advanced Video CodecFormat profile : [email protected] settings, CABAC : YesFormat settings, ReFrames : 3 framesCodec ID : V_MPEG4/ISO/AVCDuration : 1h 40mnBit rate mode : VariableBit rate : 5 684 KbpsMaximum bit rate : 15.0 MbpsWidth : 1 920 pixelsHeight : 818 pixelsDisplay aspect ratio : 2.35:1Original display aspect ratio : 2.35:1Frame rate : 23.976 fpsColor space : YUVChroma subsampling : 4:2:0Bit depth : 8 bitsScan type : ProgressiveBits/(Pixel*Frame) : 0.151Stream size : 3.82 GiB (92%)Title : Всё путём / Everybody's Fine (2009) BDRip 1080p от NOLIMITS-TEAMWriting library : x264 core 114 r1900 60ef1f8Encoding settings : cabac=1 / ref=1 / deblock=1:0:0 / analyse=0x3:0x3 / me=dia / subme=1 / psy=1 / psy_rd=0.00:0.00 / mixed_ref=0 / me_range=16 / chroma_me=1 / trellis=0 / 8x8dct=1 / cqm=0 / deadzone=21,11 / fast_pskip=1 / chroma_qp_offset=0 / threads=6 / sliced_threads=0 / slices=4 / nr=0 / decimate=1 / interlaced=0 / constrained_intra=0 / bframes=3 / b_pyramid=1 / b_adapt=1 / b_bias=0 / direct=1 / weightb=1 / open_gop=0 / weightp=1 / keyint=24 / keyint_min=1 / scenecut=40 / intra_refresh=0 / rc_lookahead=0 / rc=abr / mbtree=0 / bitrate=5684 / ratetol=1.0 / qcomp=0.60 / qpmin=0 / qpmax=69 / qpstep=4 / vbv_maxrate=15000 / vbv_bufsize=15000 / nal_hrd=vbr / ip_ratio=1.10 / pb_ratio=1.10 / aq=1:1.00Language : English

AudioID : 2Format : AC-3Format/Info : Audio Coding 3Mode extension : CM (complete main)Codec ID : A_AC3Duration : 1h 40mnBit rate mode : ConstantBit rate : 384 KbpsChannel(s) : 6 channelsChannel positions : Front: L C R, Side: L R, LFESampling rate : 48.0 KHzBit depth : 16 bitsStream size : 276 MiB (6%)Title : Дублированный, R5Language : Russian

Menu00:00:00.000 : en:00:00:00.00000:10:15.281 : en:00:10:15.28100:13:33.146 : en:00:13:33.14600:20:47.371 : en:00:20:47.37100:25:42.708 : en:00:25:42.70800:32:38.748 : en:00:32:38.74800:35:59.366 : en:00:35:59.36600:39:58.521 : en:00:39:58.52100:52:02.286 : en:00:52:02.28600:58:59.911 : en:00:58:59.91101:02:54.938 : en:01:02:54.93801:10:15.002 : en:01:10:15.00201:18:57.524 : en:01:18:57.52401:26:08.246 : en:01:26:08.24601:31:29.901 : en:01:31:29.90101:35:34.187 : en:01:35:34.187

piratbit.ru

Скачать фильм Всё путём через торрент в хорошем качестве бесплатно 1080p by msltel

ОбщееУникальный идентификатор : 240567253514504787558396106891963721284 (0xB4FB9155FBD791E5ACC884C6E66CE644)Полное имя : D:\Video\Всё путём.2009.BDRip.1080p by msltel.mkvФормат : MatroskaВерсия формата : Version 4 / Version 2Размер файла : 11,5 ГбайтПродолжительность : 1 ч. 40 м.Общий поток : 16,4 Мбит/секНазвание фильма : Rip by msltelДата кодирования : UTC 2017-01-13 06:31:59Программа кодирования : mkvmerge v8.2.0 ('World of Adventure') 64bitБиблиотека кодирования : libebml v1.3.1 + libmatroska v1.4.2

ВидеоИдентификатор : 1Формат : AVCФормат/Информация : Advanced Video CodecПрофиль формата : [email protected]Параметр CABAC формата : ДаПараметр ReFrames формата : 4 кадраИдентификатор кодека : V_MPEG4/ISO/AVCПродолжительность : 1 ч. 40 м.Битрейт : 14,5 Мбит/секШирина : 1920 пикселейВысота : 816 пикселейСоотношение сторон : 2,35:1Режим частоты кадров : ПостоянныйЧастота кадров : 23,976 (24000/1001) кадра/секЦветовое пространство : YUVСубдискретизация насыщенности : 4:2:0Битовая глубина : 8 битТип развёртки : ПрогрессивнаяБит/(Пиксели*Кадры) : 0.387Размер потока : 10,2 Гбайт (88%)Библиотека кодирования : x264 core 146 r2538 121396cНастройки программы : cabac=1 / ref=4 / deblock=1:-3:-2 / analyse=0x3:0x113 / me=umh / subme=11 / psy=1 / psy_rd=1.00:0.15 / mixed_ref=1 / me_range=32 / chroma_me=1 / trellis=2 / 8x8dct=1 / cqm=0 / deadzone=21,11 / fast_pskip=0 / chroma_qp_offset=-3 / threads=6 / lookahead_threads=1 / sliced_threads=0 / nr=0 / decimate=1 / interlaced=0 / bluray_compat=0 / constrained_intra=0 / bframes=9 / b_pyramid=2 / b_adapt=2 / b_bias=0 / direct=1 / weightb=1 / open_gop=0 / weightp=2 / keyint=230 / keyint_min=23 / scenecut=40 / intra_refresh=0 / rc_lookahead=40 / rc=crf / mbtree=0 / crf=20.0 / qcomp=0.60 / qpmin=0 / qpmax=69 / qpstep=4 / vbv_maxrate=62500 / vbv_bufsize=78125 / crf_max=0.0 / nal_hrd=none / filler=0 / ip_ratio=1.40 / pb_ratio=1.30 / aq=1:1.00Язык : EnglishDefault : ДаForced : Нет

Аудио #1Идентификатор : 2Формат : AC-3Формат/Информация : Audio Coding 3Расширение режима : CM (complete main)Параметр Endianness формата : BigИдентификатор кодека : A_AC3Продолжительность : 1 ч. 40 м.Вид битрейта : ПостоянныйБитрейт : 384 Кбит/секКаналы : 6 каналовРасположение каналов : Front: L C R, Side: L R, LFEЧастота : 48,0 КГцЧастота кадров : 31,250 кадров/сек (1536 spf)Метод сжатия : С потерямиРазмер потока : 275 Мбайт (2%)Заголовок : DUB (R5)Язык : RussianDefault : ДаForced : Нет

Аудио #2Идентификатор : 3Формат : DTSФормат/Информация : Digital Theater SystemsРежим : 16Параметр Endianness формата : BigИдентификатор кодека : A_DTSПродолжительность : 1 ч. 40 м.Вид битрейта : ПостоянныйБитрейт : 1509 Кбит/секКаналы : 6 каналовРасположение каналов : Front: L C R, Side: L R, LFEЧастота : 48,0 КГцЧастота кадров : 93,750 кадра/сек (512 spf)Битовая глубина : 16 битМетод сжатия : С потерямиРазмер потока : 1,06 Гбайт (9%)Заголовок : originalЯзык : EnglishDefault : НетForced : Нет

Текст #1Идентификатор : 4Формат : UTF-8Идентификатор кодека : S_TEXT/UTF8Идентификатор кодека/Информация : UTF-8 Plain TextПродолжительность : 1 ч. 33 м.Битрейт : 105 бит/секCount of elements : 1212Размер потока : 72,1 Кбайт (0%)Заголовок : русскиеЯзык : RussianDefault : НетForced : Нет

Текст #2Идентификатор : 5Формат : UTF-8Идентификатор кодека : S_TEXT/UTF8Идентификатор кодека/Информация : UTF-8 Plain TextПродолжительность : 1 ч. 36 м.Битрейт : 93 бит/секCount of elements : 1368Размер потока : 66,4 Кбайт (0%)Заголовок : английские (для слабослышащих)Язык : EnglishDefault : НетForced : Нет

Меню00:00:00.000 : :Chapter 0100:10:15.280 : :Chapter 0200:13:33.145 : :Chapter 0300:20:47.371 : :Chapter 0400:25:42.706 : :Chapter 0500:32:38.748 : :Chapter 0600:35:59.364 : :Chapter 0700:39:58.521 : :Chapter 0800:52:02.285 : :Chapter 0900:58:59.911 : :Chapter 1001:02:54.937 : :Chapter 1101:10:15.002 : :Chapter 1201:18:57.524 : :Chapter 1301:26:08.246 : :Chapter 1401:31:29.901 : :Chapter 1501:35:34.186 : :Chapter 16

piratbit.ru


Смотрите также