Скачать враг мой торрент в хорошем качестве


Враг мой (1985) (Enemy Mine)

Не ищите врагов на небе, ищите врагов в себе...

Замечательная фантастическая драма, несущая в себе столько мудрости и глубины, что несмотря на далекий и покрытый шрамами времен, год выпуска, смотрится она и сегодня легко и просто.

"Враг мой" - один из первых фильмов о Космосе и инопланетном разуме, вступающем на "скользкую" дорожку общения с человеком, который мне довелось увидеть в тех же восемьдесятых. Поняла ли я его тогда? не знаю. Но одно врезалось в память - дружба бывает разная : необычная, многоцветная, сильно-сильно странная. И не важно какого цвета кожи, пола, языка два дружащих существа, если отбросить предрассудки, стереотипы, страхи и рискнуть довериться вере, любви и надежде.

Наших героев, таких разных и не понимающих культуры и духовности друг друга, сталкивает на далекой, враждебной, пустынной планете, случайно-судьбоносное обстоятельство. Трагичное и мрачное, как и сама неприветливая планета. И оказывается, что обоюдная ненависть, испытываемая человеком и драгом, не только не даст отстраниться и продолжить одинокое выживание, но станет камнем преткновения и одновременно притяжения их. И это притяжение напоминает слова всем известной пословицы : и вместе тяжело, и порознь невозможно.

С какой нежностью и трепетом я заново погружалась в удивительную атмосферу картины, будто не было этих долгих двадцати пяти лет между нами - только искренняя симпатия и легкая грусть. Декорациям и антуражу, созданным талантливыми художниками и мастерами, я готова петь дифирамбы. Реально можно поверить, что ты на другой планете : каменистые глыбы разбавляющие пустынный пейзаж, уродливые насекомоядные чудища, прячущие основную часть опасного айсберга в рассыпающемся песком болоте, отсутствие комфорта и пронизывающий холод, действующий на пару с сильнейшим ветром, все эти элементы создают общую картину адской обители, ставшей ловушкой затерянным в космическом пространстве, путникам. А еще, буквально кожей ощущается непрерывное ожидание перемен и спасения. Дааа, обстановочка та еще... Не разгуляешься сильно со своей ненавистью, если еще теплятся остатки самосохранения.

Актер, сыгравший драга, настолько круто и естественно смотрелся в чешуйчатом образе, что не поддаться обаянию его персонажа и не проникнуться неким интуитивным пониманием, невозможно. Куэйду, мне кажется было все же легче, его герой человек, как и он сам, а значит эмоционально и ментально подготовлен увереннее. И наши герои медленно, но верно, через боль и вину, обиды и стереотипное мышление, учатся жить, выживать и, конечно же, в первую очередь, доверять и понимать своего "врага"; и тонко, но крепко переплетаются жизни друзей-врагов в единое целое, более не желающее ненавидеть, но учащееся любви и терпению. Режиссеру удалось великолепно подготовить все ступени всех духовных внутренних изменений, что происходят с человеком и драгом. От полного неприятия к полному проникновению: под кожу, в самое сердце, в эпицентр некогда чужеродных мыслей...

Но чтобы провести параллели с нашей действительностью, не нужно отрываться далеко от земли и встречаться где-то там, далеко за облаками с инопланетными существами. Ведь между самими людьми на земле достаточно непонимания и злобы, обид и предрассудков, берущих свое начало из привычных для человеческого мышления, представлений о границах всего сущего. И такой обыденный взгляд на внешнее, но не внутреннее. Так и скользим по поверхности, себя, других, жизни. Словно боясь, а может забыв, разучившись, или просто не зная, а как это - смотреть вглубь... И видеть не колючую чешую "драга", а его душу, такую же одинокую, запутавшуюся, озлобленную, как и твоя ... И этот мудрый, красивый, чудесный фильм, он конечно, о чем-то большем, чем о встрече двух врагов на заброшенном всеми богами, кусочке земли; каждый посмотревший увидит отражение своих мыслей об этом "чем-то большем". Все зависит лишь от того, насколько много границ и решеток, возведено вокруг вашего сознания. Только и всего.

www.fast-torrent.ru

Враг мой 1985 - скачать бесплатно через торрент в хорошем качестве. Без регистрации

www.kinovit.net

Название: Враг мой / Enemy Mine (1985) BDRip от HQCLUB
Качество видео: BDRip (источник: soulstorm / Blu-Ray Remux / 1080р)
Перевод: Профессиональный (многоголосый, закадровый) R5, 20th Century Fox + Профессиональный (полное дублирование) cо вставками многоголоски + Оригинал (английский)
Формат видео: AVI
Видео: 720x304 (2.37:1), 23.976 fps, XviD build 65 ~1794 kbps avg, 0.34 bit/pixel
Аудио: + Профессиональный (многоголосый, закадровый) Позитив-Мультимедиа48 kHz, AC3 Dolby Digital, 3/2 (L,C,R,l,r) + LFE ch, ~448 kbps avg (MVO) R548 kHz, AC3 Dolby Digital, 3/2 (L,C,R,l,r) + LFE ch, ~384 kbps avg (DUB)48 kHz, AC3 Dolby Digital, 4 ch, ~256 kbps avg (ENG)48 kHz, AC3 Dolby Digital, 3/2 (L,C,R,l,r) + LFE ch, ~448 kbps avg (MVO.POZITIV) (отдельно)48 kHz, AC3 Dolby Digital, 2/0 (L,R) ch, ~192 kbps avg (UKR.DVO.2PLUS2) (отдельно)48 kHz, AC3 Dolby Digital, 2/0 (L,R) ch, ~192 kbps avg (UKR.DVO.1PLUS1) (отдельно)48 kHz, AC3 Dolby Digital, 4 ch, ~256 kbps avg (AVO.JIVOV) (отдельно)
Скачать

Загрузка начнется в течение 5 сек.

2.18 GB

Название: Враг мой / Enemy Mine (1985) BDRip 1080p от MediaClub | D, P, P2, A
Качество видео: BDRip 1080p
Перевод: профессиональный (дублированный), профессиональный (многоголосый), профессиональный (двухголосый), авторский (одноголосый)
Видео: MPEG-4 AVC, 13.1 Mбит/с, 1920х808, 23.976 кадр/с
Аудио: английскийРусский (AC3, 6 ch, 384 Кбит/с) / Дублированный (с многоголосыми вставками)Русский (DTS, 6 ch, 768 Кбит/с) / Профессиональный многоголосый (Двадцатый Век Фокс)Русский (AC3, 6 ch, 448 Кбит/с) / Профессиональный многоголосый (Позитив-мультимедиа)Русский (DTS, 6 ch, 1536 Кбит/с) / Авторский одноголосый (Ю. Живов)Украинский (AC3, 2 ch, 192 Кбит/с) / Профессиональный двухголосый (1+1)Украинский (AC3, 2 ch, 192 Кбит/с) / Профессиональный многоголосый (2+2 & Новий канал)Английский (DTS, 6 ch, 1536 Кбит/с)
Скачать

Загрузка начнется в течение 5 сек.

13.65 GB

Название: Враг мой / Enemy Mine (1985) Blu-Ray 1080p
Качество видео: Blu-Ray (1080p)
Перевод: Дублированный, профессиональный многоголосый, авторский одноголосый (Живов)
Видео: MPEG-4 AVC, 20 Мбит/с, 1920x1080, 23.976 кадр/с
Аудио: Русский (DTS-HD MA, 4 ch, 2879 Кбит/с), (DTS, 6 ch, 768 Кбит/с), (AC3, 6 ch, 448 Кбит/с), (AC3, 6 ch, 384 Кбит/с), украинский (AC3, 1 ch, 192 Кбит/с), английский (DTS-HD MA, 4 ch, 2861 Кбит/с)
Скачать

Загрузка начнется в течение 5 сек.

22.47 GB

Название: Враг мой / Enemy Mine (1985) BDRip 1080p от R.G.GoldenShara | D
Качество видео: BDRip [1080p]
Перевод: Дубляж
Видео: 1920x800, 5 396 Кбит/сек, 23,976 кадр/сек, AVC, x264, 2,40:1, 0.147 Бит/[Пиксели*Кадры], 2pass
Аудио: AC-3, 448 Кбит/сек, 6 канала(ов), 48,0 КГц
Скачать

Загрузка начнется в течение 5 сек.

4.37 GB

Название: Враг мой / Enemy Mine (1985) BDRip от MediaClub
Качество видео: BDRip
Перевод: Профессиональный многоголосый (R5)
Видео: XviD XviD, 1457 Кбит/с, 720x304
Аудио: AC3, 6 ch, 448 Кбит/c
Скачать

Загрузка начнется в течение 5 сек.

1.45 GB

Название: Враг мой / Enemy Mine (1985) BDRip 1080p от FREEISLAND
Качество видео: BDRip 1080р ( исходник Remux )
Перевод: дублированный (с многоголосыми вставками)
Видео: AVC, 1920x800 (2.40:1), 8877 kbps, 23,976 fps, 0,241 bpp
Аудио: русский /; AC3 /; 5.1 /; 48 kHz /; 384 kbps /; 16 bit; | дублированный (с многоголосыми вставками)|русский /; AC3 /; 5.1 /; 48 kHz /; 448 kbps /; 16 bit; |закадровый (многоголосый)|русский /; AC3 /; 4 /; 48 kHz /; 384 kbps /; 16 bit; |(авторский одноголосый, Живов)|английский /; AC3 /; 3 /; 48 kHz /; 384 kbps /; 16 bit
Скачать

Загрузка начнется в течение 5 сек.

7.91 GB

Название: Враг мой / Enemy Mine (1985) BDRip-AVC от MEDIACLUB
Качество видео: BDRip-AVC
Перевод: Дублированный / Профессиональный многоголосый (Позитив мультимедиа), (R5) / Авторский одноголосый (Ю. Живов)
Видео: x264 MPEG-4 AVC, 2500 Кбит/с, 1024x430
Аудио: Русский (AC3, 6 ch, 448 Кбит/c), (AC3, 6 ch, 384 Кбит/с), (AC3, 4 ch, 384 Кбит/с), украинский (AC3, 2 ch, 192 Кбит/с), английский (AC3, 6 ch, 448 Кбит/c)
Скачать

Загрузка начнется в течение 5 сек.

3.63 GB

Название: Враг мой / Enemy Mine (1985) BDRip 1080p от NovaLan
Качество видео: BDRip (1080p) (Blu-Ray Remux (1080p))
Видео: x264 MPEG-4 AVC, 8000 Кбит/с, 1920x808, 23.976 кадр/с
Аудио: Russian: (AC3, 6 ch, 384 Кбит/c) - ДублированныйRussian: (AC3, 6 ch, 448 Кбит/c) - закадровый (многоголосый) Позитив мультимедиаRussian: (AC3, 6 ch, 448 Кбит/c) - закадровый (многоголосый) (R 5)Ukrainian: (AC3, 2 ch, 192 Кбит/c) - закадровый (многоголосый) (2+2)Russian: (AC3, 6 ch, 384 Кбит/c) - закадровый (одноголосый, Юрий Живов)English: (AC3, 4 ch, 448 Кбит/c).
Скачать

Загрузка начнется в течение 5 сек.

7.78 GB

Название: Враг мой / Enemy Mine (1985) BDRip 720p | D, P, A
Качество видео: BDRip 720p
Перевод: Дублированный, профессиональный (многоголосый закадровый) + авторский (одноголосый) + оригинал
Видео: MPEG-4 AVC 6000 Кбит/с, 1280x540, 23.976 кадр/с
Аудио: Русский: AC3, 6 ch, 448 Кбит/с - Профессиональный многоголосый (Позитив мультимедиа)Русский: AC3, 6 ch, 448 Кбит/с - Профессиональный многоголосыйРусский: AC3, 4 ch, 384 Кбит/с - Авторский (Ю. Живов)Украинский: AC3, 2 ch, 192 Кбит/с - Профессиональный многоголосый (2+2)Английский: DTS, 4 ch, 1510 Кбит/с
Скачать

Загрузка начнется в течение 5 сек.

7.07 GB

Название: Враг мой / Enemy Mine (1985) DVD-9
Качество видео: DVD-9
Перевод: Профессиональный многоголосый (R5)
Видео: MPEG-2 PAL 16:9 (720x576) VBR, 5168 Кбит/сек
Аудио: Русский (Dolby AC3, 6 ch, 448 Кбит/сек), (DTS, 6 ch, 768 Кбит/сек), английский (Dolby AC3, 2 ch, 192 Кбит/сек)
Скачать

Загрузка начнется в течение 5 сек.

5.22 GB

Название: Враг мой / Enemy Mine (1985) HDTVRip от Rulya74
Качество видео: HDTVRip
Перевод: Дубляж + Профессиональный многоголосый (Ukr) + Оригинал + Авторский (Юрий Живов)
Видео: XVID 720х304, 25,000 fps, 1853 kbps, 0.339 bit/pixel
Аудио: 48 kHz, AC3 2.0, 192.00 kbps / Профессиональный (многоголосый закадровый) - (Украинский - 2+2)48 kHz, AC3 2.0, 192.00 kbps / Оригинал (Английский)48 kHz, AC3 2.0, 192.00 kbps / Профессиональный (одноголосый закадровый) Юрий Живов (внешняя)
Скачать

Загрузка начнется в течение 5 сек.

2.05 GB

Название: Враг мой / Enemy Mine (1985) HDTVRip от Rulya74
Качество видео: HDTVRip
Перевод: Дубляж с многоголосыми вставками + Профессиональный (многоголосый закадровый) - (Украинский - 2+2) + Оригинал (Английский) + Профессиональный (одноголосый закадровый) Юрий Живов (внешняя)
Видео: XVID 720х304, 25,000 fps, 1852 kbps, 0.338 bit/pixel
Аудио: 48 kHz, AC3 5.1, 384.00 kbps / Дубляж с многоголосыми вставками48 kHz, AC3 2.0, 192.00 kbps / Профессиональный (многоголосый закадровый) - (Украинский - 2+2)48 kHz, AC3 2.0, 192.00 kbps / Оригинал (Английский)48 kHz, AC3 2.0, 192.00 kbps / Профессиональный (одноголосый закадровый) Юрий Живов (внешняя)
Скачать

Загрузка начнется в течение 5 сек.

2.05 GB

Название: Враг мой / Enemy Mine (1985) HDTVRip | D
Качество видео: HDTVRip
Перевод: Дублированный
Формат видео: АVI
Видео: XviD 688x288 (2.39:1), 23.976 fps, 824 kbps
Аудио: MP3, 48 kHz, 2 ch, 128.00 kbps
Скачать

Загрузка начнется в течение 5 сек.

743.64 MB

vtorrents.net

!

: : 2017: , : . : , , , , , , , , ,

:- , . , , . , . , . , - . , , . , , - , , .

: : : WEB-DLRip

1207

581

udp://shubt.net:2710

151 6 173

udp://tracker.openbittorrent.com:80/announce

70 20 48

udp://46.148.18.250:2710

152 6 173

http://tracker2.wasabii.com.tw:6969/announce

64 31 19

http://tracker.grepler.com:6969/announce

47 46 40

http://tracker.filetracker.pl:8089/announce

78 93 63

http://46.4.109.148:6969/announce

72 37 17

http://210.244.71.25:6969/announce

164 7 157

http://125.227.35.196:6969/announce

69 52 51

http://tracker.tiny-vps.com:6969/announce

59 45 17

http://87.248.186.252:8080/announce

3 10 49

http://tracker.dler.org:6969/announce

97 63 70

udp://[2001:67c:28f8:92::1111:1]:2710

96 97 13

udp://ipv6.leechers-paradise.org:6969

85 68 88

2,35 Gb

1827

Moj.luchij.vrag.2017.WEB-DLRip.Files-x (4 )

01.Moj.luchij.vrag.2017.WEB-DLRip.Files-x.avi (600,82 Mb) 02.Moj.luchij.vrag.2017.WEB-DLRip.Files-x.avi (600,25 Mb) 03.Moj.luchij.vrag.2017.WEB-DLRip.Files-x.avi (600,46 Mb) 04.Moj.luchij.vrag.2017.WEB-DLRip.Files-x.avi (600,57 Mb)

726

505

udp://shubt.net:2710

31 2 17

udp://tracker.openbittorrent.com:80/announce

46 22 20

udp://tracker.publicbt.com:80/announce

50 17 72

http://tracker.filetracker.pl:8089/announce

46 40 30

http://tracker2.wasabii.com.tw:6969/announce

85 18 89

http://tracker.grepler.com:6969/announce

77 28 91

http://125.227.35.196:6969/announce

52 21 67

http://tracker.tiny-vps.com:6969/announce

78 53 31

http://87.248.186.252:8080/announce

1 44 46

http://210.244.71.25:6969/announce

27 2 917

http://46.4.109.148:6969/announce

44 75 24

udp://46.148.18.250:2710

32 2 17

http://tracker.dler.org:6969/announce

39 29 69

udp://[2001:67c:28f8:92::1111:1]:2710

86 58 12

udp://ipv6.leechers-paradise.org:6969

32 94 37

2,62 Gb

51

Moj.luchij.vrag.2017.WEB-DL.(720p).Getty (4 )

Moj.luchij.vrag.e01.2017.WEB-DL.(720p).Getty.mkv (701,26 Mb) Moj.luchij.vrag.e02.2017.WEB-DL.(720p).Getty.mkv (631,72 Mb) Moj.luchij.vrag.e03.2017.WEB-DL.(720p).Getty.mkv (663,28 Mb) Moj.luchij.vrag.e04.2017.WEB-DL.(720p).Getty.mkv (682,59 Mb)

621

735

udp://shubt.net:2710

17 3 4

udp://tracker.openbittorrent.com:80/announce

99 64 69

udp://46.148.18.250:2710

17 3 4

http://tracker2.wasabii.com.tw:6969/announce

23 44 70

http://tracker.grepler.com:6969/announce

65 79 60

http://tracker.filetracker.pl:8089/announce

13 37 99

http://46.4.109.148:6969/announce

81 83 87

http://210.244.71.25:6969/announce

20 1 492

http://125.227.35.196:6969/announce

73 78 41

http://tracker.tiny-vps.com:6969/announce

32 83 64

http://87.248.186.252:8080/announce

1 79 68

http://tracker.dler.org:6969/announce

77 38 67

udp://[2001:67c:28f8:92::1111:1]:2710

47 63 58

udp://ipv6.leechers-paradise.org:6969

56 80 25

5,5 Gb

15

Moj.luchij.vrag.2017.WEB-DL.1080.Files-x (4 )

01.Moj.luchij.vrag.2017.WEB-DL.1080.Files-x.mkv (1,44 Gb) 02.Moj.luchij.vrag.2017.WEB-DL.1080.Files-x.mkv (1,3 Gb) 03.Moj.luchij.vrag.2017.WEB-DL.1080.Files-x.mkv (1,36 Gb) 04.Moj.luchij.vrag.2017.WEB-DL.1080.Files-x.mkv (1,4 Gb)

Скачать фильм Враг мой через торрент в хорошем качестве бесплатно DVDRip

piratbit.ru

Размер: 1.24 GB | Добавлен: 5 лет 3 мес. назад | Торрент скачан:169 раз
Реклама Дарим 3000 рублей за регистрацию, не упусти свой шанс получить шикарный бонус!!!

29-06-2012 04:34 Враг мой Скачать торрент  

Враг мой / Enemy Mine

Год выпуска: 1985Страна: СШАЖанр: Фантастика, ДрамаПродолжительность: 01:42:43Перевод: Дубляж (Лицензия)

Режиссер: Вольфганг ПетерсенПродюссер: Стефен Дж. Фридман, Стэнли О’ТулСценарий: Эдвард Хмара, Барри Лонгиер

Бюджет: $33 000 000Премьера в мире: 12 декабря 1985

В ролях: Деннис Куэйд, Луис Госсет (мл), Брайон Джеймс, Ричард Маркус, Кэролин МакКормик, Бампер Робинсон, Джим Мапп, Лэнс Кервин, Скотт Крафт, Лу Майклс

Описание: В глубинах нашей галактики, на огромном расстоянии от Земли люди ведут кровопролитную войну с расой рептилий. Войну, которой Земля отдает последние силы, войну на полное уничтожение.В одной из жестоких схваток в окрестностях гористой планеты в системе двойной звезды пилот Виллис Дэвидж сбивает машину чужого, но тут же получает несколько попаданий и выходит из боя.Единственное место, где можно выжить после падения — та самая планета. Но упав, он обнаруживает, что сбитый им чужой не погиб. Смертельные враги оказываются заперты в одной клетке, и выбор прост — уничтожить друг друга или заключить перемирие и попытаться спастись.Что окажется сильнее: желание жить или ненависть и боль за погибших?

Качество: DVDRipФормат: AVIВидео кодек: XviDАудио кодек: AC3Видео: 720x304 (2.37:1), 25 fps, XviD build 50 ~1321 kbps avg, 0.24 bit/pixelАудио#1: 48 kHz, AC3 Dolby Digital, 3/2 (L,C,R,l,r) + LFE ch, ~384 kbps

Complete name : F:\Враг мой (фант).aviFormat : AVIFormat/Info : Audio Video InterleaveFile size : 1.24 GiBDuration : 1h 43mnOverall bit rate : 1 717 KbpsMovie name : Vrag.moj.Title1.DVDRipDirector : AndrewWhite-KinozalSat.comWriting application : Lavf52.33.0Original source form/Name : Vrag.mojVideo #0ID : 0Format : MPEG-4 VisualFormat profile : [email protected] settings, BVOP : NoFormat settings, QPel : NoFormat settings, GMC : No warppointsFormat settings, Matrix : Default (H.263)Codec ID : XVIDCodec ID/Hint : XviDDuration : 1h 43mnBit rate : 1 322 KbpsWidth : 720 pixelsHeight : 304 pixelsDisplay aspect ratio : 2.35:1Frame rate : 25.000 fpsColor space : YUVChroma subsampling : 4:2:0Bit depth : 8 bitsScan type : ProgressiveBits/(Pixel*Frame) : 0.242Stream size : 981 MiB (77%)Writing library : XviD 1.2.1 (UTC 2008-12-04)Audio #1ID : 1Format : AC-3Format/Info : Audio Coding 3Mode extension : CM (complete main)Codec ID : 2000Duration : 1h 43mnBit rate mode : ConstantBit rate : 384 KbpsChannel(s) : 6 channelsChannel positions : Front: L C R, Side: L R, LFESampling rate : 48.0 KHzBit depth : 16 bitsStream size : 285 MiB (22%)Alignment : Aligned on interleavesInterleave, duration : 32 ms (0.80 video frame)

Скачать Враг мой через торрент http://i42.fastpic.ru/big/2012/0629/0f/4394bf26cf56f33d8e2d77757ac9770f.jpg Скачать фильм Враг мой через торрент бесплантно в хорошем качестве Описание: В глубинах нашей галактики, на огромном расстоянии от Земли люди ведут кровопролитную войну с расой рептилий. Войну, которой ... 2012-06-29 04:34 10 10 5

Loading...

Loading...

Рекламный пират

29-06-2012 04:37 Враг мой Скачать торрент  

Классика мирового кино! понравившимся многим.

29-06-2012 05:01 Враг мой Скачать торрент  

тукваква Беспорно!

29-06-2012 05:04 Враг мой Скачать торрент  

zraПриятного просмотра!

29-06-2012 05:43 Враг мой Скачать торрент  

Вобще-то лучше всего смотреть этот фильм с одноголосым переводом(напр.Авторский Живов)По моему дубляж убивает фильм.(этот и вообще...)Фильм не хуже, а в чем-то даже и лучше, Аватаров и Прометеев.)))

29-06-2012 05:53 Враг мой Скачать торрент  

SLAVIK 1.01 писал(а):

По моему дубляж убивает фильм

чесно был у меня и одноголосый ( но качество хромало), но дубляж больше по душе.

29-06-2012 06:03 Враг мой Скачать торрент  

обалденный фильм!

29-06-2012 06:06 Враг мой Скачать торрент  

присоединяюсь-классный фильм

29-06-2012 07:14 Враг мой Скачать торрент  

Я на него в киношку раз 15 бегал....золотые были времена....

Pекламный агент PB

18-04-2013 15:11 Враг мой Скачать торрент  

Фильм детства))

31-01-2014 20:00 Враг мой Скачать торрент  

народ встаньте кто-нибудь на раздачу, пожалуйста

03-02-2014 16:20 Враг мой Скачать торрент  

народ, можете кто - нибудь встать на раздачу? уже неделю в загрузке висит, на 1 десятую процента еще не скачалось......

Дорогой пользователь! Огромная просьба, поблагодарите релизера, оцените раздачу и оставьте свои комментарий, если Вы скачали Враг мой через торрент бесплатно! Внесите свою лепту в развитие PiratBit!

Комментировать посты могут только пользователи прошедшие не сложную регистрацию

Враг мой через торрент Скачать бесплатно Враг мой Враг мой скачать торрент Враг мой смотреть онлайн Cкачать фильм Враг мой бесплатно Враг мой скачать торрент в хорошем качестве Враг мой смотреть онлайн бесплатно в хорошем качестве

Вы не можете начинать темыВы не можете отвечать на сообщенияВы не можете редактировать свои сообщенияВы не можете удалять свои сообщенияВы не можете голосовать в опросахВы не можете прикреплять файлы к сообщениямВы можете скачивать файлы

Скачать фильм Враг (2013) через торрент

gig-torrent.net

17 февраля 2016 07:09 Враг / Enemy (2013) BDRip-AVC от HQCLUB | Лицензия .torrent   [Информация о файле (нажмите для просмотра)] Перевод: Профессиональный (полное дублирование), R5 + Авторский (одноголосый, закадровый) Ю. НемаховСубтитры: русские (полные: два вида), английские (полные, полные SDH)Формат: MKVКачество: BDRip-AVC (источник / Blu-ray Remux / 1080p)Видео: 1140x476 (2.40:1), 23.976 fps, MPEG-4 AVC, ~3012 kbps, 0.231 bit/pixelАудио #1: 48 kHz, AC3 Dolby Digital, 3/2 (L,C,R,l,r) + LFE ch, ~448 kbps (DUB.R5)Аудио #2: 48 kHz, AC3 Dolby Digital, 3/2 (L,C,R,l,r) + LFE ch, ~448 kbps (AVO.NEMAHOV)Аудио #3: 48 kHz, AC3 Dolby Digital, 3/2 (L,C,R,l,r) + LFE ch, ~448 kbps (ENG)Аудио #4: 48 kHz, AC3 Dolby Digital, 3/2 (L,C,R,l,r) + LFE ch, ~448 kbps (AVO.ESAREV)(отдельно)Аудио #5: 48 kHz, AC3 Dolby Digital, 3/2 (L,C,R,l,r) + LFE ch, ~448 kbps (VO.DOCTOR.JOKER)(отдельно)Аудио #6: 48 kHz, AC3 Dolby Digital, 3/2 (L,C,R,l,r) + LFE ch, ~448 kbps (UKR.MVO.OMIKRON)(отдельно)Видео: Идентификатор : 1 Формат : AVC Формат/Информация : Advanced Video Codec Профиль формата : [email protected] Параметр CABAC формата : Да Параметр ReFrames формата : 12 кадров Идентификатор кодека : V_MPEG4/ISO/AVC Продолжительность : 1 ч. 30 м. Битрейт : 3012 Кбит/сек Ширина : 1140 пикселей Высота : 476 пикселей Соотношение сторон : 2,40:1 Режим частоты кадров : Постоянный Частота кадров : 23,976 кадра/сек Цветовое пространство : YUV Субдискретизация насыщенности : 4:2:0 Битовая глубина : 8 бит Тип развёртки : Прогрессивная Бит/(Пиксели*Кадры) : 0.231 Размер потока : 1,91 Гбайт (68%) Заголовок : Враг / Enemy (2013) BDRip-AVC by HQCLUB [Elheym] Библиотека кодирования : x264 core 142 r2479 dd79a61 Настройки программы : cabac=1 / ref=12 / deblock=1:-3:-2 / analyse=0x3:0x113 / me=umh / subme=11 / psy=1 / psy_rd=1.00:0.00 / mixed_ref=1 / me_range=32 / chroma_me=1 / trellis=2 / 8x8dct=1 / cqm=0 / deadzone=21,11 / fast_pskip=0 / chroma_qp_offset=-4 / threads=6 / lookahead_threads=1 / sliced_threads=0 / nr=0 / decimate=1 / interlaced=0 / bluray_compat=0 / constrained_intra=0 / bframes=15 / b_pyramid=2 / b_adapt=2 / b_bias=0 / direct=1 / weightb=1 / open_gop=0 / weightp=2 / keyint=240 / keyint_min=23 / scenecut=40 / intra_refresh=0 / rc_lookahead=40 / rc=crf / mbtree=1 / crf=13.4 / qcomp=0.60 / qpmin=0 / qpmax=69 / qpstep=4 / vbv_maxrate=50000 / vbv_bufsize=62500 / crf_max=0.0 / nal_hrd=none / filler=0 / ip_ratio=1.40 / aq=2:0.85 Язык : English Default : Да Forced : НетАудио #1: Идентификатор : 2 Формат : AC-3 Формат/Информация : Audio Coding 3 Расширение режима : CM (complete main) Параметр Endianness формата : Big Идентификатор кодека : A_AC3 Продолжительность : 1 ч. 30 м. Вид битрейта : Постоянный Битрейт : 448 Кбит/сек Каналы : 6 каналов Расположение каналов : Front: L C R, Side: L R, LFE Частота : 48,0 КГц Битовая глубина : 16 бит Метод сжатия : С потерями Размер потока : 291 Мбайт (10%) Заголовок : АС3 5.1 @ 448 kbps - Dub Язык : Russian Default : Нет Forced : НетАудио #2: Идентификатор : 3 Формат : AC-3 Формат/Информация : Audio Coding 3 Расширение режима : CM (complete main) Параметр Endianness формата : Big Идентификатор кодека : A_AC3 Продолжительность : 1 ч. 30 м. Вид битрейта : Постоянный Битрейт : 448 Кбит/сек Каналы : 6 каналов Расположение каналов : Front: L C R, Side: L R, LFE Частота : 48,0 КГц Битовая глубина : 16 бит Метод сжатия : С потерями Размер потока : 291 Мбайт (10%) Заголовок : АС3 5.1 @ 448 kbps - AVO, Namahov Язык : Russian Default : Нет Forced : НетАудио #3: Идентификатор : 4 Формат : AC-3 Формат/Информация : Audio Coding 3 Расширение режима : CM (complete main) Параметр Endianness формата : Big Идентификатор кодека : A_AC3 Продолжительность : 1 ч. 30 м. Вид битрейта : Постоянный Битрейт : 448 Кбит/сек Каналы : 6 каналов Расположение каналов : Front: L C R, Side: L R, LFE Частота : 48,0 КГц Битовая глубина : 16 бит Метод сжатия : С потерями Размер потока : 291 Мбайт (10%) Заголовок : АС3 5.1 @ 448 kbps - Original Язык : English Default : Нет Forced : Нет 2,82 Gb 46 5
17 февраля 2016 07:09 Враг / Enemy (2013) BDRip 720p от Leonardo and Scarabey | Лицензия .torrent   [Информация о файле (нажмите для просмотра)] Перевод: Профессиональный (полное дублирование) ЛицензияФормат: MKVВидео кодек: MPEG-4 AVC Аудио кодек: AC3Видео: AVC, 1280x534 (2.40:1 at 23.976 fps, AVC at 2430 kbps avg, 0.148 bit/pixelАудио: Russian; AC3; 448 Kbps; CBR; 6 ch; 16 bit; DUBСубтитры: Русские, английские 1,86 Gb 89 11
17 февраля 2016 07:09 Враг / Enemy (2013) BDRip от HQCLUB | Лицензия .torrent   [Информация о файле (нажмите для просмотра)] Перевод: Профессиональный (полное дублирование) R5Субтитры: русские (2 вида), английские (обычные, SDH)Формат: AVIКачество: BDRip (источник:Видео: 720x304 (2.37:1), 23.976 fps, XviD build 65 ~1831 kbps avg, 0.35 bit/pixelАудио #1: 48 kHz, AC3 Dolby Digital, 3/2 (L,C,R,l,r) + LFE ch, ~448 kbps avg (DUB) R5Аудио #2: 48 kHz, AC3 Dolby Digital, 3/2 (L,C,R,l,r) + LFE ch, ~448 kbps avg (UKR.MVO.OMIKRON)(отдельно)Аудио #3: 48 kHz, AC3 Dolby Digital, 3/2 (L,C,R,l,r) + LFE ch, ~448 kbps avg (AVO.NEMAHOV)(отдельно)Аудио #4: 48 kHz, AC3 Dolby Digital, 3/2 (L,C,R,l,r) + LFE ch, ~448 kbps avg (AVO.ESAREV)(отдельно)Аудио #5: 48 kHz, AC3 Dolby Digital, 3/2 (L,C,R,l,r) + LFE ch, ~448 kbps avg (VO.DOCTOR.JOKER)(отдельно)Аудио #6: 48 kHz, AC3 Dolby Digital, 3/2 (L,C,R,l,r) + LFE ch, ~448 kbps avg (ENG)(отдельно) 1,45 Gb 59 8
17 февраля 2016 07:09 Враг / Enemy (2013) BDRip от HELLYWOOD | Лицензия .torrent   [Информация о файле (нажмите для просмотра)] Перевод: Профессиональный (полное дублирование) [Лицензия] + Оригинальная звуковая дорожка + Авторский одноголосный переводСубтитры: Русские, английские (Отдельным файлом)Формат: AVIКачество: BDRip (источник: /Blu-ray Disc /1080p) Видео: 720x304 (2.37:1), 23.976 fps, XviD build 65 ~1848 kbps avg, 0.35 bit/pixelАудио: #1: 48 kHz, AC3 Dolby Digital, 3/2 (L,C,R,l,r) + LFE ch, 448.00 kbps|DUB|Аудио: #2: 48 kHz, AC3 Dolby Digital, 3/2 (L,C,R,l,r) + LFE ch, 448.00 kbps|ENG| (Отдельным файлом)Аудио: #3: 48 kHz, AC3 Dolby Digital, 3/2 (L,C,R,l,r) + LFE ch, 448.00 kbps|AVO - Ю. Немахов| (Отдельным файлом)Аудио: #4: 48 kHz, AC3 Dolby Digital, 3/2 (L,C,R,l,r) + LFE ch, 448.00 kbps|AVO - А. Матвеев aka Doctor_Joker| (Отдельным файлом)Аудио: #5: 48 kHz, AC3 Dolby Digital, 3/2 (L,C,R,l,r) + LFE ch, 448.00 kbps|AVO - Д. Есарев| (Отдельным файлом) 2,6 Gb 20 9
17 февраля 2016 07:09 Враг / Enemy (2013) HDRip от Scarabey | Лицензия .torrent   [Информация о файле (нажмите для просмотра)] Перевод: Дубляж - ЛицензияКачество: HDRipФормат: AVIВидео: 720x304 (2.37:1), 23.976 fps, XviD build 73 ~1874 kbps avg, 0.36 bit/pixelАудио: 48 kHz, AC3 Dolby Digital, 3/2 (L,C,R,l,r) + LFE ch, ~448.00 kbps avg 1,48 Gb 66 6
17 февраля 2016 07:09 Враг / Enemy (2013) HDRip от Scarabey | Лицензия .torrent   [Информация о файле (нажмите для просмотра)] Перевод: Дубляж - ЛицензияКачество: HDRipФормат: AVIВидео: 720x304 (2.37:1), 23.976 fps, XviD build 73 ~1008 kbps avg, 0.19 bit/pixelАудио: 48 kHz, MPEG Layer 3, 2 ch, ~128.00 kbps avg 743,28 Mb 16 1
17 февраля 2016 07:09 Враг / Enemy (2013) BDRip-AVC от Leo.pard and Scarabey | Лицензия .torrent   [Информация о файле (нажмите для просмотра)] Перевод: Профессиональный (дублированный) лицензияФормат: MKVВидео: x264, 864x360 (2.40:1), 1072 Kbps, 23.976 fpsАудио: AAC, 72 Kbps, 48 KHz, 2 channelsСубтитры: Русские (2 варианта), английские (Full, SDH) 745,13 Mb 11 7
17 февраля 2016 07:09 Враг / Enemy (2013) BDRip-AVC от HELLYWOOD | Лицензия .torrent   [Информация о файле (нажмите для просмотра)] Перевод: Профессиональный (полное дублирование) [лицензия R5]Субтитры: Русские, английскиеКачество: BDRip-AVCФормат: MKVВидео: х.264, 1044x436 (2,40:1), 23,976 fps, 1637 Кbps, 0.150 bit/pixelАудио#1: 48 kHz, AC3 Dolby Digital, 3/2 (L,C,R,l,r) + LFE ch, 448.00 kbps |RUSАудио#2: 48 kHz, AC3 Dolby Digital, 3/2 (L,C,R,l,r) + LFE ch, 448.00 kbps |ENG 1,46 Gb 54 4
17 февраля 2016 07:09 Враг / Enemy (2013) DVD5 от New-Team | D | Лицензия .torrent   [Информация о файле (нажмите для просмотра)] Перевод: Профессиональный (полное дублирование)Кодек: MPEG2Качество: DVD5Видео: PAL 16:9 (720x576) VBR ~ 6363.16 kbps avgЗвук: Русский DD 5.1 (448Kbps)Субтитры: Нет 3,95 Gb 20 5
17 февраля 2016 07:09 Враг / Enemy (2013) BDRemux 1080p от New-Team | D, 3xA | лицензия .torrent   [Информация о файле (нажмите для просмотра)] Перевод: Профессиональный (дублированный), авторские (Немахов, Матвеев, Есарев)Качество: BDRemux 1080p /Враг-Enemy.(2013).BDRemux.[1080p].mkv + DVD5 R5 от CD LandФормат: MKVВидео: 1920x1080 (16:9), 23.976 fps, MPEG-4 AVC ~ 20986 Кбит/сек avgАудио 1: 48 kHz, Dolby AC3, 6 ch, 448 kbps,русский дублированныйАудио 2: DTS-HD MA 5.1, 3110 kbps, 48 kHz, 24-bit [Русский - одноголосый закадровый «Ю. Немахов»]Аудио 4: DTS-HD MA 5.1, 3030 kbps, 48 kHz, 24-bit [Русский - одноголосый закадровый «А. Матвеев aka Doctor_Joker»]Аудио 5: DTS-HD MA 5.1, 3085 kbps, 48 kHz, 24-bit [Русский - одноголосый закадровый «Д. Есарев»]Аудио 6: DTS-HD MA 5.1, 3069 kbps, 48 kHz, 24-bit [Английский - оригинал]Видео: Идентификатор : 1 Формат : AVC Формат/Информация : Advanced Video Codec Профиль формата : [email protected] Параметр CABAC формата : Да Параметр ReFrames формата : 4 кадра Идентификатор кодека : V_MPEG4/ISO/AVC Продолжительность : 1 ч. 30 м. Вид битрейта : Переменный Максимальный битрейт : 37,0 Мбит/сек Ширина : 1920 пикселей Высота : 1080 пикселей Соотношение сторон : 16:9 Режим частоты кадров : Постоянный Частота кадров : 23,976 кадра/сек Цветовое пространство : YUV Субдискретизация насыщенности : 4:2:0 Битовая глубина : 8 бит Тип развёртки : Прогрессивная Язык : English Default : Да Forced : НетАудио #1: Идентификатор : 2 Формат : AC-3 Формат/Информация : Audio Coding 3 Расширение режима : CM (complete main) Параметр Endianness формата : Big Идентификатор кодека : A_AC3 Продолжительность : 1 ч. 30 м. Вид битрейта : Постоянный Битрейт : 448 Кбит/сек Каналы : 6 каналов Расположение каналов : Front: L C R, Side: L R, LFE Частота : 48,0 КГц Битовая глубина : 16 бит Метод сжатия : С потерями Размер потока : 291 Мбайт (1%) Заголовок : Дублированный (лицензия) Язык : Russian Default : Да Forced : НетАудио #2: Идентификатор : 3 Формат : DTS Формат/Информация : Digital Theater Systems Профиль формата : MA / Core Режим : 16 Параметр Endianness формата : Big Идентификатор кодека : A_DTS Продолжительность : 1 ч. 30 м. Вид битрейта : Переменный Битрейт : Неизвестно / 1509 Кбит/сек Каналы : 6 каналов Расположение каналов : Front: L C R, Side: L R, LFE Частота : 48,0 КГц Битовая глубина : 24 бит Метод сжатия : Без потерь / Lossy Заголовок : DTS-HD MA 5.1 / 3110 kbps / AVO (Ю. Немахов) Язык : Russian Default : Нет Forced : НетАудио #3: Идентификатор : 4 Формат : DTS Формат/Информация : Digital Theater Systems Профиль формата : MA / Core Режим : 16 Параметр Endianness формата : Big Идентификатор кодека : A_DTS Продолжительность : 1 ч. 30 м. Вид битрейта : Переменный Битрейт : Неизвестно / 1509 Кбит/сек Каналы : 6 каналов Расположение каналов : Front: L C R, Side: L R, LFE Частота : 48,0 КГц Битовая глубина : 24 бит Метод сжатия : Без потерь / Lossy Заголовок : DTS-HD MA 5.1 / 3030 kbps / VO (А. Матвеев aka Doctor_Joker) Язык : Russian Default : Нет Forced : НетАудио #4: Идентификатор : 5 Формат : DTS Формат/Информация : Digital Theater Systems Профиль формата : MA / Core Режим : 16 Параметр Endianness формата : Big Идентификатор кодека : A_DTS Продолжительность : 1 ч. 30 м. Вид битрейта : Переменный Битрейт : Неизвестно / 1509 Кбит/сек Каналы : 6 каналов Расположение каналов : Front: L C R, Side: L R, LFE Частота : 48,0 КГц Битовая глубина : 24 бит Метод сжатия : Без потерь / Lossy Заголовок : DTS-HD MA 5.1 / 3085 kbps / VO (Д. Есарев) Язык : Russian Default : Нет Forced : НетАудио #5: Идентификатор : 6 Формат : DTS Формат/Информация : Digital Theater Systems Профиль формата : MA / Core Режим : 16 Параметр Endianness формата : Big Идентификатор кодека : A_DTS Продолжительность : 1 ч. 30 м. Вид битрейта : Переменный Битрейт : Неизвестно / 1509 Кбит/сек Каналы : 6 каналов Расположение каналов : Front: L C R, Side: L R, LFE Частота : 48,0 КГц Битовая глубина : 24 бит Метод сжатия : Без потерь / Lossy Заголовок : DTS-HD MA 5.1 / 3069 kbps / Original Язык : English Default : Нет Forced : Нет 21,36 Gb 13 1
17 февраля 2016 07:09 Враг / Enemy (2013) BDRip 1080p от New-Team | D, 3xA | лицензия .torrent   [Информация о файле (нажмите для просмотра)] Перевод: Профессиональный (дублированный), авторские (Немахов, Матвеев, Есарев)Качество: BDRip 1080p /Enemy.2013.BDRip1080p.mkv + DVD5 R5 от CD LandФормат: MKVВидео: 1916x800 (2.40:1), 23.976 fps, MPEG-4 AVC ~ 11,0 Мбит/сек avg, 0.299 bit/pixelАудио 1: 48 kHz, Dolby AC3, 6 ch, 448 kbps,русский дублированныйАудио 2: 48 kHz, DTS, 6 ch, 1536 kbps, НемаховАудио 4: 48 kHz, DTS, 6 ch, 1536 kbps, МатвеевАудио 5: 48 kHz, DTS, 6 ch, 1536 kbps, ЕсаревАудио 6: 48 kHz, DTS, 6 ch, 1536 kbps, английскийВидео: Идентификатор : 1 Формат : AVC Формат/Информация : Advanced Video Codec Профиль формата : [email protected] Параметр CABAC формата : Да Параметр ReFrames формата : 5 кадров Идентификатор кодека : V_MPEG4/ISO/AVC Продолжительность : 1 ч. 30 м. Битрейт : 11,0 Мбит/сек Ширина : 1916 пикселей Высота : 800 пикселей Соотношение сторон : 2,40:1 Режим частоты кадров : Постоянный Частота кадров : 23,976 кадра/сек Цветовое пространство : YUV Субдискретизация насыщенности : 4:2:0 Битовая глубина : 8 бит Тип развёртки : Прогрессивная Бит/(Пиксели*Кадры) : 0.299 Размер потока : 6,75 Гбайт (61%) Заголовок : Release Group CINEMANIA Библиотека кодирования : x264 core 138 r2356 a1d3d17 Настройки программы : cabac=1 / ref=5 / deblock=1:-3:-3 / analyse=0x3:0x113 / me=umh / subme=10 / psy=1 / psy_rd=1.00:0.05 / mixed_ref=1 / me_range=32 / chroma_me=1 / trellis=2 / 8x8dct=1 / cqm=0 / deadzone=21,11 / fast_pskip=0 / chroma_qp_offset=-2 / threads=18 / lookahead_threads=1 / sliced_threads=0 / nr=0 / decimate=1 / interlaced=0 / bluray_compat=0 / constrained_intra=0 / bframes=5 / b_pyramid=2 / b_adapt=2 / b_bias=0 / direct=3 / weightb=1 / open_gop=0 / weightp=2 / keyint=250 / keyint_min=23 / scenecut=40 / intra_refresh=0 / rc=2pass / mbtree=0 / bitrate=10973 / ratetol=1.0 / qcomp=0.70 / qpmin=0 / qpmax=69 / qpstep=4 / cplxblur=20.0 / qblur=0.5 / ip_ratio=1.40 / pb_ratio=1.30 / aq=2:0.90 Язык : English Default : Да Forced : Нет DURATION : 01:30:52.485000000 NUMBER_OF_FRAMES : 130729 NUMBER_OF_BYTES : 7477968228 _STATISTICS_WRITING_APP : mkvmerge v7.1.0 ('Good Love') 64bit built on Jul 27 2014 13:06:55 _STATISTICS_WRITING_DATE_UTC : 2014-08-22 16:00:06 _STATISTICS_TAGS : BPS DURATION NUMBER_OF_FRAMES NUMBER_OF_BYTESАудио #1: Идентификатор : 2 Формат : AC-3 Формат/Информация : Audio Coding 3 Расширение режима : CM (complete main) Параметр Endianness формата : Big Идентификатор кодека : A_AC3 Продолжительность : 1 ч. 30 м. Вид битрейта : Постоянный Битрейт : 448 Кбит/сек Каналы : 6 каналов Расположение каналов : Front: L C R, Side: L R, LFE Частота : 48,0 КГц Битовая глубина : 16 бит Метод сжатия : С потерями Размер потока : 291 Мбайт (3%) Заголовок : Дублированный (лицензия) Язык : Russian Default : Да Forced : НетАудио #2: Идентификатор : 3 Формат : DTS Формат/Информация : Digital Theater Systems Режим : 16 Параметр Endianness формата : Big Идентификатор кодека : A_DTS Продолжительность : 1 ч. 30 м. Вид битрейта : Постоянный Битрейт : 1509 Кбит/сек Каналы : 6 каналов Расположение каналов : Front: L C R, Side: L R, LFE Частота : 48,0 КГц Битовая глубина : 24 бит Метод сжатия : С потерями Размер потока : 981 Мбайт (9%) Заголовок : АП. Немахов Язык : Russian Default : Нет Forced : НетАудио #3: Идентификатор : 4 Формат : DTS Формат/Информация : Digital Theater Systems Режим : 16 Параметр Endianness формата : Big Идентификатор кодека : A_DTS Продолжительность : 1 ч. 30 м. Вид битрейта : Постоянный Битрейт : 1509 Кбит/сек Каналы : 6 каналов Расположение каналов : Front: L C R, Side: L R, LFE Частота : 48,0 КГц Битовая глубина : 24 бит Метод сжатия : С потерями Размер потока : 981 Мбайт (9%) Заголовок : АП. Матвеев Язык : Russian Default : Нет Forced : НетАудио #4: Идентификатор : 5 Формат : DTS Формат/Информация : Digital Theater Systems Режим : 16 Параметр Endianness формата : Big Идентификатор кодека : A_DTS Продолжительность : 1 ч. 30 м. Вид битрейта : Постоянный Битрейт : 1509 Кбит/сек Каналы : 6 каналов Расположение каналов : Front: L C R, Side: L R, LFE Частота : 48,0 КГц Битовая глубина : 24 бит Метод сжатия : С потерями Размер потока : 981 Мбайт (9%) Заголовок : АП Есарев Язык : Russian Default : Нет Forced : НетАудио #5: Идентификатор : 6 Формат : DTS Формат/Информация : Digital Theater Systems Режим : 16 Параметр Endianness формата : Big Идентификатор кодека : A_DTS Продолжительность : 1 ч. 30 м. Вид битрейта : Постоянный Битрейт : 1509 Кбит/сек Каналы : 6 каналов Расположение каналов : Front: L C R, Side: L R, LFE Частота : 48,0 КГц Битовая глубина : 24 бит Метод сжатия : С потерями Размер потока : 981 Мбайт (9%) Язык : English Default : Нет Forced : Нет 11,08 Gb 46 18
17 февраля 2016 07:09 Враг / Enemy (2013) BDRip 720p от New-Team | D, 3xA | лицензия .torrent   [Информация о файле (нажмите для просмотра)] Перевод: Профессиональный (дублированный), авторские (Немахов, Матвеев, Есарев)Качество: BDRip 720p /Враг.2013.720p Release for Piratbit.net_R.G. HD-Films.mkv + DVD5 R5 от CD LandФормат: MKVВидео: 1280x534 (2.40:1), 23.976 fps, MPEG-4 AVC ~ 6139 Кбит/сек avg, 0.375 bit/pixelАудио 1: 48 kHz, Dolby AC3, 6 ch, 448 kbps,русский дублированныйАудио 2: 48 kHz, DTS, 6 ch, 1536 kbps, НемаховАудио 4: 48 kHz, DTS, 6 ch, 1536 kbps, МатвеевАудио 5: 48 kHz, DTS, 6 ch, 1536 kbps, ЕсаревАудио 6: 48 kHz, DTS, 6 ch, 1536 kbps, английскийВидео: Идентификатор : 1 Формат : AVC Формат/Информация : Advanced Video Codec Профиль формата : [email protected] Параметр CABAC формата : Да Параметр ReFrames формата : 12 кадров Идентификатор кодека : V_MPEG4/ISO/AVC Продолжительность : 1 ч. 30 м. Битрейт : 6139 Кбит/сек Ширина : 1280 пикселей Высота : 534 пикселя Соотношение сторон : 2,40:1 Режим частоты кадров : Постоянный Частота кадров : 23,976 кадра/сек Цветовое пространство : YUV Субдискретизация насыщенности : 4:2:0 Битовая глубина : 8 бит Тип развёртки : Прогрессивная Бит/(Пиксели*Кадры) : 0.375 Размер потока : 3,90 Гбайт (48%) Библиотека кодирования : x264 core 142 r2431 ac76440 Настройки программы : cabac=1 / ref=12 / deblock=1:-3:-3 / analyse=0x3:0x133 / me=umh / subme=10 / psy=1 / psy_rd=1.01:0.00 / mixed_ref=1 / me_range=24 / chroma_me=1 / trellis=2 / 8x8dct=1 / cqm=0 / deadzone=21,11 / fast_pskip=0 / chroma_qp_offset=-2 / threads=6 / lookahead_threads=1 / sliced_threads=0 / nr=0 / decimate=0 / interlaced=0 / bluray_compat=0 / constrained_intra=0 / bframes=12 / b_pyramid=2 / b_adapt=2 / b_bias=0 / direct=3 / weightb=1 / open_gop=0 / weightp=2 / keyint=250 / keyint_min=23 / scenecut=40 / intra_refresh=0 / rc=crf / mbtree=0 / crf=15.5 / qcomp=0.75 / qpmin=0 / qpmax=69 / qpstep=4 / ip_ratio=1.20 / pb_ratio=1.10 / aq=1:0.84 Язык : Russian Default : Да Forced : Нет DURATION : 01:30:52.447000000 NUMBER_OF_FRAMES : 130728 NUMBER_OF_BYTES : 4355508304 _STATISTICS_WRITING_APP : mkvmerge v7.1.0 ('Good Love') 64bit built on Jul 27 2014 13:06:55 _STATISTICS_WRITING_DATE_UTC : 2014-08-22 17:21:47 _STATISTICS_TAGS : BPS DURATION NUMBER_OF_FRAMES NUMBER_OF_BYTESАудио #1: Идентификатор : 2 Формат : AC-3 Формат/Информация : Audio Coding 3 Расширение режима : CM (complete main) Параметр Endianness формата : Big Идентификатор кодека : A_AC3 Продолжительность : 1 ч. 30 м. Вид битрейта : Постоянный Битрейт : 448 Кбит/сек Каналы : 6 каналов Расположение каналов : Front: L C R, Side: L R, LFE Частота : 48,0 КГц Битовая глубина : 16 бит Метод сжатия : С потерями Размер потока : 291 Мбайт (3%) Заголовок : Дублированный (лицензия) Язык : Russian Default : Да Forced : НетАудио #2: Идентификатор : 3 Формат : DTS Формат/Информация : Digital Theater Systems Режим : 16 Параметр Endianness формата : Big Идентификатор кодека : A_DTS Продолжительность : 1 ч. 30 м. Вид битрейта : Постоянный Битрейт : 1509 Кбит/сек Каналы : 6 каналов Расположение каналов : Front: L C R, Side: L R, LFE Частота : 48,0 КГц Битовая глубина : 24 бит Метод сжатия : С потерями Размер потока : 981 Мбайт (12%) Заголовок : АП. Немахов Язык : Russian Default : Нет Forced : НетАудио #3: Идентификатор : 4 Формат : DTS Формат/Информация : Digital Theater Systems Режим : 16 Параметр Endianness формата : Big Идентификатор кодека : A_DTS Продолжительность : 1 ч. 30 м. Вид битрейта : Постоянный Битрейт : 1509 Кбит/сек Каналы : 6 каналов Расположение каналов : Front: L C R, Side: L R, LFE Частота : 48,0 КГц Битовая глубина : 24 бит Метод сжатия : С потерями Размер потока : 981 Мбайт (12%) Заголовок : АП. Матвеев Язык : Russian Default : Нет Forced : НетАудио #4: Идентификатор : 5 Формат : DTS Формат/Информация : Digital Theater Systems Режим : 16 Параметр Endianness формата : Big Идентификатор кодека : A_DTS Продолжительность : 1 ч. 30 м. Вид битрейта : Постоянный Битрейт : 1509 Кбит/сек Каналы : 6 каналов Расположение каналов : Front: L C R, Side: L R, LFE Частота : 48,0 КГц Битовая глубина : 24 бит Метод сжатия : С потерями Размер потока : 981 Мбайт (12%) Заголовок : АП Есарев Язык : Russian Default : Нет Forced : НетАудио #5: Идентификатор : 6 Формат : DTS Формат/Информация : Digital Theater Systems Режим : 16 Параметр Endianness формата : Big Идентификатор кодека : A_DTS Продолжительность : 1 ч. 30 м. Вид битрейта : Постоянный Битрейт : 1509 Кбит/сек Каналы : 6 каналов Расположение каналов : Front: L C R, Side: L R, LFE Частота : 48,0 КГц Битовая глубина : 24 бит Метод сжатия : С потерями Размер потока : 981 Мбайт (12%) Язык : English Default : Нет Forced : Нет 8,18 Gb 46 5
17 февраля 2016 07:09 Враг / Enemy (2013) BDRip-AVC от New-Team | D | лицензия .torrent   [Информация о файле (нажмите для просмотра)] Перевод: Профессиональный (дублированный), авторские (Немахов, Матвеев, Есарев)Качество: BDRip-AVC /Враг-Enemy.(2013).BDRemux.[1080p].mkv + DVD5 R5 от CD LandФормат: MKVВидео: 1024x428 (2.40:1), 23.976 fps, MPEG-4 AVC ~ 1844 Кбит/сек avg, 0.175 bit/pixelАудио: 48 kHz, Dolby AC3, 6 ch, 448 kbps,русский дублированныйВидео: Идентификатор : 1 Формат : AVC Формат/Информация : Advanced Video Codec Профиль формата : [email protected] Параметр CABAC формата : Да Параметр ReFrames формата : 8 кадров Идентификатор кодека : V_MPEG4/ISO/AVC Продолжительность : 1 ч. 30 м. Битрейт : 1844 Кбит/сек Ширина : 1024 пикселя Высота : 428 пикселей Соотношение сторон : 2,40:1 Режим частоты кадров : Постоянный Частота кадров : 23,976 кадра/сек Цветовое пространство : YUV Субдискретизация насыщенности : 4:2:0 Битовая глубина : 8 бит Тип развёртки : Прогрессивная Бит/(Пиксели*Кадры) : 0.175 Размер потока : 1,14 Гбайт (78%) Библиотека кодирования : x264 core 130 r2273 b3065e6 Настройки программы : cabac=1 / ref=8 / deblock=1:-3:-2 / analyse=0x3:0x113 / me=umh / subme=10 / psy=1 / psy_rd=1.00:0.05 / mixed_ref=1 / me_range=32 / chroma_me=1 / trellis=2 / 8x8dct=1 / cqm=0 / deadzone=21,11 / fast_pskip=0 / chroma_qp_offset=-3 / threads=9 / lookahead_threads=1 / sliced_threads=0 / nr=0 / decimate=0 / interlaced=0 / bluray_compat=0 / constrained_intra=0 / bframes=8 / b_pyramid=2 / b_adapt=2 / b_bias=0 / direct=3 / weightb=1 / open_gop=0 / weightp=2 / keyint=240 / keyint_min=24 / scenecut=40 / intra_refresh=0 / rc_lookahead=40 / rc=2pass / mbtree=1 / bitrate=1844 / ratetol=1.0 / qcomp=0.60 / qpmin=0 / qpmax=69 / qpstep=4 / cplxblur=20.0 / qblur=0.5 / ip_ratio=1.40 / aq=1:1.00 Язык : English Default : Да Forced : Нет DURATION : 01:30:52.489000000 NUMBER_OF_FRAMES : 130729 NUMBER_OF_BYTES : 1257022121 _STATISTICS_WRITING_APP : mkvmerge v7.1.0 ('Good Love') 64bit built on Jul 27 2014 13:06:55 _STATISTICS_WRITING_DATE_UTC : 2014-08-22 21:28:12 _STATISTICS_TAGS : BPS DURATION NUMBER_OF_FRAMES NUMBER_OF_BYTESАудио: Идентификатор : 2 Формат : AC-3 Формат/Информация : Audio Coding 3 Расширение режима : CM (complete main) Параметр Endianness формата : Big Идентификатор кодека : A_AC3 Продолжительность : 1 ч. 30 м. Вид битрейта : Постоянный Битрейт : 448 Кбит/сек Каналы : 6 каналов Расположение каналов : Front: L C R, Side: L R, LFE Частота : 48,0 КГц Битовая глубина : 16 бит Метод сжатия : С потерями Размер потока : 291 Мбайт (20%) Заголовок : Дублированный (лицензия) Язык : Russian Default : Да Forced : Нет 1,46 Gb 29 11
17 февраля 2016 07:09 Враг / Enemy (2013) BDRip от New-Team | D | лицензия .torrent   [Информация о файле (нажмите для просмотра)] Перевод: Профессиональный (дублированный)Качество: BDRip /Враг-Enemy.(2013).BDRemux.[1080p].mkv + DVD5 R5 от CD LandФормат: AVIВидео: 720x304 (2.35:1), 23.976 fps, XviD ~ 1871,0 Кбит/сек avg, 0.357 bit/pixelАудио: 48 kHz, Dolby AC3, 6 ch, 448 kbps,русский дублированныйВидео: Идентификатор : 0 Формат : MPEG-4 Visual Профиль формата : Advanced [email protected] Параметр BVOP формата : 1 Параметр QPel формата : Нет Параметр GMC формата : Без точки перехода Параметр матрицы формата : Выборочная Идентификатор кодека : XVID Идентификатор кодека/Подсказка : XviD Продолжительность : 1 ч. 30 м. Битрейт : 1871 Кбит/сек Ширина : 720 пикселей Высота : 304 пикселя Соотношение сторон : 2,35:1 Частота кадров : 23,976 кадра/сек Цветовое пространство : YUV Субдискретизация насыщенности : 4:2:0 Битовая глубина : 8 бит Тип развёртки : Прогрессивная Метод сжатия : С потерями Бит/(Пиксели*Кадры) : 0.357 Размер потока : 1,19 Гбайт (80%) Библиотека кодирования : XviD 73Аудио: Идентификатор : 1 Формат : AC-3 Формат/Информация : Audio Coding 3 Расширение режима : CM (complete main) Параметр Endianness формата : Big Идентификатор кодека : 2000 Продолжительность : 1 ч. 30 м. Вид битрейта : Постоянный Битрейт : 448 Кбит/сек Каналы : 6 каналов Расположение каналов : Front: L C R, Side: L R, LFE Частота : 48,0 КГц Битовая глубина : 16 бит Метод сжатия : С потерями Размер потока : 291 Мбайт (19%) Выравнивание : Разделение по промежуткам Продолжительность промежутка : 42 мс. (1,00 видеокадр) Время предзагрузки промежутка : 500 мс. 1,48 Gb 107 10
17 февраля 2016 07:09 Враг / Enemy (2013) HDRip-AVC от ExKinoRay | Чистый звук .torrent   [Информация о файле (нажмите для просмотра)] Качество: HDRip (AVC)Видео: MPEG-4 AVC, 1370 Кбит/с, 1024x426Аудио: Русский (AC3, 2 ch, 384 Кбит/с), английский (AC3, 6 ch, 384 Кбит/с)Перевод: Дублированный (Чистый звук)Субтитры: Русские, английские 1,36 Gb 24 5
17 февраля 2016 07:08 Враг / Enemy (2013) BDRemux 1080p | Чистый звук .torrent   [Информация о файле (нажмите для просмотра)] Перевод: дублированный /Чистый звук/Кодек: MPEG4/ISO/AVCКачество: BDRemux 1080pВидео: 1 920 x 1 080 pixels,23.976 fps, 24.3 MbpsАудио 1: Russian/AC-3 384 Kbps 2 channels, дублированный /чистый звукАудио 2: English / DTS 48 kHz, 6 channels, 1 509 KbpsСубтитры: English/Английские 15,45 Gb 24 4
17 февраля 2016 07:08 Враг / Enemy (2013) BDRip-AVC от HELLYWOOD | A .torrent   [Информация о файле (нажмите для просмотра)] Перевод: Авторский (одноголосый закадровый) [Д.Есарев / Ю.Немахов / А.Матвеев]Субтитры: Русские, английские (Full + SDH)Качество: BDRip-AVCФормат: MKVВидео: х.264, 1044x436 (2,40:1), 23,976 fps, 1637 Кbps, 0.150 bit/pixelАудио#1: 48 kHz, AC3 Dolby Digital, 3/2 (L,C,R,l,r) + LFE ch, 448.00 kbps |Д.ЕсаревАудио#2: 48 kHz, AC3 Dolby Digital, 3/2 (L,C,R,l,r) + LFE ch, 448.00 kbps |Ю.НемаховАудио#3: 48 kHz, AC3 Dolby Digital, 3/2 (L,C,R,l,r) + LFE ch, 448.00 kbps |А.МатвеевАудио#4: 48 kHz, AC3 Dolby Digital, 3/2 (L,C,R,l,r) + LFE ch, 448.00 kbps |ENG 2,18 Gb 20 3
17 февраля 2016 07:08 Враг / Enemy (2013) HDRip от Scarabey | А .torrent   [Информация о файле (нажмите для просмотра)] Перевод: Авторский (одноголосый) - Юрий Немахов Качество: HDRipФормат: AVIВидео: 720x304 (2.37:1), 23.976 fps, XviD build 73 ~1007 kbps avg, 0.19 bit/pixelАудио: 48 kHz, MPEG Layer 3, 2 ch, ~128.00 kbps avg 743,42 Mb 13 2
17 февраля 2016 07:08 Враг / Enemy (2013) BDRip 720p от HDCLUB .torrent   [Информация о файле (нажмите для просмотра)] Перевод: Авторский (Юрий Немахов)Субтитры: Russian, English, English (SDH)Формат: MatroskaВидео: 1280x534 at 23.976 fps, x264, ~6253 kbps avgАудио #1: Russian: 48 kHz, DTS, 3/2 (L,C,R,l,r) + LFE ch, ~1536.00 kbps avg |Авторский, Ю. Немахов|Аудио #2: Russian: 48 kHz, DTS, 3/2 (L,C,R,l,r) + LFE ch, ~1536.00 kbps avg |Авторский, А. Матвеев|Аудио #3: Russian: 48 kHz, DTS, 3/2 (L,C,R,l,r) + LFE ch, ~1536.00 kbps avg |Авторский, Д. Есарев|Аудио #4: English: 48 kHz, AC3, 3/2 (L,C,R,l,r) + LFE ch, ~640.00 kbps avg 7,34 Gb 3 3
17 февраля 2016 07:08 Враг / Enemy (2013) BDRip 1080p от ExKinoRay | A .torrent   [Информация о файле (нажмите для просмотра)] Качество: BDRip (1080p)Видео: MPEG-4 AVC, 4755 Кбит/с, 1916x800, 23.976 кадр/сАудио: Русский (AC3, 6 ch, 640 Кбит/с), (DTS, 6 ch, 1509 Кбит/с), английский (DTS, 6 ch, 1509 Кбит/с)Перевод: Авторский одноголосый закадровыйСубтитры: Русские, английскиеВидео: Идентификатор : 1 Формат : AVC Формат/Информация : Advanced Video Codec Профиль формата : [email protected] Параметр CABAC формата : Да Параметр ReFrames формата : 5 кадров Идентификатор кодека : V_MPEG4/ISO/AVC Продолжительность : 1 ч. 30 м. Битрейт : 4508 Кбит/сек Номинальный битрейт : 4755 Кбит/сек Ширина : 1916 пикселей Высота : 800 пикселей Соотношение сторон : 2,40:1 Режим частоты кадров : Постоянный Частота кадров : 23,976 кадра/сек Цветовое пространство : YUV Субдискретизация насыщенности : 4:2:0 Битовая глубина : 8 бит Тип развёртки : Прогрессивная Бит/(Пиксели*Кадры) : 0.123 Размер потока : 2,86 Гбайт (35%) Библиотека кодирования : x264 core 125 r2200 999b753 Настройки программы : cabac=1 / ref=5 / deblock=1:-3:-3 / analyse=0x3:0x133 / me=umh / subme=11 / psy=1 / psy_rd=1.00:0.10 / mixed_ref=1 / me_range=32 / chroma_me=1 / trellis=2 / 8x8dct=1 / cqm=0 / deadzone=21,11 / fast_pskip=0 / chroma_qp_offset=-3 / threads=12 / lookahead_threads=2 / sliced_threads=0 / nr=0 / decimate=0 / interlaced=0 / bluray_compat=0 / constrained_intra=0 / bframes=9 / b_pyramid=2 / b_adapt=2 / b_bias=0 / direct=3 / weightb=1 / open_gop=0 / weightp=2 / keyint=240 / keyint_min=23 / scenecut=40 / intra_refresh=0 / rc_lookahead=40 / rc=2pass / mbtree=1 / bitrate=4755 / ratetol=1.0 / qcomp=0.60 / qpmin=0 / qpmax=69 / qpstep=4 / cplxblur=20.0 / qblur=0.5 / ip_ratio=1.40 / aq=1:1.00 Язык : English Default : Да Forced : НетАудио #1: Идентификатор : 2 Формат : AC-3 Формат/Информация : Audio Coding 3 Расширение режима : CM (complete main) Параметр Endianness формата : Big Идентификатор кодека : A_AC3 Продолжительность : 1 ч. 30 м. Вид битрейта : Постоянный Битрейт : 640 Кбит/сек Каналы : 6 каналов Расположение каналов : Front: L C R, Side: L R, LFE Частота : 48,0 КГц Битовая глубина : 16 бит Метод сжатия : С потерями Размер потока : 416 Мбайт (5%) Заголовок : Ю.Немахов Язык : Russian Default : Да Forced : НетАудио #2: Идентификатор : 3 Формат : AC-3 Формат/Информация : Audio Coding 3 Расширение режима : CM (complete main) Параметр Endianness формата : Big Идентификатор кодека : A_AC3 Продолжительность : 1 ч. 30 м. Вид битрейта : Постоянный Битрейт : 640 Кбит/сек Каналы : 6 каналов Расположение каналов : Front: L C R, Side: L R, LFE Частота : 48,0 КГц Битовая глубина : 16 бит Метод сжатия : С потерями Размер потока : 416 Мбайт (5%) Заголовок : Д.Есарев Язык : Russian Default : Нет Forced : НетАудио #3: Идентификатор : 4 Формат : AC-3 Формат/Информация : Audio Coding 3 Расширение режима : CM (complete main) Параметр Endianness формата : Big Идентификатор кодека : A_AC3 Продолжительность : 1 ч. 30 м. Вид битрейта : Постоянный Битрейт : 640 Кбит/сек Каналы : 6 каналов Расположение каналов : Front: L C R, Side: L R, LFE Частота : 48,0 КГц Битовая глубина : 16 бит Метод сжатия : С потерями Размер потока : 416 Мбайт (5%) Заголовок : А.Матвеев Язык : Russian Default : Нет Forced : НетАудио #4: Идентификатор : 5 Формат : DTS Формат/Информация : Digital Theater Systems Режим : 16 Параметр Endianness формата : Big Идентификатор кодека : A_DTS Продолжительность : 1 ч. 30 м. Вид битрейта : Постоянный Битрейт : 1509 Кбит/сек Каналы : 6 каналов Расположение каналов : Front: L C R, Side: L R, LFE Частота : 48,0 КГц Битовая глубина : 24 бит Метод сжатия : С потерями Размер потока : 981 Мбайт (12%) Заголовок : Ю.Немахов Язык : Russian Default : Нет Forced : НетАудио #5: Идентификатор : 6 Формат : DTS Формат/Информация : Digital Theater Systems Режим : 16 Параметр Endianness формата : Big Идентификатор кодека : A_DTS Продолжительность : 1 ч. 30 м. Вид битрейта : Постоянный Битрейт : 1509 Кбит/сек Каналы : 6 каналов Расположение каналов : Front: L C R, Side: L R, LFE Частота : 48,0 КГц Битовая глубина : 24 бит Метод сжатия : С потерями Размер потока : 981 Мбайт (12%) Заголовок : Д.Есарев Язык : Russian Default : Нет Forced : НетАудио #6: Идентификатор : 7 Формат : DTS Формат/Информация : Digital Theater Systems Режим : 16 Параметр Endianness формата : Big Идентификатор кодека : A_DTS Продолжительность : 1 ч. 30 м. Вид битрейта : Постоянный Битрейт : 1509 Кбит/сек Каналы : 6 каналов Расположение каналов : Front: L C R, Side: L R, LFE Частота : 48,0 КГц Битовая глубина : 24 бит Метод сжатия : С потерями Размер потока : 981 Мбайт (12%) Заголовок : А.Матвеев Язык : Russian Default : Нет Forced : НетАудио #7: Идентификатор : 8 Формат : DTS Формат/Информация : Digital Theater Systems Режим : 16 Параметр Endianness формата : Big Идентификатор кодека : A_DTS Продолжительность : 1 ч. 30 м. Вид битрейта : Постоянный Битрейт : 1509 Кбит/сек Каналы : 6 каналов Расположение каналов : Front: L C R, Side: L R, LFE Частота : 48,0 КГц Битовая глубина : 24 бит Метод сжатия : С потерями Размер потока : 981 Мбайт (12%) Язык : English Default : Нет Forced : Нет 8,07 Gb 5 2
17 февраля 2016 07:08 Враг / Enemy (2013) HDRip от ExKinoRay | А, L2 .torrent   [Информация о файле (нажмите для просмотра)] Качество: HDRipВидео: XviD, 1590 Кбит/с, 720x304Аудио: Русский (AC3, 6 ch, 384 Кбит/с), (AC3, 6 ch, 448 Кбит/с), английский (AC3, 6 ch, 448 Кбит/с)Перевод: Авторский (одноголосый)(Есарев), (Матвеев), Любительский (двухголосый закадровый) qwerty & R.A.I.M 2,13 Gb 10 2
17 февраля 2016 07:08 Враг / Enemy (2013) HDRip от Scarabey | L2 .torrent   [Информация о файле (нажмите для просмотра)] Перевод: Любительский (двухголосый, закадровый) [qwerty & R.A.I.M.] Качество: HDRipФормат: AVIВидео: 720x304 (2.37:1), 23.976 fps, XviD build 73 ~1960 kbps avg, 0.37 bit/pixelАудио: 48 kHz, AC3 Dolby Digital, 3/2 (L,C,R,l,r) + LFE ch, ~384 kbps 1,49 Gb 8 3
17 февраля 2016 07:08 Враг / Enemy (2013) HDRip от Scarabey | L2 .torrent   [Информация о файле (нажмите для просмотра)] Перевод: Любительский (двухголосый, закадровый) [qwerty & R.A.I.M.] Качество: HDRipФормат: AVIВидео: 720x304 (2.37:1), 23.976 fps, XviD build 73 ~1007 kbps avg, 0.19 bit/pixelАудио: 48 kHz, MPEG Layer 3, 2 ch, ~128.00 kbps avg 744,05 Mb 12 3
17 февраля 2016 07:08 Враг / Enemy (2013) BDRip 1080p от CINEMANIA | L2, | L1 .torrent   [Информация о файле (нажмите для просмотра)] Формат: MKVКачество: BDRip 1080p[CHD]Видео: 11000 kb/s, 1920x800Аудио: Russian: [qwerty & R.A.I.M.]: AC3, 384 kb/s (6 ch) / [ХиХиДок]: AC3, 192 kb/s (2 ch) English: DTS, 1510 kb/s (6 ch)Субтитры: Russian[notabenoid], English 8,29 Gb 8 2
17 февраля 2016 07:08 Враг / Enemy (2013) BDRip 720p от CINEMANIA | L2, | L1 .torrent   [Информация о файле (нажмите для просмотра)] Формат: MKVКачество: BDRip 720p[CHD]Видео: 5365 kb/s, 1280x534Аудио: Russian: [qwerty & R.A.I.M.]: AC3, 384 kb/s (6 ch) / [ХиХиДок]: AC3, 192 kb/s (2 ch) English: DTS, 1510 kb/s (6 ch)Субтитры: Russian[notabenoid], English 4,73 Gb 15 3
17 февраля 2016 07:08 Враг / Enemy (2013) WEB-DL 720p от CINEMANIA | L2, L1 .torrent   [Информация о файле (нажмите для просмотра)] Формат: MKVКачество: WEB-DL 720p[PHD]Видео: 3991 kb/s, 1280x532Аудио: Russian: [qwerty & R.A.I.M.]: AC3, 384 kb/s (6 ch) Russian: [ХиХиДок]: AC3, 192 kb/s (2 ch) English: AC3, 384 kb/s (6 ch)Субтитры: Russian[notabenoid], English Видео: Идентификатор : 1 Формат : AVC Формат/Информация : Advanced Video Codec Профиль формата : [email protected] Параметр CABAC формата : Нет Параметр ReFrames формата : 2 кадра Идентификатор кодека : V_MPEG4/ISO/AVC Продолжительность : 1 ч. 30 м. Битрейт : 3991 Кбит/сек Ширина : 1280 пикселей Высота : 532 пикселя Соотношение сторон : 2,40:1 Режим частоты кадров : Постоянный Частота кадров : 23,976 кадра/сек Цветовое пространство : YUV Субдискретизация насыщенности : 4:2:0 Битовая глубина : 8 бит Тип развёртки : Прогрессивная Бит/(Пиксели*Кадры) : 0.244 Размер потока : 2,53 Гбайт (79%) Заголовок : Release Group CINEMANIA Язык : English Default : Да Forced : Нет Основные цвета : BT.709 Характеристики трансфера : BT.709 Коэффициенты матрицы : BT.709 Аудио #1: Идентификатор : 2 Формат : AC-3 Формат/Информация : Audio Coding 3 Расширение режима : CM (complete main) Параметр Endianness формата : Big Идентификатор кодека : A_AC3 Продолжительность : 1 ч. 30 м. Вид битрейта : Постоянный Битрейт : 384 Кбит/сек Каналы : 6 каналов Расположение каналов : Front: L C R, Side: L R, LFE Частота : 48,0 КГц Битовая глубина : 16 бит Метод сжатия : С потерями Размер потока : 250 Мбайт (8%) Заголовок : qwerty & R.A.I.M. Язык : Russian Default : Да Forced : Да Аудио #2: Идентификатор : 3 Формат : AC-3 Формат/Информация : Audio Coding 3 Расширение режима : CM (complete main) Параметр Endianness формата : Big Идентификатор кодека : A_AC3 Продолжительность : 1 ч. 30 м. Вид битрейта : Постоянный Битрейт : 192 Кбит/сек Каналы : 2 канала Расположение каналов : Front: L R Частота : 48,0 КГц Битовая глубина : 16 бит Метод сжатия : С потерями Размер потока : 125 Мбайт (4%) Заголовок : ХиХиДок Язык : Russian Default : Нет Forced : Нет Аудио #3: Идентификатор : 4 Формат : AC-3 Формат/Информация : Audio Coding 3 Расширение режима : CM (complete main) Параметр Endianness формата : Big Идентификатор кодека : A_AC3 Продолжительность : 1 ч. 30 м. Вид битрейта : Постоянный Битрейт : 384 Кбит/сек Каналы : 6 каналов Расположение каналов : Front: L C R, Side: L R, LFE Частота : 48,0 КГц Битовая глубина : 16 бит Метод сжатия : С потерями Размер потока : 250 Мбайт (8%) Язык : English Default : Нет Forced : Нет 3,21 Gb 38 6

/ Enemy (2014) BDRip 720p |

: , , , . . , , ,

: BDRip 720p : Blu-ray: MKV : MPEG-4 AVC : AC3: AVC, 1280x534 (2.40:1 at 23.976 fps, AVC at 2256 kbps avg, 0.138 bit/pixel: Russian: 48 kHz; AC3 2.0; 384.00 kbps avg; , : , :

* * * MediaInfo Mac 0.7.33.4 file analysis report.* * * MediaInfo Mac is 2010 by Diego Massanti - http://mediainfo.massanti.com* * * MediaInfoLib by Jerome Martinez - http://mediainfo.sourceforge.netCreated on: 18.07.2014 12:05:34 Report for file: Enemy.2013.720p.BluRay.x264-LEONARDO_[scarabey.org].mkv

General / Container Stream #1Total Video Streams for this File.................1Total Audio Streams for this File.................1Total Subtitle Streams for this File..............2Video Codecs Used.................................AVCAudio Codecs Used.................................AC3SubTitle Codecs Used..............................UTF-8 / UTF-8Available Sutbitle Languages......................Russian /File Format.......................................MatroskaPlay Time.........................................1h 30mnTotal File Size...................................1.71 GiBTotal Stream BitRate..............................2 693 KbpsTitle (Tag).......................................-=LEONARDO=-Encoded with......................................mkvmerge v5.0.1 ('Es ist Sommer') built on Oct 23 2011 00:46:40Encoding Library..................................libebml v1.2.2 + libmatroska v1.3.0Video Stream #1Codec (Human Name)................................AVCCodec (FourCC)....................................V_MPEG4/ISO/AVCCodec [email protected]Frame Width.......................................1 280 pixelsFrame Height......................................534 pixelsFrame Rate........................................23.976 fpsTotal Frames......................................130729Display Aspect Ratio..............................2.40:1Scan Type.........................................ProgressiveColor Space.......................................YUVCodec Settings (Summary)..........................CABAC / 9 Ref FramesQF (like Gordian Knot)............................0.138Codec Settings (CABAC)............................YesCodec Settings (Reference Frames).................9Video Stream Length...............................1h 30mn 52s 494msVideo Stream BitRate..............................2 256 KbpsBit Depth.........................................8 bitsVideo Stream Size.................................1.43 GiB (84%)Video Encoder.....................................x264 - core 125 r2208 d9d2288Video Encoder (Settings)..........................cabac=1 / ref=9 / deblock=1:-1:-1 / analyse=0x3:0x133 / me=umh / subme=11 / psy=1 / psy_rd=1.00:0.20 / mixed_ref=1 / me_range=32 / chroma_me=1 / trellis=2 / 8x8dct=1 / cqm=0 / deadzone=21,11 / fast_pskip=0 / chroma_qp_offset=-3 / threads=12 / lookahead_threads=2 / sliced_threads=0 / nr=0 / decimate=1 / interlaced=0 / bluray_compat=0 / constrained_intra=0 / bframes=8 / b_pyramid=2 / b_adapt=2 / b_bias=0 / direct=1 / weightb=1 / open_gop=0 / weightp=2 / keyint=250 / keyint_min=23 / scenecut=40 / intra_refresh=0 / rc=crf / mbtree=0 / crf=19.0 / qcomp=0.60 / qpmin=0 / qpmax=69 / qpstep=4 / ip_ratio=1.10 / pb_ratio=1.10 / aq=1:1.00Audio Stream #1Codec.............................................AC-3Codec (FourCC)....................................A_AC3Audio Stream Length...............................1h 30mn 52s 489msAudio Stream BitRate..............................384 KbpsAudio Stream BitRate Mode.........................CBRNumber of Audio Channels..........................2Audio Channel's Positions.........................Front: L RSampling Rate.....................................48.0 KHzAudio Stream Size.................................250 MiB (14%)Audio Stream Title................................DUBAudio Stream Language.............................RussianSubtitle Stream #1Language..........................................RussianFormat............................................UTF-8Codec ID..........................................S_TEXT/UTF8Codec Info........................................UTF-8 Plain TextSubtitle Stream #2Format............................................UTF-8Codec ID..........................................S_TEXT/UTF8Codec Info........................................UTF-8 Plain TextMenu / Chapters Stream #1

filmtor.net


Смотрите также