Скачать виктор франкенштейн скачать торрент в хорошем качестве


Скачать фильм Виктор Франкенштейн через торрент в хорошем качестве бесплатно 1080p

ОбщееУникальный идентификатор : 170552564007849147782026166000878379264 (0x804F3AA07EF61E6889E30F4145E46100)Полное имя : F:\Vic.Frank.2O16.D.BDRip.1O8OP.mkvФормат : MatroskaВерсия формата : Version 2Размер файла : 10,2 ГбайтПродолжительность : 1 ч. 49 м.Общий поток : 13,3 Мбит/секДата кодирования : UTC 2016-02-25 19:54:12Программа кодирования : mkvmerge v8.3.0 ('Over the Horizon') 64bitБиблиотека кодирования : libebml v1.3.1 + libmatroska v1.4.2DURATION : 01:49:49.875000000NUMBER_OF_FRAMES : 157999NUMBER_OF_BYTES : 9389142216_STATISTICS_WRITING_APP : mkvmerge v8.3.0 ('Over the Horizon') 64bit_STATISTICS_WRITING_DATE_UTC : 2016-02-25 19:54:12_STATISTICS_TAGS : BPS DURATION NUMBER_OF_FRAMES NUMBER_OF_BYTES

ВидеоИдентификатор : 1Формат : AVCФормат/Информация : Advanced Video CodecПрофиль формата : [email protected]Параметр CABAC формата : ДаПараметр ReFrames формата : 2 кадраИдентификатор кодека : V_MPEG4/ISO/AVCПродолжительность : 1 ч. 49 м.Битрейт : 11,1 Мбит/секШирина : 1920 пикселейВысота : 800 пикселейСоотношение сторон : 2,40:1Режим частоты кадров : ПостоянныйЧастота кадров : 23,976 кадра/секЦветовое пространство : YUVСубдискретизация насыщенности : 4:2:0Битовая глубина : 8 битТип развёртки : ПрогрессивнаяБит/(Пиксели*Кадры) : 0.302Размер потока : 8,54 Гбайт (84%)Язык : EnglishDefault : НетForced : Нет

Аудио #1Идентификатор : 2Формат : AC-3Формат/Информация : Audio Coding 3Расширение режима : CM (complete main)Параметр Endianness формата : BigИдентификатор кодека : A_AC3Продолжительность : 1 ч. 49 м.Вид битрейта : ПостоянныйБитрейт : 384 Кбит/секКаналы : 6 каналовРасположение каналов : Front: L C R, Side: L R, LFEЧастота : 48,0 КГцБитовая глубина : 16 битМетод сжатия : С потерямиРазмер потока : 302 Мбайт (3%)Язык : RussianDefault : ДаForced : Нет

Аудио #2Идентификатор : 3Формат : DTSФормат/Информация : Digital Theater SystemsПрофиль формата : ESРежим : 16Параметр Endianness формата : BigИдентификатор кодека : A_DTSПродолжительность : 1 ч. 49 м.Вид битрейта : ПостоянныйБитрейт : 1509 Кбит/секКаналы : 6 каналовРасположение каналов : Front: L C R, Side: L R, LFEЧастота : 48,0 КГцБитовая глубина : 24 битМетод сжатия : С потерямиРазмер потока : 1,16 Гбайт (11%)Язык : EnglishDefault : НетForced : Нет

ТекстИдентификатор : 4Формат : UTF-8Идентификатор кодека : S_TEXT/UTF8Идентификатор кодека/Информация : UTF-8 Plain TextЯзык : EnglishDefault : НетForced : Нет

Меню00:00:00.000 : en:00:04:07.372 : en:00:08:06.903 : en:00:11:14.674 : en:00:15:20.377 : en:00:18:58.554 : en:00:22:27.262 : en:00:26:06.856 : en:00:28:59.237 : en:00:32:02.378 : en:00:36:01.450 : en:00:41:11.427 : en:00:46:17.691 : en:00:51:48.480 : en:00:56:42.690 : en:00:59:55.508 : en:01:02:37.587 : en:01:06:57.179 : en:01:11:25.197 : en:01:15:14.051 : en:01:18:10.352 : en:01:21:06.278 : en:01:25:20.490 : en:01:28:17.542 : en:01:33:35.276 : en:01:37:51.782 : en:01:41:32.920 : en:01:43:34.374 : en:

piratbit.ru

Скачать фильм Виктор Франкенштейн через торрент в хорошем качестве бесплатно 720p by mimok

ОбщееУникальный идентификатор : 183641165965425541086296422258351257484 (0x8A280086B590EABCA0A55286F943B78C)Полное имя : E:\Торренты\Victor Frankenstein 48fps.mkvФормат : MatroskaВерсия формата : Version 4 / Version 2Размер файла : 5,61 ГбайтПродолжительность : 1 ч. 49 м.Общий поток : 7313 Кбит/секНазвание фильма : Victor Frankenstein (2015) 1080p BD-RemuxДата кодирования : UTC 2016-03-03 07:33:27Программа кодирования : mkvmerge v6.9.1 ('Blue Panther') 64bit built on Apr 18 2014 18:23:38Библиотека кодирования : libebml v1.3.0 + libmatroska v1.4.1

ВидеоИдентификатор : 1Формат : AVCФормат/Информация : Advanced Video CodecПрофиль формата : [email protected]Параметр CABAC формата : ДаПараметр ReFrames формата : 6 кадровИдентификатор кодека : V_MPEG4/ISO/AVCПродолжительность : 1 ч. 49 м.Битрейт : 6783 Кбит/секШирина : 1280 пикселейВысота : 536 пикселейСоотношение сторон : 2,40:1Режим частоты кадров : ПостоянныйЧастота кадров : 47,952 (47952/1000) кадров/секЦветовое пространство : YUVСубдискретизация насыщенности : 4:2:0Битовая глубина : 8 битТип развёртки : ПрогрессивнаяБит/(Пиксели*Кадры) : 0.206Размер потока : 5,21 Гбайт (93%)Заголовок : Release by mimokБиблиотека кодирования : x264 core 130 r2273 b3065e6Настройки программы : cabac=1 / ref=6 / deblock=1:-1:-1 / analyse=0x3:0x133 / me=umh / subme=8 / psy=1 / psy_rd=1.00:0.15 / mixed_ref=1 / me_range=20 / chroma_me=1 / trellis=2 / 8x8dct=1 / cqm=0 / deadzone=21,11 / fast_pskip=0 / chroma_qp_offset=-3 / threads=6 / lookahead_threads=2 / sliced_threads=0 / nr=0 / decimate=0 / interlaced=0 / bluray_compat=0 / constrained_intra=0 / bframes=8 / b_pyramid=2 / b_adapt=2 / b_bias=0 / direct=1 / weightb=1 / open_gop=0 / weightp=2 / keyint=250 / keyint_min=25 / scenecut=40 / intra_refresh=0 / rc=crf / mbtree=0 / crf=18.0 / qcomp=0.63 / qpmin=10 / qpmax=51 / qpstep=4 / ip_ratio=1.40 / pb_ratio=1.30 / aq=2:1.20Default : ДаForced : Нет

АудиоИдентификатор : 2Формат : AC-3Формат/Информация : Audio Coding 3Расширение режима : CM (complete main)Параметр Endianness формата : BigИдентификатор кодека : A_AC3Продолжительность : 1 ч. 49 м.Вид битрейта : ПостоянныйБитрейт : 384 Кбит/секКаналы : 6 каналовРасположение каналов : Front: L C R, Side: L R, LFEЧастота : 48,0 КГцЧастота кадров : 31,250 кадров/сек (1536 spf)Метод сжатия : С потерямиРазмер потока : 302 Мбайт (5%)Заголовок : iTunes RussiaЯзык : RussianDefault : ДаForced : Нет

Текст #1Идентификатор : 3Формат : UTF-8Идентификатор кодека : S_TEXT/UTF8Идентификатор кодека/Информация : UTF-8 Plain TextЗаголовок : FullЯзык : RussianDefault : ДаForced : Нет

Текст #2Идентификатор : 4Формат : UTF-8Идентификатор кодека : S_TEXT/UTF8Идентификатор кодека/Информация : UTF-8 Plain TextЗаголовок : FullЯзык : EnglishDefault : НетForced : Нет

Текст #3Идентификатор : 5Формат : UTF-8Идентификатор кодека : S_TEXT/UTF8Идентификатор кодека/Информация : UTF-8 Plain TextЗаголовок : ForsedЯзык : RussianDefault : НетForced : Нет

piratbit.ru

Скачать фильм Виктор Франкенштейн через торрент в хорошем качестве бесплатно BDRip от Twi7ter

piratbit.ru

Раздают: 2 [ 0 KB/s ]
Размер: 1.41 GB | Добавлен: 1 год 7 мес. назад | Торрент скачан:553 раза
Реклама Дарим 3000 рублей за регистрацию, не упусти свой шанс получить шикарный бонус!!!

29-02-2016 11:52 Виктор Франкенштейн Скачать торрент  

Виктор Франкенштейн / Victor Frankenstein

«Монстр создал монстра»

Год выпуска: 2015Страна: СШАЖанр: ужасы, фантастика, драмаПродолжительность: 01:49:49Перевод: Профессиональный (полное дублирование) [iTunes]Субтитры: НетРежиссер: Пол МакГиган / Paul McGuiganВ ролях: Дэниэл Рэдклифф (Igor), Джессика Браун-Финдли (Lorelei), Бронсон Уэбб (Rafferty), Джеймс МакЭвой (Victor Frankenstein), Дэниэл Мейс (Barnaby), Спенсер Уидлинг (Nathaniel / Prometheus 2), Робин Пирс (Baron Bomine), Эндрю Скотт (Inspector Turpin), Каллум Тернер (Alistair), Ди Ботчер (Older Nun), Ив Понсонби (Orderly), Уилл Кин (Surgeon)Описание: Новый взгляд на фантастическую историю Виктора Франкенштейна, на этот раз - с точки зрения его помощника Игоря.Рейтинг:

MPAA: PG-13 - Детям до 13 лет просмотр не желателен

Качество: BDRip | исх. VICTOR_FRANKENSTEIN_REMUX_HDCLUB |Формат: AVIВидео кодек: XviDАудио кодек: AC3Видео: 720x304 (2.37:1), 23.976 fps, XviD build 73 ~1447 kbps avg, 0.28 bit/pixelАудио: 48 kHz, AC3 Dolby Digital, 3/2 (L,C,R,l,r) + LFE ch, ~384 kbps

Релиз:

Скачать Виктор Франкенштейн через торрент http://s020.radikal.ru/i700/1602/96/452795414146.png Скачать фильм Виктор Франкенштейн через торрент бесплантно в хорошем качестве Описание: Новый взгляд на фантастическую историю Виктора Франкенштейна, на этот раз - с точки зрения его помощника Игоря.Рейтинг: MPAA: ... 2016-02-29 11:52 8.9 10 14

Loading...

Loading...

% Раздел Тема Автор DL S | L
Фильмы 2015 [DVDrip, WEB-DLRip, HDrip] [ 2.92 GB ] Виктор Франкенштейн / Victor Frankenstein [2015 BDRip-AVC] Dub + Ukr + Sub Rus Ukr Eng + Original Eng Vitos03 Скачать
Фильмы 2015 [DVDrip, WEB-DLRip, HDrip] [ 2.17 GB ] Виктор Франкенштейн / Victor Frankenstein [2015 HDRip ""] coc900 Скачать
Фильмы 2015 [DVDrip, WEB-DLRip, HDrip] [ 1.46 GB ] Виктор Франкенштейн / Victor Frankenstein (2015 WEB-DLRip] Dub Twi7ter Скачать
Фильмы [HD 720p, 1080p] (Хороший звук DUB, MVO) [ 4.37 GB ] Виктор Франкенштейн / Victor Frankenstein [2015 BDRip 720p] DUB potroks Скачать
Фильмы (Blu-ray, BD-Remux, HDDVD) [ 45.74 GB ] Виктор Франкенштейн / Victor Frankenstein [2015 Blu-Ray EUR] DUB Russian Mafia Скачать
Фильмы 2015 [DVDrip, WEB-DLRip, HDrip] [ 744 MB ] Виктор Франкенштейн / Victor Frankenstein [2015 HDRip by _Один_777] Dub () Один 777 Скачать
Фильмы (Blu-ray, BD-Remux, HDDVD) [ 28.59 GB ] Виктор Франкенштейн / Victor Frankenstein [2015 BDRemux 1080p] DUB Russian Mafia Скачать

Рекламный пират

02-03-2016 16:47 Виктор Франкенштейн Скачать торрент  

Не интересное кино, муть.

Дорогой пользователь! Огромная просьба, поблагодарите релизера, оцените раздачу и оставьте свои комментарий, если Вы скачали Виктор Франкенштейн через торрент бесплатно! Внесите свою лепту в развитие PiratBit!

Комментировать посты могут только пользователи прошедшие не сложную регистрацию

Виктор Франкенштейн через торрент Скачать бесплатно Виктор Франкенштейн Виктор Франкенштейн скачать торрент Виктор Франкенштейн смотреть онлайн Cкачать фильм Виктор Франкенштейн бесплатно Виктор Франкенштейн скачать торрент в хорошем качестве Виктор Франкенштейн смотреть онлайн бесплатно в хорошем качестве

Вы не можете начинать темыВы не можете отвечать на сообщенияВы не можете редактировать свои сообщенияВы не можете удалять свои сообщенияВы не можете голосовать в опросахВы не можете прикреплять файлы к сообщениямВы можете скачивать файлы

Скачать фильм Виктор Франкенштейн через торрент в хорошем качестве бесплатно WEB-DLRip от Twi7ter

piratbit.ru

Раздают: 3 [ 0 KB/s ]
Размер: 1.46 GB | Добавлен: 1 год 8 мес. назад | Торрент скачан:2506 раз
Реклама Дарим 3000 рублей за регистрацию, не упусти свой шанс получить шикарный бонус!!!

20-02-2016 13:17 Виктор Франкенштейн Скачать торрент  

Виктор Франкенштейн / Victor Frankenstein

«Монстр создал монстра»

Год выпуска: 2015Страна: СШАЖанр: ужасы, фантастика, драмаПродолжительность: 01:50:24Перевод: Профессиональный (полное дублирование) [iTunes]Субтитры: НетРежиссер: Пол МакГиган / Paul McGuiganВ ролях: Дэниэл Рэдклифф (Igor), Джессика Браун-Финдли (Lorelei), Бронсон Уэбб (Rafferty), Джеймс МакЭвой (Victor Frankenstein), Дэниэл Мейс (Barnaby), Спенсер Уидлинг (Nathaniel / Prometheus 2), Робин Пирс (Baron Bomine), Эндрю Скотт (Inspector Turpin), Каллум Тернер (Alistair), Ди Ботчер (Older Nun), Ив Понсонби (Orderly), Уилл Кин (Surgeon)Описание: Новый взгляд на фантастическую историю Виктора Франкенштейна, на этот раз - с точки зрения его помощника Игоря.Рейтинг:

MPAA: PG-13 - Детям до 13 лет просмотр не желателен

Качество: WEB-DLRip | исх. WEB-DL 1080p |Формат: AVIВидео кодек: XviDАудио кодек: AC3Видео: 720x304 (2.37:1), 23.976 fps, XviD build 73 ~1499 kbps avg, 0.28 bit/pixelАудио: 48 kHz, AC3 Dolby Digital, 3/2 (L,C,R,l,r) + LFE ch, ~384 kbps

Релиз:

Скачать Виктор Франкенштейн через торрент http://s020.radikal.ru/i721/1602/4e/a7bc4f0e7e80.png Скачать фильм Виктор Франкенштейн через торрент бесплантно в хорошем качестве Описание: Новый взгляд на фантастическую историю Виктора Франкенштейна, на этот раз - с точки зрения его помощника Игоря.Рейтинг: MPAA: ... 2016-02-20 13:17 9.5 10 72

Loading...

Loading...

Рекламный пират

20-02-2016 13:24 Виктор Франкенштейн Скачать торрент  

Отзывы в среднем не плохие, а вот на кинопоиске рейтинг довольно мал. Кому же верить? )Не показывайте этот фильм своей девушке, иначе она может начать красить брови над бровями, как на 3 скрине

20-02-2016 13:25 Виктор Франкенштейн Скачать торрент  

Спасибо, давно ждал!

20-02-2016 14:22 Виктор Франкенштейн Скачать торрент  

норм фильм рекомендую к просмотру

20-02-2016 17:42 Виктор Франкенштейн Скачать торрент  

нахера выкладывать если раздать неможеш,полтора часа полраздачи скачано.

20-02-2016 17:48 Виктор Франкенштейн Скачать торрент  

Где скорость?!

20-02-2016 19:05 Виктор Франкенштейн Скачать торрент  

MeZoNeT9 писал(а):

Отзывы в среднем не плохие, а вот на кинопоиске рейтинг довольно мал. Кому же верить? )Не показывайте этот фильм своей девушке, иначе она может начать красить брови над бровями, как на 3 скрине верь мне и скорости дайте! Фильм хорош!!!!!!!!!!!!!!!!!!!!!!!!!!!!!!!!!

20-02-2016 19:10 Виктор Франкенштейн Скачать торрент  

20-02-2016 19:38 Виктор Франкенштейн Скачать торрент  

vasilevz писал(а):

24кб сек)

держите)

Pекламный агент PB

21-02-2016 05:10 Виктор Франкенштейн Скачать торрент  

Неплохое кино вечерок скоротать самое то)

22-02-2016 13:25 Виктор Франкенштейн Скачать торрент  

Фильм и не плохой,и не хороший.Просто ничего нового вы не увидите!Посмотрел и понял,что сто раз это уже видел.Смотреть только тем наверное нужно,кто вообще не знает кто такой Франкенштейн.

23-02-2016 07:50 Виктор Франкенштейн Скачать торрент  

Самый скучный фильм, который я видел за 2015 год! Но это моё личное мнение.

23-02-2016 12:50 Виктор Франкенштейн Скачать торрент  

ерунда а не фильм...

23-02-2016 18:13 Виктор Франкенштейн Скачать торрент  

"самый скучный фильм", "ерунда а не фильм", "ничего нового" - а что вы ждали от фильма про франкенштейна ? что он будет про Золушку?

26-02-2016 11:13 Виктор Франкенштейн Скачать торрент  

14-03-2016 03:44 Виктор Франкенштейн Скачать торрент  

Гарри Поттер и Франкенштейн часть восьмая

Дорогой пользователь! Огромная просьба, поблагодарите релизера, оцените раздачу и оставьте свои комментарий, если Вы скачали Виктор Франкенштейн через торрент бесплатно! Внесите свою лепту в развитие PiratBit!

Комментировать посты могут только пользователи прошедшие не сложную регистрацию

Виктор Франкенштейн через торрент Скачать бесплатно Виктор Франкенштейн Виктор Франкенштейн скачать торрент Виктор Франкенштейн смотреть онлайн Cкачать фильм Виктор Франкенштейн бесплатно Виктор Франкенштейн скачать торрент в хорошем качестве Виктор Франкенштейн смотреть онлайн бесплатно в хорошем качестве

Вы не можете начинать темыВы не можете отвечать на сообщенияВы не можете редактировать свои сообщенияВы не можете удалять свои сообщенияВы не можете голосовать в опросахВы не можете прикреплять файлы к сообщениямВы можете скачивать файлы

Скачать фильм Виктор Франкенштейн через торрент в хорошем качестве бесплатно BDRip-AVC от potroks

Общее Уникальный идентификатор : 242917572389874382930571365815098131225 (0xB6C03900CB06BC23B46C7B43FBC1C319) Полное имя : Viktor.Frankenshteyn.2015.RUS.BDRip.x264.-HELLYWOOD.mkv Формат : Matroska Версия формата : Version 4 / Version 2 Размер файла : 1,41 Гбайт Продолжительность : 1 ч. 49 м. Общий поток : 1840 Кбит/сек Название фильма : Victor Frankenstein (2015) - HELLYWOOD Дата кодирования : UTC 2016-02-28 05:01:01 Программа кодирования : mkvmerge v5.9.0 ('On The Loose') built on Dec 15 2012 16:39:58 Библиотека кодирования : libebml v1.3.0 + libmatroska v1.4.0

Видео Идентификатор : 1 Формат : AVC Формат/Информация : Advanced Video Codec Профиль формата : [email protected] Параметр CABAC формата : Да Параметр ReFrames формата : 12 кадров Идентификатор кодека : V_MPEG4/ISO/AVC Продолжительность : 1 ч. 49 м. Битрейт : 1456 Кбит/сек Ширина : 1008 пикселей Высота : 420 пикселей Соотношение сторон : 2,40:1 Режим частоты кадров : Постоянный Частота кадров : 23,976 кадра/сек Цветовое пространство : YUV Субдискретизация насыщенности : 4:2:0 Битовая глубина : 8 бит Тип развёртки : Прогрессивная Бит/(Пиксели*Кадры) : 0.143 Размер потока : 1,09 Гбайт (77%) Заголовок : potroks Библиотека кодирования : x264 core 148 r2665M a01e339 Настройки программы : cabac=1 / ref=12 / deblock=1:-2:-2 / analyse=0x3:0x133 / me=umh / subme=11 / psy=1 / psy_rd=1.00:0.10 / mixed_ref=1 / me_range=48 / chroma_me=1 / trellis=2 / 8x8dct=1 / cqm=0 / deadzone=21,11 / fast_pskip=0 / chroma_qp_offset=-3 / threads=9 / lookahead_threads=2 / sliced_threads=0 / nr=0 / decimate=1 / interlaced=0 / bluray_compat=0 / constrained_intra=0 / bframes=13 / b_pyramid=2 / b_adapt=2 / b_bias=0 / direct=3 / weightb=1 / open_gop=0 / weightp=2 / keyint=240 / keyint_min=23 / scenecut=40 / intra_refresh=0 / rc=2pass / mbtree=0 / bitrate=1456 / ratetol=1.0 / qcomp=0.70 / qpmin=0 / qpmax=69 / qpstep=4 / cplxblur=20.0 / qblur=0.5 / ip_ratio=1.40 / pb_ratio=1.30 / aq=1:0.80 Язык : English Default : Да Forced : Нет

Аудио Идентификатор : 2 Формат : AC-3 Формат/Информация : Audio Coding 3 Расширение режима : CM (complete main) Параметр Endianness формата : Big Идентификатор кодека : A_AC3 Продолжительность : 1 ч. 49 м. Вид битрейта : Постоянный Битрейт : 384 Кбит/сек Каналы : 6 каналов Расположение каналов : Front: L C R, Side: L R, LFE Частота : 48,0 КГц Метод сжатия : С потерями Размер потока : 302 Мбайт (21%) Заголовок : Dub | DD 5.1 @ 384 kbps - iTunes Язык : Russian Default : Да Forced : Нет

Текст #1 Идентификатор : 3 Формат : UTF-8 Идентификатор кодека : S_TEXT/UTF8 Идентификатор кодека/Информация : UTF-8 Plain Text Заголовок : Forced [potroks] Язык : Russian Default : Да Forced : Нет

Текст #2 Идентификатор : 4 Формат : UTF-8 Идентификатор кодека : S_TEXT/UTF8 Идентификатор кодека/Информация : UTF-8 Plain Text Заголовок : Forced [iTunes] Язык : Russian Default : Нет Forced : Нет

Текст #3 Идентификатор : 5 Формат : UTF-8 Идентификатор кодека : S_TEXT/UTF8 Идентификатор кодека/Информация : UTF-8 Plain Text Заголовок : iTunes Язык : Russian Default : Нет Forced : Нет

Меню 00:00:00.000 : en:(01)00:00:00:000 00:04:07.372 : en:(02)00:04:07:372 00:08:06.903 : en:(03)00:08:06:903 00:11:14.673 : en:(04)00:11:14:673 00:15:20.376 : en:(05)00:15:20:376 00:18:58.554 : en:(06)00:18:58:554 00:22:27.261 : en:(07)00:22:27:261 00:26:06.855 : en:(08)00:26:06:855 00:28:59.237 : en:(09)00:28:59:237 00:32:02.377 : en:(10)00:32:02:377 00:36:01.449 : en:(11)00:36:01:449 00:41:11.427 : en:(12)00:41:11:427 00:46:17.690 : en:(13)00:46:17:690 00:51:48.480 : en:(14)00:51:48:480 00:56:42.690 : en:(15)00:56:42:690 00:59:55.507 : en:(16)00:59:55:507 01:02:37.586 : en:(17)01:02:37:586 01:06:57.179 : en:(18)01:06:57:179 01:11:25.197 : en:(19)01:11:25:197 01:15:14.051 : en:(20)01:15:14:051 01:18:10.350 : en:(21)01:18:10:350 01:21:06.278 : en:(22)01:21:06:278 01:25:20.488 : en:(23)01:25:20:488 01:28:17.542 : en:(24)01:28:17:542 01:33:35.274 : en:(25)01:33:35:274 01:37:51.782 : en:(26)01:37:51:782 01:41:32.920 : en:(27)01:41:32:920 01:43:34.373 : en:(28)01:43:34:373 01:49:49.623 : en:(29)01:49:49:623

piratbit.ru


Смотрите также