Скачать великий гэтсби бесплатно в хорошем качестве через торрент бесплатно


Великий Гэтсби (2013) (The Great Gatsby)

Ядовитая пыль, вздымающаяся вокруг непорочной мечты

Фрэнсис Скотт Фицджеральд - один из интереснейших американских пистателей XX века, чьи книги всегда автробиографичны. Устами своего героя Эмори Блейна из раннего романа "По эту сторону рая" (1920 г.), он первый объявил, что пришло поколение, для которого "все боги умерли, все войны отгремели, всякая вера подорвана". (с) Поколение, "заражённое страхом перед бедностью и поклонением успеху". (с) И именно ему принадлежит знаменитая формула "век джаза" с его льющимся реками алкоголем, мельтешением баров, ресторанов, лиц; беззаботным весельем и прожиганием жизни.

В 1925 году был написан его самый знаменитый роман - "Великий Гэтсби". До финансового краха ещё есть время и век джаза шумит и гуляет в нём в полную свою силу. Короткая, но ёмкая история, разлинованная на диалоги, роскошь и скуку, смысл в которой прячется между строк. Баз Лурман, известный своей любовью к фантасмагории и мишуре (Ромео + Джульетта, Австралия, Мулен Руж), на мой взгляд довольно успешно экранизировал Фицджеральда и попутно снял свой лучший фильм. При карнавальном подходе Лурмана, Фицджеральда с его любовью к огранённым, отчеканенным разговорам и внутренней нервной, напряжённой силе и не узнать. Однако в плюсах у фильма другое - прекрасно переданное настроение вечной вечеринки, благодаря которому эта экспериментальная экранизация довольно обаятельна. Золотая молодёжь и сливки общества 20-х, времени веселья, зажигают под современные ритмы пати-музыки, а классическая сюжетная линия подана в очень глянцевом обрамлении. Макияж, одежда, антураж... Двадцатый век, приправленный двадцать первым создаёт некую преемственность, как ни странно. Под рэп тогда никто не танцевал, ясное дело, но танцуют сейчас - и от этого яснее, прозрачнее идея предостережения.

Хотя за кадром неизбежно остались тонкие характеристики и мелкие детали, но события и персонажи прорисованы в фильме, нужно отметить, весьма скрупулёзно. Если по тексту в эпизоде первого визита Ника к Бьюкененам "Окна были распахнуты и сверкали белизной на фоне зелени, как будто враставшей в дом. Лёгкий ветерок гулял по комнате, трепля занавеси на окнах, развевавшиеся, точно бледные флаги...", - то именно это мы и видим на экране. Если в тексте упомянут небольшой, на пару предложений эпизод: " На Блэквелс-Айленд нам повстречался лимузин, которым правил белый шофёр, а сзади сидело трое расфранченных негров, два парня и девица..."Теперь всё может быть, - подумал я..." (с), то вуаля! Лурман обрисовывает и его, правда щедро сдобрив в добавок ящиком с шампанским на переднем сиденье.

Центральных персонажей довольно мало: все они зарисовки с натуры, герои своего времени. Баснословно богатый Том, сорящий деньгами, надменный, недалёкий. Всё в жизни ему досталось готовым и любого, не обладающего родословной и истинной аристократичностью он считает за пыль. Джордан Бейкер, даже за обеденный стол садящаяся с таким видом, "словно она укладывалась в постель", пресыщенная, бесчестная. Дэзи, красавица Дэзи, та которую полюбил Гэтсби; выбравшая надёжность и обеспеченность, ставшая такой же "многоопытной и разочарованной" как и все. Гэтсби - променявший жизнь и честолюбивые замыслы на мечту и воспоминание. На мечту о любви.

Заработавший миллионы махинациями, купивший роскошный дом, устраивающий размашистые приёмы, всё, всё ради одной - единственной цели: чтобы Она увидела, оценила. На его виллу приезжали сотни людей, без приглашения, просто так, чтобы смахнуть ещё одну ночь жизни в небытие, пить его шампанское и обсуждать его тёмное прошлое. В этих судорожных вечеринках отражается джазовое веселье, в этом пустом, беспечном смехе гостей - усталость от отсутствия устремлений. И тем резче, суровее на фоне этого смеха контраст между Гэтсби показным - с его заученными манерами, вычурным аристократизмом, пышными фразами и Гэтсби истинным, одиноким, протягивающим руку к зелёному огоньку на причале.

В этой любви есть печаль, трагизм и мимолётность падающей звезды. Он ждал пять лет и испугался встречи, которую сам устроил - в гостях у Ника. Он ждал пять лет, и ошеломлённый присутствием Дэзи из плоти и крови, заново оценивал каждую вещь, на которую та смотрела. Он ждал пять лет, а женщина из реальности не совпала с женщиной из мечты.

"Они были беспечными существами, Том и Дэзи, они ломали вещи и людей, а потом убегали и прятались за свои деньги, свою всепоглощающую беспечность..." (с)

Дэзи осталась с мужем. Будущее рухнуло. Зелёный огонёк погас. Осталась лишь надежда - она позвонит, она непременно позвонит; надежда, которую он не мог трезво прогнать до самого последнего момента. Одинокий в жизни, одинокий в смерти. У Гэтсби радовались сотни, но на похороны не явился ни один. А он улыбался толпе бездушных, не способных мечтать, улыбался в дни веселья, улыбался и скрывал от них глубоко внутри свою непорочную мечту...

www.fast-torrent.ru

Скачать фильм Великий Гэтсби через торрент в хорошем качестве бесплатно HDRip

piratbit.ru

Размер: 1.45 GB | Добавлен: 3 года 10 мес. назад | Торрент скачан:3114 раз
Реклама Дарим 3000 рублей за регистрацию, не упусти свой шанс получить шикарный бонус!!!

25-08-2013 22:33 Великий Гэтсби Скачать торрент  

Великий Гэтсби / The Great Gatsby«Нельзя вернуть прошлое? Ну, конечно, можно!»
  • Год выпуска:2013
  • Страна:Австралия, США
  • Жанр:драма, мелодрама
  • Продолжительность: 02:22:05
  • Перевод:Профессиональный (полное дублирование)- iTunes Russia
  • Субтитры: Нет
    • Режиссер:Баз Лурман / Baz Luhrmann
    • Сценарий: Баз Лурман / Baz Luhrmann, Крэйг Пирс / Craig Pearce, Фрэнсис Скотт Фицджеральд / Francis Scott Fitzgerald
    • Продюсер: Люси Фишер / Lucy Fisher, Катрин Нэпман / Catherine Knapman, Баз Лурман / Baz Luhrmann, Катрин Мартин / Catherine Martin, Дуглас Уик / Douglas Wick
  • В ролях:Леонардо ДиКаприо (Jay Gatsby), Тоби Магуайр (Nick Carraway), Кэри Маллиган (Daisy Buchanan), Джоэл Эдгертон (Tom Buchanan), Айла Фишер (Myrtle Wilson), Джейсон Кларк (George Wilson), Элизабет Дебики (Jordan Baker), Каллэн МакОлифф (Teen Jay Gatsby), Джек Томпсон (Dr. Walter Perkins), Амитабх Баччан (Meyer Wolfsheim), Стив Бисли (Dan Cody), Ричард Картер (Herzog)
    • Описание:Весной 1922 года, в эпоху разлагающейся морали, блистательного джаза и «королей контрабандного алкоголя», Ник Каррауэй приезжает из Среднего Запада в Нью-Йорк. Преследуя собственную американскую мечту, он селится по соседству с таинственным, известным своими вечеринками миллионером Джеем Гэтсби, а на противоположном берегу бухты проживают его кузина Дэйзи и её муж, повеса и аристократ, Том Бьюкенен. Так Ник оказывается вовлечённым в захватывающий мир богатых - их иллюзий, любви и обманов. Он становится свидетелем происходящего в этом мире и пишет историю невозможной любви, вечных мечтаний и человеческой трагедии, которые являются отражением современных времен и нравов.
  • Рейтингkinopoisk.ru: 8.235 (60 264)imdb.com: 7.40 (104 171)MPAA: PG-13 - Детям до 13 лет просмотр не желателен
    • Качество:HDRip
    • Формат:AVI
    • Видео кодек: XviD
    • Аудио кодек:AC3
    • Видео: XviD, 720x304 (2.35:1), 1262 kbps, 23,976 fps, 0,241 bpp
    • Аудио: AC3 / 2.0 / 48 kHz / 192 kbps / 16 bit
    GeneralComplete name : D:ТорентыVelikiy.Getsby.2013_HDRip_dub_.aviFormat : AVIFormat/Info : Audio Video InterleaveFile size : 1.45 GiBDuration : 2h 22mnOverall bit rate : 1 464 KbpsWriting application : VirtualDubMod 1.5.10.2 (build 2540/release)Writing library : VirtualDubMod build 2540/release

    VideoID : 0Format : MPEG-4 VisualFormat profile : Advanced [email protected] settings, BVOP : 1Format settings, QPel : NoFormat settings, GMC : No warppointsFormat settings, Matrix : CustomCodec ID : XVIDCodec ID/Hint : XviDDuration : 2h 22mnBit rate : 1 262 KbpsWidth : 720 pixelsHeight : 304 pixelsDisplay aspect ratio : 2.35:1Frame rate : 23.976 fpsColor space : YUVChroma subsampling : 4:2:0Bit depth : 8 bitsScan type : ProgressiveCompression mode : LossyBits/(Pixel*Frame) : 0.241Stream size : 1.25 GiB (86%)Writing library : XviD 1.2.1 (UTC 2008-12-04)

    AudioID : 1Format : AC-3Format/Info : Audio Coding 3Mode extension : CM (complete main)Codec ID : 2000Duration : 2h 22mnBit rate mode : ConstantBit rate : 192 KbpsChannel(s) : 2 channelsChannel positions : Front: L RSampling rate : 48.0 KHzBit depth : 16 bitsCompression mode : LossyStream size : 195 MiB (13%)Alignment : Split accross interleavesInterleave, duration : 42 ms (1.00 video frame)Interleave, preload duration : 500 ms

    • Фильм снят по мотивам романа Фрэнсиса Скотта Фицджеральда «Великий Гэтсби» (The Great Gatsby, 1925).
    • Кэри Маллиган была на церемонии Fashion Awards, когда ей позвонил Баз Лурман и сообщил, что ее взяли на роль Дэйзи Бьюкенен. Актриса рассказала, что после этого звонка она разрыдалась, находясь прямо в центре комнаты с Карлом Лагерфельдом, а стоящие вокруг люди смотрели на нее как на ненормальную.
    • Ходили слухи, что роль Джордан Бейкер сыграет Хейли Этвелл.
    • Аманда Сайфред, Ребекка Холл, Рэйчел МакАдамс, Кира Найтли, Блейк Лайвли, Эбби Корниш, Мишель Уильямс, Натали Портман, Ева Грин, Энн Хэтэуэй, Оливия Уайлд, Джессика Альба и Скарлетт Йоханссон рассматривались на роль Дэйзи Бьюкенен.
    • Бен Аффлек рассматривался на роль Тома Бьюкенена, но из-за разногласий в расписании вынужден был отказаться. Также на эту роль рассматривались Люк Эванс и Брэдли Купер. Но в итоге роль досталась Джоэлу Эдгертону.
    • Леонардо ДиКаприо хотел сыграть Гэтсби, потому что ему понравилась «идея человека, который был абсолютно ничем, и создал себя, отталкиваясь только от собственного воображения». «Гэтсби - один из знаковых персонажей, потому что он может быть интерпретирован по-разному: безнадежный романтик, одержимый сумасшедший или опасный гангстер, цепляющийся за богатство» - говорит ДиКаприо.
    • Леонардо ДиКаприо и Тоби Магуайр на самом деле друзья с детства. И это первый раз, когда они появились вместе на экране после выхода фильма «Кафе «Донс Плам»» (2000).
    • Работа над фильмом была приостановлена, когда режиссер Баз Лурман получил сильный удар по голове движущимся операторским краном. В итоге ему наложили три шва.
    • Первоначально выход фильма был запланирован на декабрь 2012 года, затем дата сместилась на июль 2013-го и в итоге была перенесена на май 2013 года.
    • В фильме есть несколько упоминаний «заостренных воротников» (Arrow Collars). Этот вид съемных воротников рубашки являлся широко распространенным аксессуаром мужской одежды в начале 1920-х, и модели с такими воротниками снимались в очень успешной и популярной рекламной кампании.
    • Подлинные автомобили Duesenberg слишком редкие и ценные, чтобы использовать их для экшн-сцен вождения (модель Duesenberg SJ кабриолет купе в марте 2013 года была продана на аукционе за $ 4,5 миллиона). Две копии Duesenberg Model J были окрашены в желтый цвет и модифицированы, чтобы соответствовать друг другу на съемках.
    • Том упоминает Капайолани и Пунчбоул в ключевой сцене с Дейзи. Парк Капайолани находится на гавайском острове Оаху, между Вайкики и Даймонд-Хед. Пунчбоульский кратер расположен в 6 милях к северо-западу от него.
    • Картину с изображением Зельды Фицджеральд можно заметить на стене в квартире, где живут Том с Миртл.
    • Режиссер фильма Баз Лурман сыграл в фильме роль камео - официант в ресторане, в котором встречались Ник Каррауэй и Джордан Бейкер.
    • Фильм снят с помощью камеры RED Epic.
    • еще 12 фактов
    • Когда Гэтсби в Луисвилле у дома Дейзи, в первых кадрах у него две орденских ленты на груди, в последующих кадрах этих лент нет. Помимо того одна из лент - это награда за победу в Первой мировой войне, и очевидно, что эта сцена была до того, как Гэтсби отправился во Францию, а значит он никак не мог носить эту ленту в то время.
    • События разворачиваются в 1922 году, но желтый автомобиль Гэтсби - это Duesenberg Model J 1929 года.
    • «Французский» телефон в сцене, где герои говорят о навязчивом нежелательном госте, звонившем Тому, не был изобретен до середины 30-х годов. В 1922 году все еще нужно было держать в одной руке подсвечникообразный телефон и говорить в микрофон, прижимая наушник к уху.
    • Когда Дэйзи представляют Гэтсби в коттедже Ника, Гэтсби пробирается через заднюю дверь и выходит через переднюю насквозь промокший под дождем. Однако далее за время непродолжительного разговора Гэтсби полностью высохнет.
    • Гэтсби встречает Дэйзи в коттедже Ника в 4 часа вечера. Позже они смотрят на воду у дома Дэйзи в Ист Эгге, и солнце только всходит над ним, что могло бы произойти только в первой половине дня.
    • Тенор-саксофонист на вечеринке в особняке Гэтсби держит саксофон неправильно. Правильно держать саксофон - левой рукой в верхней части, а правой в нижней. В фильме все наоборот.
    • Рапсодия в стиле блюз Джорджа Гершвина звучит, когда входит Гэтсби, и это происходит в 1922 году. На самом деле это музыкальное произведение появилось только в январе 1924, а впервые было исполнено автором 12 февраля 1924 в сопровождении оркестра Пола Уайтмана.
    • В некоторых общих кадрах Манхэттена показывают Крайслер-билдинг и Эмпайр Стейт Билдинг еще в процессе строительства. Действие фильма разворачивается в 1922 году. Строительство Крайслер-билдинг началось в 1928 году, а Эмпайр Стейт Билдинг в 1930.
    • еще 5 ошибок
    © Оформление by VetalЗа постер и лого спасибо КЕП
  • Скачать Великий Гэтсби через торрент http://i2.imageban.ru/out/2013/08/15/2f3b10eb535e339dc608f407abd935b4.png Скачать фильм Великий Гэтсби через торрент бесплантно в хорошем качестве Описание:Весной 1922 года, в эпоху разлагающейся морали, блистательного джаза и «королей контрабандного алкоголя», Ник Каррауэй приезжает ... 2013-12-08 21:30 9.6 10 154

    Loading...

    Loading...

    Последний раз редактировалось: Ворон (2013-09-03 16:34), всего редактировалось 1 раз

    Рекламный пират

    26-08-2013 09:23 Великий Гэтсби Скачать торрент  

    Отличный фильм, масштабный! Спасибо!

    26-08-2013 09:38 Великий Гэтсби Скачать торрент  

    скрины стремные

    26-08-2013 19:46 Великий Гэтсби Скачать торрент  

    В чем прикол этой раздачи?

    27-08-2013 11:53 Великий Гэтсби Скачать торрент  

    Фильм хороший но второй раз смотреть не буду

    27-08-2013 13:48 Великий Гэтсби Скачать торрент  

    27-08-2013 20:08 Великий Гэтсби Скачать торрент  

    Блин, не одного фильма с дикаприо не пропустил, очень уважаю как актера, но вот че-го же мне не хочется этот смотреть. Совсем не хочется видеть сопли и слюни. Но может там не так ? кто смотрел, на что похоже ?

    28-08-2013 01:49 Великий Гэтсби Скачать торрент  

    Да суперский фильм!9 из 10!!!

    28-08-2013 05:09 Великий Гэтсби Скачать торрент  

    Фильм Супер!!!! Смотреть Всем!!!! Не пожалеете!

    Pекламный агент PB

    28-08-2013 12:58 Великий Гэтсби Скачать торрент  

    Jeck2000как видишь, уже кое-кто кроме меня назвали фильм хорошим. Не люблю идеализировать, но фильм выдающийся, стал моим любимым наряду еще с одним, а за свою жизнь я пересмотрел огроооооомное кол-во фильмов. Пример: в кино в моем городе фильм шел два месяца, я пошел спустя 1,5 месяца после премьеры, сеанс был в воскресенье в 22:30 - зал был забитым!К слову, единственный фильм, на который я почти дважды сходил в кино

    28-08-2013 15:57 Великий Гэтсби Скачать торрент  

    Актеры музыка костюмы операторская работа 10 из 10 а о чем фильм так и не понял если только о мужской дружбе Второй раз смотреть не стану лучше второй раз посмотреть Титаник или Знакомтесь Джо Блэк фильмы на порядок выше и девчонки поплакать смогут

    28-08-2013 21:39 Великий Гэтсби Скачать торрент  

    Шикарный фильм , про одержимого дурака и поганую тварь.

    29-08-2013 16:12 Великий Гэтсби Скачать торрент  

    мне понравился!очень долго не хотел смотреть! но нечего было смотреть и включил, и не пожелел. классный фильм!советую

    30-08-2013 12:10 Великий Гэтсби Скачать торрент  

    даешь диКаприо на роль Леона Кеннеди!!!

    01-09-2013 12:49 Великий Гэтсби Скачать торрент  

    А какой красивый главный саундтрек...лана дел....

    01-09-2013 17:53 Великий Гэтсби Скачать торрент  

    Да! Фильм стоит внимания. Такое сильное намерение стать выше, что бы любить, но в итоге потерять все от своей слепости. Девушка как всегда наивна и запутана в себе, что не может понять, вернуть ей юность или держаться за благо в высоком чине. Эпичный роман) Советую смотреть с девушкой :ad:

    02-09-2013 17:21 Великий Гэтсби Скачать торрент  

    Полтора часа извините на больше меня ни хватило-редкое......

    Pекламный агент PB

    06-09-2013 13:11 Великий Гэтсби Скачать торрент  

    Очень хороший , глубокий фильм - рекомендую для просмотра!

    06-09-2013 21:55 Великий Гэтсби Скачать торрент  

    kapernik77 писал(а):

    Полтора часа извините на больше меня ни хватило-редкое......

    Судя по Вашей орфографии , этот фильм не для Вас. Не доросли Вы до него.

    08-12-2013 21:46 Великий Гэтсби Скачать торрент  

    Фильмак суперский , смотрите не пожалеете. Спасибо !

    09-12-2013 07:55 Великий Гэтсби Скачать торрент  

    что странно-актер нам с супругой никогда не нравился-ни в пляже-ни в титанике-слащавый-фигура елочкой-неприятный какойто-но этот фильм-очень яркий-очень хорош-все в восторге

    Дорогой пользователь! Огромная просьба, поблагодарите релизера, оцените раздачу и оставьте свои комментарий, если Вы скачали Великий Гэтсби через торрент бесплатно! Внесите свою лепту в развитие PiratBit!

    Комментировать посты могут только пользователи прошедшие не сложную регистрацию

    Великий Гэтсби через торрент Скачать бесплатно Великий Гэтсби Великий Гэтсби скачать торрент Великий Гэтсби смотреть онлайн Cкачать фильм Великий Гэтсби бесплатно Великий Гэтсби скачать торрент в хорошем качестве Великий Гэтсби смотреть онлайн бесплатно в хорошем качестве

    Вы не можете начинать темыВы не можете отвечать на сообщенияВы не можете редактировать свои сообщенияВы не можете удалять свои сообщенияВы не можете голосовать в опросахВы не можете прикреплять файлы к сообщениямВы можете скачивать файлы

    Скачать фильм Великий Гэтсби через торрент в хорошем качестве бесплатно HDRip

    piratbit.ru

    Размер: 2.18 GB | Добавлен: 3 года 8 мес. назад | Торрент скачан:2110 раз
    Реклама Дарим 3000 рублей за регистрацию, не упусти свой шанс получить шикарный бонус!!!

    07-09-2013 10:02 Великий Гэтсби Скачать торрент  

    Великий Гэтсби / The Great Gatsby«Нельзя вернуть прошлое? Ну, конечно, можно!»
  • Год выпуска:2013
  • Страна:Австралия, США
  • Жанр:драма, мелодрама
  • Продолжительность: 02:22:05
  • Перевод:Профессиональный (полное дублирование)[Лицензия]
  • Субтитры: Нет
    • Режиссер:Баз Лурман / Baz Luhrmann
    • Сценарий: Баз Лурман / Baz Luhrmann, Крэйг Пирс / Craig Pearce, Фрэнсис Скотт Фицджеральд / Francis Scott Fitzgerald
    • Продюсер: Люси Фишер / Lucy Fisher, Катрин Нэпман / Catherine Knapman, Баз Лурман / Baz Luhrmann, Катрин Мартин / Catherine Martin, Дуглас Уик / Douglas Wick
  • В ролях:Леонардо ДиКаприо (Jay Gatsby), Тоби Магуайр (Nick Carraway), Кэри Маллиган (Daisy Buchanan), Джоэл Эдгертон (Tom Buchanan), Айла Фишер (Myrtle Wilson), Джейсон Кларк (George Wilson), Элизабет Дебики (Jordan Baker), Каллэн МакОлифф (Teen Jay Gatsby), Джек Томпсон (Dr. Walter Perkins), Амитабх Баччан (Meyer Wolfsheim), Стив Бисли (Dan Cody), Ричард Картер (Herzog)
    • Описание:Весной 1922 года, в эпоху разлагающейся морали, блистательного джаза и «королей контрабандного алкоголя», Ник Каррауэй приезжает из Среднего Запада в Нью-Йорк. Преследуя собственную американскую мечту, он селится по соседству с таинственным, известным своими вечеринками миллионером Джеем Гэтсби, а на противоположном берегу бухты проживают его кузина Дэйзи и её муж, повеса и аристократ, Том Бьюкенен. Так Ник оказывается вовлечённым в захватывающий мир богатых - их иллюзий, любви и обманов. Он становится свидетелем происходящего в этом мире и пишет историю невозможной любви, вечных мечтаний и человеческой трагедии, которые являются отражением современных времен и нравов.
  • Рейтингkinopoisk.ru: 8.235 (60 264)imdb.com: 7.40 (104 171)MPAA: PG-13 - Детям до 13 лет просмотр не желателен
    • Качество:HDRip
    • Формат:AVI
    • Видео кодек: XviD
    • Аудио кодек:AC3
    • Видео: XviD, 720x304, 23.976 fps, 1734 kbps
    • Аудио: AC3, 48 kHz, 6 ch, 448 kbps
    • Фильм снят по мотивам романа Фрэнсиса Скотта Фицджеральда «Великий Гэтсби» (The Great Gatsby, 1925).
    • Кэри Маллиган была на церемонии Fashion Awards, когда ей позвонил Баз Лурман и сообщил, что ее взяли на роль Дэйзи Бьюкенен. Актриса рассказала, что после этого звонка она разрыдалась, находясь прямо в центре комнаты с Карлом Лагерфельдом, а стоящие вокруг люди смотрели на нее как на ненормальную.
    • Ходили слухи, что роль Джордан Бейкер сыграет Хейли Этвелл.
    • Аманда Сайфред, Ребекка Холл, Рэйчел МакАдамс, Кира Найтли, Блейк Лайвли, Эбби Корниш, Мишель Уильямс, Натали Портман, Ева Грин, Энн Хэтэуэй, Оливия Уайлд, Джессика Альба и Скарлетт Йоханссон рассматривались на роль Дэйзи Бьюкенен.
    • Бен Аффлек рассматривался на роль Тома Бьюкенена, но из-за разногласий в расписании вынужден был отказаться. Также на эту роль рассматривались Люк Эванс и Брэдли Купер. Но в итоге роль досталась Джоэлу Эдгертону.
    • Леонардо ДиКаприо хотел сыграть Гэтсби, потому что ему понравилась «идея человека, который был абсолютно ничем, и создал себя, отталкиваясь только от собственного воображения». «Гэтсби - один из знаковых персонажей, потому что он может быть интерпретирован по-разному: безнадежный романтик, одержимый сумасшедший или опасный гангстер, цепляющийся за богатство» - говорит ДиКаприо.
    • Леонардо ДиКаприо и Тоби Магуайр на самом деле друзья с детства. И это первый раз, когда они появились вместе на экране после выхода фильма «Кафе «Донс Плам»» (2000).
    • Работа над фильмом была приостановлена, когда режиссер Баз Лурман получил сильный удар по голове движущимся операторским краном. В итоге ему наложили три шва.
    • Первоначально выход фильма был запланирован на декабрь 2012 года, затем дата сместилась на июль 2013-го и в итоге была перенесена на май 2013 года.
    • В фильме есть несколько упоминаний «заостренных воротников» (Arrow Collars). Этот вид съемных воротников рубашки являлся широко распространенным аксессуаром мужской одежды в начале 1920-х, и модели с такими воротниками снимались в очень успешной и популярной рекламной кампании.
    • Подлинные автомобили Duesenberg слишком редкие и ценные, чтобы использовать их для экшн-сцен вождения (модель Duesenberg SJ кабриолет купе в марте 2013 года была продана на аукционе за $ 4,5 миллиона). Две копии Duesenberg Model J были окрашены в желтый цвет и модифицированы, чтобы соответствовать друг другу на съемках.
    • Том упоминает Капайолани и Пунчбоул в ключевой сцене с Дейзи. Парк Капайолани находится на гавайском острове Оаху, между Вайкики и Даймонд-Хед. Пунчбоульский кратер расположен в 6 милях к северо-западу от него.
    • Картину с изображением Зельды Фицджеральд можно заметить на стене в квартире, где живут Том с Миртл.
    • Режиссер фильма Баз Лурман сыграл в фильме роль камео - официант в ресторане, в котором встречались Ник Каррауэй и Джордан Бейкер.
    • Фильм снят с помощью камеры RED Epic.
    • еще 12 фактов
    • Когда Гэтсби в Луисвилле у дома Дейзи, в первых кадрах у него две орденских ленты на груди, в последующих кадрах этих лент нет. Помимо того одна из лент - это награда за победу в Первой мировой войне, и очевидно, что эта сцена была до того, как Гэтсби отправился во Францию, а значит он никак не мог носить эту ленту в то время.
    • События разворачиваются в 1922 году, но желтый автомобиль Гэтсби - это Duesenberg Model J 1929 года.
    • «Французский» телефон в сцене, где герои говорят о навязчивом нежелательном госте, звонившем Тому, не был изобретен до середины 30-х годов. В 1922 году все еще нужно было держать в одной руке подсвечникообразный телефон и говорить в микрофон, прижимая наушник к уху.
    • Когда Дэйзи представляют Гэтсби в коттедже Ника, Гэтсби пробирается через заднюю дверь и выходит через переднюю насквозь промокший под дождем. Однако далее за время непродолжительного разговора Гэтсби полностью высохнет.
    • Гэтсби встречает Дэйзи в коттедже Ника в 4 часа вечера. Позже они смотрят на воду у дома Дэйзи в Ист Эгге, и солнце только всходит над ним, что могло бы произойти только в первой половине дня.
    • Тенор-саксофонист на вечеринке в особняке Гэтсби держит саксофон неправильно. Правильно держать саксофон - левой рукой в верхней части, а правой в нижней. В фильме все наоборот.
    • Рапсодия в стиле блюз Джорджа Гершвина звучит, когда входит Гэтсби, и это происходит в 1922 году. На самом деле это музыкальное произведение появилось только в январе 1924, а впервые было исполнено автором 12 февраля 1924 в сопровождении оркестра Пола Уайтмана.
    • В некоторых общих кадрах Манхэттена показывают Крайслер-билдинг и Эмпайр Стейт Билдинг еще в процессе строительства. Действие фильма разворачивается в 1922 году. Строительство Крайслер-билдинг началось в 1928 году, а Эмпайр Стейт Билдинг в 1930.
    • еще 5 ошибок
            © Оформление by VetalЗа постер и лого спасибо КЕП
  • Скачать Великий Гэтсби через торрент http://i2.imageban.ru/out/2013/08/15/2f3b10eb535e339dc608f407abd935b4.png Скачать фильм Великий Гэтсби через торрент бесплантно в хорошем качестве Описание:Весной 1922 года, в эпоху разлагающейся морали, блистательного джаза и «королей контрабандного алкоголя», Ник Каррауэй приезжает ... 2014-01-28 10:10 9.8 10 90

    Loading...

    Loading...

    Рекламный пират

    11-09-2013 09:41 Великий Гэтсби Скачать торрент  

    Так долго без коментов??? Неужели фильм вообще никаких эмоций не вызывает?

    17-09-2013 20:36 Великий Гэтсби Скачать торрент  

    Фильм стоит посмотреть,буду смотреть еще раз.Уверен не пожалеет никто.

    19-09-2013 14:04 Великий Гэтсби Скачать торрент  

    Фильм супер!!! всем советую!!!! и именно посмотреть до конца!!

    20-09-2013 13:21 Великий Гэтсби Скачать торрент  

    масса эмоций после отличного кино!Всем советую посмотреть несмотря на вкусы каждого.После просмотра думаю каждый подумает и о чем-то своем.

    21-09-2013 08:25 Великий Гэтсби Скачать торрент  

    отличный фильм! стоит посмотреть

    24-09-2013 21:41 Великий Гэтсби Скачать торрент  

    фИЛЬМ ПРО100 СУПЕР сОВЕТУЮ К ПРОСМОТРУ НЕ ПОЖАЛЕЕТЕ!!!!!!!!!

    12-10-2013 04:57 Великий Гэтсби Скачать торрент  

    лично мне понравился фильм. спасибо.

    22-11-2013 21:54 Великий Гэтсби Скачать торрент  

    Фильм не обычный, оставил меня под впечатлением. Советую посмотреть.

    Pекламный агент PB

    06-12-2014 15:29 Великий Гэтсби Скачать торрент  

    Спасибо за релиз!

    Дорогой пользователь! Огромная просьба, поблагодарите релизера, оцените раздачу и оставьте свои комментарий, если Вы скачали Великий Гэтсби через торрент бесплатно! Внесите свою лепту в развитие PiratBit!

    Комментировать посты могут только пользователи прошедшие не сложную регистрацию

    Великий Гэтсби через торрент Скачать бесплатно Великий Гэтсби Великий Гэтсби скачать торрент Великий Гэтсби смотреть онлайн Cкачать фильм Великий Гэтсби бесплатно Великий Гэтсби скачать торрент в хорошем качестве Великий Гэтсби смотреть онлайн бесплатно в хорошем качестве

    Вы не можете начинать темыВы не можете отвечать на сообщенияВы не можете редактировать свои сообщенияВы не можете удалять свои сообщенияВы не можете голосовать в опросахВы не можете прикреплять файлы к сообщениямВы можете скачивать файлы

    Скачать фильм Великий Гэтсби (1974) через торрент

    gig-torrent.net

    6 апреля 2016 08:22 Великий Гэтсби / The Great Gatsby (1974) BDRip от HQCLUB .torrent   [Информация о файле (нажмите для просмотра)] Перевод: Профессиональный (двухголосый, закадровый) + Оригинал (английский)Субтитры: русские, английские (обычные, SDH)Формат: AVIКачество: BDRip (источник:Видео: 704x400 (1.76:1), 23.976 fps, XviD build 65 ~2253 kbps avg, 0.33 bit/pixelАудио #1: 48 kHz, AC3 Dolby Digital, 2/0 (L,R) ch, ~192 kbps avg (MVO)Аудио #2: 48 kHz, AC3 Dolby Digital, 3/2 (L,C,R,l,r) + LFE ch, ~448 kbps avg (ENG)Аудио #3: 48 kHz, AC3 Dolby Digital, 2/0 (L,R) ch, ~192 kbps avg (UKR.MVO.1PLUS1)(отдельно)Аудио #4: 48 kHz, AC3 Dolby Digital, 3/2 (L,C,R,l,r) + LFE ch, ~448 kbps avg (VO.ESAREV)(отдельно) 2,91 Gb 8 4
    6 апреля 2016 08:22 Великий Гэтсби / The Great Gatsby (1974) DVDRip-AVC от -=HD-NET=- .torrent   [Информация о файле (нажмите для просмотра)] Перевод: Профессиональный двухголосыйСубтитры: РусскиеКодек: x264Качество: DVDRip-AVCВидео: MPEG4, 1024 x 576, 25,000 fps, ~1750 Кб/секЗвук: AC-3, 2 ch, 192 Кб/сек 1,87 Gb 4 1
    6 апреля 2016 08:22 Великий Гэтсби / The Great Gatsby (1974) BDRip 1080p | P .torrent   [Информация о файле (нажмите для просмотра)] Перевод: Профессиональный многоголосыйКачество: BDRip 1080pВидео: MPEG-4 AVC, 11.3 Мбит/с, 1920x1080, 23.976 кадр/сЗвук: Русский (AC3, 2 ch, 192 Кбит/с), английский (AC3, 6 ch, 640 Кбит/с)Субтитры: Русские, английскиеВидео: Идентификатор : 1 Формат : AVC Формат/Информация : Advanced Video Codec Профиль формата : [email protected] Параметр CABAC формата : Да Параметр ReFrames формата : 4 кадра Идентификатор кодека : V_MPEG4/ISO/AVC Продолжительность : 2 ч. 23 м. Битрейт : 11,3 Мбит/сек Ширина : 1920 пикселей Высота : 1080 пикселей Соотношение сторон : 16:9 Режим частоты кадров : Постоянный Частота кадров : 23,976 кадра/сек Цветовое пространство : YUV Субдискретизация насыщенности : 4:2:0 Битовая глубина : 8 бит Тип развёртки : Прогрессивная Бит/(Пиксели*Кадры) : 0.228 Размер потока : 11,1 Гбайт (91%) Библиотека кодирования : x264 core 130 r2273 b3065e6 Настройки программы : cabac=1 / ref=4 / deblock=1:-1:-1 / analyse=0x3:0x113 / me=umh / subme=8 / psy=1 / psy_rd=1.00:0.00 / mixed_ref=1 / me_range=16 / chroma_me=1 / trellis=1 / 8x8dct=1 / cqm=0 / deadzone=21,11 / fast_pskip=1 / chroma_qp_offset=-2 / threads=18 / lookahead_threads=3 / sliced_threads=0 / nr=0 / decimate=1 / interlaced=0 / bluray_compat=0 / constrained_intra=0 / bframes=3 / b_pyramid=2 / b_adapt=2 / b_bias=0 / direct=3 / weightb=1 / open_gop=0 / weightp=2 / keyint=240 / keyint_min=23 / scenecut=40 / intra_refresh=0 / rc_lookahead=50 / rc=abr / mbtree=1 / bitrate=11334 / ratetol=1.0 / qcomp=0.60 / qpmin=0 / qpmax=69 / qpstep=4 / ip_ratio=1.40 / aq=1:1.00 Язык : English Default : Да Forced : НетАудио #1: Идентификатор : 2 Формат : AC-3 Формат/Информация : Audio Coding 3 Расширение режима : CM (complete main) Параметр Endianness формата : Big Идентификатор кодека : A_AC3 Продолжительность : 2 ч. 23 м. Вид битрейта : Постоянный Битрейт : 192 Кбит/сек Каналы : 2 канала Расположение каналов : Front: L R Частота : 48,0 КГц Битовая глубина : 16 бит Метод сжатия : С потерями Размер потока : 197 Мбайт (2%) Язык : Russian Default : Да Forced : НетАудио #2: Идентификатор : 3 Формат : AC-3 Формат/Информация : Audio Coding 3 Расширение режима : CM (complete main) Параметр Endianness формата : Big Идентификатор кодека : A_AC3 Продолжительность : 2 ч. 23 м. Вид битрейта : Постоянный Битрейт : 640 Кбит/сек Каналы : 6 каналов Расположение каналов : Front: L C R, Side: L R, LFE Частота : 48,0 КГц Битовая глубина : 16 бит Метод сжатия : С потерями Размер потока : 657 Мбайт (5%) Язык : English Default : Нет Forced : Нет 12,16 Gb 3 5
    6 апреля 2016 08:22 Великий Гэтсби / The Great Gatsby (1974) BDRip 720p | P .torrent   [Информация о файле (нажмите для просмотра)] Перевод: Профессиональный многоголосыйКачество: BDRip 720pВидео: MPEG-4 AVC, 5894 Кбит/с, 1280x720, 23.976 кадр/сЗвук: Русский (AC3, 2 ch, 192 Кбит/с), английский (AC3, 6 ch, 640 Кбит/с)Субтитры: Русские, английскиеВидео: Идентификатор : 1 Формат : AVC Формат/Информация : Advanced Video Codec Профиль формата : [email protected] Параметр CABAC формата : Да Параметр ReFrames формата : 5 кадров Идентификатор кодека : V_MPEG4/ISO/AVC Продолжительность : 2 ч. 23 м. Битрейт : 5894 Кбит/сек Ширина : 1280 пикселей Высота : 720 пикселей Соотношение сторон : 16:9 Режим частоты кадров : Постоянный Частота кадров : 23,976 кадра/сек Цветовое пространство : YUV Субдискретизация насыщенности : 4:2:0 Битовая глубина : 8 бит Тип развёртки : Прогрессивная Бит/(Пиксели*Кадры) : 0.267 Размер потока : 5,77 Гбайт (86%) Библиотека кодирования : x264 core 130 r2273 b3065e6 Настройки программы : cabac=1 / ref=5 / deblock=1:-1:-1 / analyse=0x3:0x113 / me=umh / subme=8 / psy=1 / psy_rd=1.00:0.00 / mixed_ref=1 / me_range=16 / chroma_me=1 / trellis=1 / 8x8dct=1 / cqm=0 / deadzone=21,11 / fast_pskip=1 / chroma_qp_offset=-2 / threads=18 / lookahead_threads=3 / sliced_threads=0 / nr=0 / decimate=1 / interlaced=0 / bluray_compat=0 / constrained_intra=0 / bframes=3 / b_pyramid=2 / b_adapt=2 / b_bias=0 / direct=3 / weightb=1 / open_gop=0 / weightp=2 / keyint=240 / keyint_min=23 / scenecut=40 / intra_refresh=0 / rc_lookahead=50 / rc=abr / mbtree=1 / bitrate=5894 / ratetol=1.0 / qcomp=0.60 / qpmin=0 / qpmax=69 / qpstep=4 / ip_ratio=1.40 / aq=1:1.00 Язык : English Default : Да Forced : НетАудио #1: Идентификатор : 2 Формат : AC-3 Формат/Информация : Audio Coding 3 Расширение режима : CM (complete main) Параметр Endianness формата : Big Идентификатор кодека : A_AC3 Продолжительность : 2 ч. 23 м. Вид битрейта : Постоянный Битрейт : 192 Кбит/сек Каналы : 2 канала Расположение каналов : Front: L R Частота : 48,0 КГц Битовая глубина : 16 бит Метод сжатия : С потерями Размер потока : 197 Мбайт (3%) Язык : Russian Default : Да Forced : НетАудио #2: Идентификатор : 3 Формат : AC-3 Формат/Информация : Audio Coding 3 Расширение режима : CM (complete main) Параметр Endianness формата : Big Идентификатор кодека : A_AC3 Продолжительность : 2 ч. 23 м. Вид битрейта : Постоянный Битрейт : 640 Кбит/сек Каналы : 6 каналов Расположение каналов : Front: L C R, Side: L R, LFE Частота : 48,0 КГц Битовая глубина : 16 бит Метод сжатия : С потерями Размер потока : 657 Мбайт (10%) Язык : English Default : Нет Forced : Нет 6,73 Gb 4 2
    6 апреля 2016 08:22 Великий Гэтсби / The Great Gatsby (1974) HDRip | P от NovaLan .torrent   [Информация о файле (нажмите для просмотра)] Перевод: Профессиональный (многоголосый, закадровый)Кодек: XviDКачество: HDRip (BDRip (1080p))Видео: 1581 Кбит/с, 720x400, 23,976 кадр/секЗвук: Аудио#1: Russian: (AC3, 2 ch, 192 Кбит/с) - Профессиональный многоголосыйАудио#2: English: (AC3, 6 ch, 384 Кбит/c) - ОригиналСубтитры: Русские 2,18 Gb 4 1

    Скачать фильм Великий Гэтсби через торрент в хорошем качестве бесплатно HDRip

    piratbit.ru

    Размер: 1.45 GB | Добавлен: 3 года 8 мес. назад | Торрент скачан:986 раз
    Реклама Дарим 3000 рублей за регистрацию, не упусти свой шанс получить шикарный бонус!!!

    07-09-2013 09:58 Великий Гэтсби Скачать торрент  

    Великий Гэтсби / The Great Gatsby«Нельзя вернуть прошлое? Ну, конечно, можно!»
  • Год выпуска:2013
  • Страна:Австралия, США
  • Жанр:драма, мелодрама
  • Продолжительность: 02:22:05
  • Перевод:Профессиональный (полное дублирование)[Лицензия]
  • Субтитры: Нет
    • Режиссер:Баз Лурман / Baz Luhrmann
    • Сценарий: Баз Лурман / Baz Luhrmann, Крэйг Пирс / Craig Pearce, Фрэнсис Скотт Фицджеральд / Francis Scott Fitzgerald
    • Продюсер: Люси Фишер / Lucy Fisher, Катрин Нэпман / Catherine Knapman, Баз Лурман / Baz Luhrmann, Катрин Мартин / Catherine Martin, Дуглас Уик / Douglas Wick
  • В ролях:Леонардо ДиКаприо (Jay Gatsby), Тоби Магуайр (Nick Carraway), Кэри Маллиган (Daisy Buchanan), Джоэл Эдгертон (Tom Buchanan), Айла Фишер (Myrtle Wilson), Джейсон Кларк (George Wilson), Элизабет Дебики (Jordan Baker), Каллэн МакОлифф (Teen Jay Gatsby), Джек Томпсон (Dr. Walter Perkins), Амитабх Баччан (Meyer Wolfsheim), Стив Бисли (Dan Cody), Ричард Картер (Herzog)
    • Описание:Весной 1922 года, в эпоху разлагающейся морали, блистательного джаза и «королей контрабандного алкоголя», Ник Каррауэй приезжает из Среднего Запада в Нью-Йорк. Преследуя собственную американскую мечту, он селится по соседству с таинственным, известным своими вечеринками миллионером Джеем Гэтсби, а на противоположном берегу бухты проживают его кузина Дэйзи и её муж, повеса и аристократ, Том Бьюкенен. Так Ник оказывается вовлечённым в захватывающий мир богатых - их иллюзий, любви и обманов. Он становится свидетелем происходящего в этом мире и пишет историю невозможной любви, вечных мечтаний и человеческой трагедии, которые являются отражением современных времен и нравов.
  • Рейтингkinopoisk.ru: 8.235 (60 264)imdb.com: 7.40 (104 171)MPAA: PG-13 - Детям до 13 лет просмотр не желателен
    • Качество:HDRip
    • Формат:AVI
    • Видео кодек: XviD
    • Аудио кодек:AC3
    • Видео: XviD, 720x304, 23.976 fps, 1262 kbps
    • Аудио: AC3, 48 kHz, 2 ch, 192 kbps
    GeneralComplete name : D:ТорентыVelikiy.Getsby.2013_HDRip_dub_.aviFormat : AVIFormat/Info : Audio Video InterleaveFile size : 1.45 GiBDuration : 2h 22mnOverall bit rate : 1 464 KbpsWriting application : VirtualDubMod 1.5.10.2 (build 2540/release)Writing library : VirtualDubMod build 2540/release

    VideoID : 0Format : MPEG-4 VisualFormat profile : Advanced [email protected] settings, BVOP : 1Format settings, QPel : NoFormat settings, GMC : No warppointsFormat settings, Matrix : CustomCodec ID : XVIDCodec ID/Hint : XviDDuration : 2h 22mnBit rate : 1 262 KbpsWidth : 720 pixelsHeight : 304 pixelsDisplay aspect ratio : 2.35:1Frame rate : 23.976 fpsColor space : YUVChroma subsampling : 4:2:0Bit depth : 8 bitsScan type : ProgressiveCompression mode : LossyBits/(Pixel*Frame) : 0.241Stream size : 1.25 GiB (86%)Writing library : XviD 1.2.1 (UTC 2008-12-04)

    AudioID : 1Format : AC-3Format/Info : Audio Coding 3Mode extension : CM (complete main)Codec ID : 2000Duration : 2h 22mnBit rate mode : ConstantBit rate : 192 KbpsChannel(s) : 2 channelsChannel positions : Front: L RSampling rate : 48.0 KHzBit depth : 16 bitsCompression mode : LossyStream size : 195 MiB (13%)Alignment : Split accross interleavesInterleave, duration : 42 ms (1.00 video frame)Interleave, preload duration : 500 ms

    • Фильм снят по мотивам романа Фрэнсиса Скотта Фицджеральда «Великий Гэтсби» (The Great Gatsby, 1925).
    • Кэри Маллиган была на церемонии Fashion Awards, когда ей позвонил Баз Лурман и сообщил, что ее взяли на роль Дэйзи Бьюкенен. Актриса рассказала, что после этого звонка она разрыдалась, находясь прямо в центре комнаты с Карлом Лагерфельдом, а стоящие вокруг люди смотрели на нее как на ненормальную.
    • Ходили слухи, что роль Джордан Бейкер сыграет Хейли Этвелл.
    • Аманда Сайфред, Ребекка Холл, Рэйчел МакАдамс, Кира Найтли, Блейк Лайвли, Эбби Корниш, Мишель Уильямс, Натали Портман, Ева Грин, Энн Хэтэуэй, Оливия Уайлд, Джессика Альба и Скарлетт Йоханссон рассматривались на роль Дэйзи Бьюкенен.
    • Бен Аффлек рассматривался на роль Тома Бьюкенена, но из-за разногласий в расписании вынужден был отказаться. Также на эту роль рассматривались Люк Эванс и Брэдли Купер. Но в итоге роль досталась Джоэлу Эдгертону.
    • Леонардо ДиКаприо хотел сыграть Гэтсби, потому что ему понравилась «идея человека, который был абсолютно ничем, и создал себя, отталкиваясь только от собственного воображения». «Гэтсби - один из знаковых персонажей, потому что он может быть интерпретирован по-разному: безнадежный романтик, одержимый сумасшедший или опасный гангстер, цепляющийся за богатство» - говорит ДиКаприо.
    • Леонардо ДиКаприо и Тоби Магуайр на самом деле друзья с детства. И это первый раз, когда они появились вместе на экране после выхода фильма «Кафе «Донс Плам»» (2000).
    • Работа над фильмом была приостановлена, когда режиссер Баз Лурман получил сильный удар по голове движущимся операторским краном. В итоге ему наложили три шва.
    • Первоначально выход фильма был запланирован на декабрь 2012 года, затем дата сместилась на июль 2013-го и в итоге была перенесена на май 2013 года.
    • В фильме есть несколько упоминаний «заостренных воротников» (Arrow Collars). Этот вид съемных воротников рубашки являлся широко распространенным аксессуаром мужской одежды в начале 1920-х, и модели с такими воротниками снимались в очень успешной и популярной рекламной кампании.
    • Подлинные автомобили Duesenberg слишком редкие и ценные, чтобы использовать их для экшн-сцен вождения (модель Duesenberg SJ кабриолет купе в марте 2013 года была продана на аукционе за $ 4,5 миллиона). Две копии Duesenberg Model J были окрашены в желтый цвет и модифицированы, чтобы соответствовать друг другу на съемках.
    • Том упоминает Капайолани и Пунчбоул в ключевой сцене с Дейзи. Парк Капайолани находится на гавайском острове Оаху, между Вайкики и Даймонд-Хед. Пунчбоульский кратер расположен в 6 милях к северо-западу от него.
    • Картину с изображением Зельды Фицджеральд можно заметить на стене в квартире, где живут Том с Миртл.
    • Режиссер фильма Баз Лурман сыграл в фильме роль камео - официант в ресторане, в котором встречались Ник Каррауэй и Джордан Бейкер.
    • Фильм снят с помощью камеры RED Epic.
    • еще 12 фактов
    • Когда Гэтсби в Луисвилле у дома Дейзи, в первых кадрах у него две орденских ленты на груди, в последующих кадрах этих лент нет. Помимо того одна из лент - это награда за победу в Первой мировой войне, и очевидно, что эта сцена была до того, как Гэтсби отправился во Францию, а значит он никак не мог носить эту ленту в то время.
    • События разворачиваются в 1922 году, но желтый автомобиль Гэтсби - это Duesenberg Model J 1929 года.
    • «Французский» телефон в сцене, где герои говорят о навязчивом нежелательном госте, звонившем Тому, не был изобретен до середины 30-х годов. В 1922 году все еще нужно было держать в одной руке подсвечникообразный телефон и говорить в микрофон, прижимая наушник к уху.
    • Когда Дэйзи представляют Гэтсби в коттедже Ника, Гэтсби пробирается через заднюю дверь и выходит через переднюю насквозь промокший под дождем. Однако далее за время непродолжительного разговора Гэтсби полностью высохнет.
    • Гэтсби встречает Дэйзи в коттедже Ника в 4 часа вечера. Позже они смотрят на воду у дома Дэйзи в Ист Эгге, и солнце только всходит над ним, что могло бы произойти только в первой половине дня.
    • Тенор-саксофонист на вечеринке в особняке Гэтсби держит саксофон неправильно. Правильно держать саксофон - левой рукой в верхней части, а правой в нижней. В фильме все наоборот.
    • Рапсодия в стиле блюз Джорджа Гершвина звучит, когда входит Гэтсби, и это происходит в 1922 году. На самом деле это музыкальное произведение появилось только в январе 1924, а впервые было исполнено автором 12 февраля 1924 в сопровождении оркестра Пола Уайтмана.
    • В некоторых общих кадрах Манхэттена показывают Крайслер-билдинг и Эмпайр Стейт Билдинг еще в процессе строительства. Действие фильма разворачивается в 1922 году. Строительство Крайслер-билдинг началось в 1928 году, а Эмпайр Стейт Билдинг в 1930.
    • еще 5 ошибок
    © Оформление by VetalЗа постер и лого спасибо КЕП
  • Скачать Великий Гэтсби через торрент http://i2.imageban.ru/out/2013/08/15/2f3b10eb535e339dc608f407abd935b4.png Скачать фильм Великий Гэтсби через торрент бесплантно в хорошем качестве Описание:Весной 1922 года, в эпоху разлагающейся морали, блистательного джаза и «королей контрабандного алкоголя», Ник Каррауэй приезжает ... 2014-01-28 10:10 9.8 10 35

    Loading...

    Loading...

    Рекламный пират

    Дорогой пользователь! Огромная просьба, поблагодарите релизера, оцените раздачу и оставьте свои комментарий, если Вы скачали Великий Гэтсби через торрент бесплатно! Внесите свою лепту в развитие PiratBit!

    Комментировать посты могут только пользователи прошедшие не сложную регистрацию

    Великий Гэтсби через торрент Скачать бесплатно Великий Гэтсби Великий Гэтсби скачать торрент Великий Гэтсби смотреть онлайн Cкачать фильм Великий Гэтсби бесплатно Великий Гэтсби скачать торрент в хорошем качестве Великий Гэтсби смотреть онлайн бесплатно в хорошем качестве

    Вы не можете начинать темыВы не можете отвечать на сообщенияВы не можете редактировать свои сообщенияВы не можете удалять свои сообщенияВы не можете голосовать в опросахВы не можете прикреплять файлы к сообщениямВы можете скачивать файлы

    Скачать фильм Великий Гэтсби через торрент в хорошем качестве бесплатно HDRip

    piratbit.ru

    Раздают: 1 [ 0 KB/s ]
    Размер: 1.45 GB | Добавлен: 1 год 2 мес. назад | Торрент скачан:27 раз
    Реклама Дарим 3000 рублей за регистрацию, не упусти свой шанс получить шикарный бонус!!!

    23-08-2016 12:20 Великий Гэтсби Скачать торрент  

    Великий Гэтсби / The Great Gatsby

    Год выпуска: 1974Страна: СШАЖанр: драма, мелодрамаПродолжительность: 02:23:25Перевод: Профессиональный (многоголосый)

    Режиссер: Джек КлэйтонПродюссер: Дэвид Меррик, Хэнк МунджинСценарий: Френсис Форд Коппола, Фрэнсис Скотт Фицджеральд

    Бюджет: $6 500 000

    В ролях: Роберт Редфорд, Миа Фэрроу, Брюс Дерн, Карен Блэк, Скотт Уилсон, Сэм Уотерстон, Лоис Чайлз, Ховард Да Сильва, Робертс Блоссом, Эдвард Херрманн, Эллиот Салливан, Артур Хьюз, Кэтрин Ли Скотт, Бет Портер, Пол Тамарин, Джон Дэвлин, Пэтси Кензит, Блэйн Фэйрмэн, Боб Шерман, Норман Чансер, Регина Бэфф

    Описание: Когда-то Джей Гэтсби был влюблен в очаровательную молодую леди по имени Дэйзи Бьюкенэн, которая предпочла ему состоятельного господина. И вот, восемь лет спустя, Гэтсби, разбогатевший таинственным образом, снова появляется на Лонг-Айленде, нарушив размеренную жизнь светского общества острова, чтобы вновь завоевать любовь дамы своего сердца..

    Качество: HDRipФормат: AVIВидео кодек: XviDАудио кодек: AC3Видео: XviD, 1246 Кбит/с, 704x392, 23.976 кадр/сАудио: AC3, 2 ch, 192 Кбит/с, 48 kHzРелиз от: Koenig

    ОбщееПолное имя : The.Great.Gatsby.HDRip.aviФормат : AVIФормат/Информация : Audio Video InterleaveРазмер файла : 1,45 ГбайтПродолжительность : 2 ч. 23 м.Общий поток : 1448 Кбит/секПрограмма кодирования : VirtualDubMod 1.5.10.2 (build 2540/release)Библиотека кодирования : VirtualDubMod build 2540/release

    ВидеоИдентификатор : 0Формат : MPEG-4 VisualПрофиль формата : Advanced [email protected]Параметр BVOP формата : 1Параметр QPel формата : НетПараметр GMC формата : Без точки переходаПараметр матрицы формата : Default (MPEG)Идентификатор кодека : XVIDИдентификатор кодека/Подсказка : XviDПродолжительность : 2 ч. 23 м.Битрейт : 1246 Кбит/секШирина : 704 пикселяВысота : 392 пикселяСоотношение сторон : 16:9Частота кадров : 23,976 (23976/1000) кадра/секЦветовое пространство : YUVСубдискретизация насыщенности : 4:2:0Битовая глубина : 8 битТип развёртки : ПрогрессивнаяМетод сжатия : С потерямиБит/(Пиксели*Кадры) : 0.188Размер потока : 1,25 Гбайт (86%)Библиотека кодирования : XviD 1.2.0.dev47 (UTC 2006-11-01)

    АудиоИдентификатор : 1Формат : AC-3Формат/Информация : Audio Coding 3Расширение режима : CM (complete main)Параметр Endianness формата : BigИдентификатор кодека : 2000Продолжительность : 2 ч. 23 м.Вид битрейта : ПостоянныйБитрейт : 192 Кбит/секКаналы : 2 каналаРасположение каналов : Front: L RЧастота : 48,0 КГцЧастота кадров : 31,250 кадров/сек (1536 spf)Метод сжатия : С потерямиРазмер потока : 197 Мбайт (13%)Выравнивание : Разделение по промежуткамПродолжительность промежутка : 42 мс. (1,00 видеокадр)Время предзагрузки промежутка : 500 мс.

    Скачать Великий Гэтсби через торрент http://pic1.pb.wtf/images/10/ivzp7.jpg Скачать фильм Великий Гэтсби через торрент бесплантно в хорошем качестве Описание: Когда-то Джей Гэтсби был влюблен в очаровательную молодую леди по имени Дэйзи Бьюкенэн, которая предпочла ему состоятельного ... 2016-08-23 12:20 5 10 1

    Loading...

    Loading...

    Рекламный пират

    23-08-2016 15:28 Великий Гэтсби Скачать торрент  

    24-08-2016 09:54 Великий Гэтсби Скачать торрент  

    bober100 писал(а):

    Это оригинал)

    Нет. Первая экранизация одноименного романа Фрэнсиса Скотта Фицджеральда была в далеком 1926 году. Это третья по счету, после версии 1949 года. Еще были варианты в 2000 и 2013 годах.

    Дорогой пользователь! Огромная просьба, поблагодарите релизера, оцените раздачу и оставьте свои комментарий, если Вы скачали Великий Гэтсби через торрент бесплатно! Внесите свою лепту в развитие PiratBit!

    Комментировать посты могут только пользователи прошедшие не сложную регистрацию

    Великий Гэтсби через торрент Скачать бесплатно Великий Гэтсби Великий Гэтсби скачать торрент Великий Гэтсби смотреть онлайн Cкачать фильм Великий Гэтсби бесплатно Великий Гэтсби скачать торрент в хорошем качестве Великий Гэтсби смотреть онлайн бесплатно в хорошем качестве

    Вы не можете начинать темыВы не можете отвечать на сообщенияВы не можете редактировать свои сообщенияВы не можете удалять свои сообщенияВы не можете голосовать в опросахВы не можете прикреплять файлы к сообщениямВы можете скачивать файлы

    Скачать фильм Великий Гэтсби через торрент в хорошем качестве бесплатно 720p от _denis_100 / NNNB] DUB

    piratbit.ru

    Размер: 7.76 GB | Добавлен: 1 год 10 мес. назад | Торрент скачан:228 раз
    Реклама Дарим 3000 рублей за регистрацию, не упусти свой шанс получить шикарный бонус!!!

    16-12-2015 16:35 Великий Гэтсби Скачать торрент  

    Великий Гэтсби / The Great Gatsby«Нельзя вернуть прошлое? Ну, конечно, можно!» Год выпуска: 2013Страна: Австралия, СШАЖанр: драма, мелодрама Продолжительность: 02:22:06Перевод: Дублированный, Авторский (одноголосый)Субтитры: русские (Forced), русские, русские (voronine), английские, английские (SDH), английские (SDH-COLORED)Режиссер: Баз Лурман В ролях: Леонардо ДиКаприо , Тоби Магуайр , Кэри Маллиган , Джоэл Эдгертон , Айла Фишер , Джейсон Кларк , Элизабет Дебики , Каллэн МакОлифф , Джек Томпсон , Амитабх Баччан , Лиза Адам , Фрэнк ЭлдриджОписание:Весной 1922 года, в эпоху разлагающейся морали, блистательного джаза и «королей контрабандного алкоголя», Ник Каррауэй приезжает из Среднего Запада в Нью-Йорк. Преследуя собственную американскую мечту, он селится по соседству с таинственным, известным своими вечеринками миллионером Джеем Гэтсби, а на противоположном берегу бухты проживают его кузина Дэйзи и её муж, повеса и аристократ, Том Бьюкенен. Так Ник оказывается вовлечённым в захватывающий мир богатых - их иллюзий, любви и обманов. Он становится свидетелем происходящего в этом мире и пишет историю невозможной любви, вечных мечтаний и человеческой трагедии, которые являются отражением современных времен и нравов. PG-13 - Детям до 13 лет просмотр не желателенКачество: BDRip 720pКонтейнер (Расширение): MKVВидео: 1280x534, 6086 Кбит/сек, 23,976 кадр/сек, 0,371 Бит/[Пиксели*Кадры]Аудио №1: русский / AC3 / 5.1 / 48 kHz / 448 kbps / 16 bit |Дублированный, Blu-ray CEE| Аудио №2: русский / AC3 / 5.1 / 48 kHz / 640 kbps / 16 bit |Авторский, Юрий Сербин| Аудио №3: английский / AC3 / 5.1 / 48 kHz / 640 kbps / 16 bitНавигация по главам(Чаптеры): есть - подписанныеАвтор рипа: Сообщество:

  • Фильм снят по мотивам романа Фрэнсиса Скотта Фицджеральда «Великий Гэтсби» (The Great Gatsby, 1925).
  • Кэри Маллиган была на церемонии Fashion Awards, когда ей позвонил Баз Лурман и сообщил, что ее взяли на роль Дэйзи Бьюкенен. Актриса рассказала, что после этого звонка она разрыдалась, находясь прямо в центре комнаты с Карлом Лагерфельдом, а стоящие вокруг люди смотрели на нее как на ненормальную.
  • Аманда Сайфред, Ребекка Холл, Рэйчел МакАдамс, Кира Найтли, Блейк Лайвли, Эбби Корниш, Мишель Уильямс, Натали Портман, Ева Грин, Энн Хэтэуэй, Оливия Уайлд, Джессика Альба и Скарлетт Йоханссон рассматривались на роль Дэйзи Бьюкенен.
  • Бен Аффлек рассматривался на роль Тома Бьюкенена, но из-за разногласий в расписании вынужден был отказаться. Также на эту роль рассматривались Люк Эванс и Брэдли Купер. Но в итоге роль досталась Джоэлу Эдгертону.
  • Ходили слухи, что роль Джордан Бейкер сыграет Хейли Этвелл.
  • Леонардо ДиКаприо и Тоби Магуайр на самом деле друзья с детства. И это первый раз, когда они появились вместе на экране после выхода фильма «Кафе «Донс Плам»» (2000).
  • Работа над фильмом была приостановлена, когда режиссер Баз Лурман получил сильный удар по голове движущимся операторским краном. В итоге ему наложили три шва.
  • Первоначально выход фильма был запланирован на декабрь 2012 года, затем дата сместилась на июль 2013-го и в итоге была перенесена на май 2013 года.
  • В фильме есть несколько упоминаний «заостренных воротников» (Arrow Collars). Этот вид съемных воротников рубашки являлся широко распространенным аксессуаром мужской одежды в начале 1920-х, и модели с такими воротниками снимались в очень успешной и популярной рекламной кампании.
  • Подлинные автомобили Duesenberg слишком редкие и ценные, чтобы использовать их для экшн-сцен вождения (модель Duesenberg SJ кабриолет купе в марте 2013 года была продана на аукционе за $ 4,5 миллиона). Две копии Duesenberg Model J были окрашены в желтый цвет и модифицированы, чтобы соответствовать друг другу на съемках.
  • Том упоминает Капайолани и Пунчбоул в ключевой сцене с Дейзи. Парк Капайолани находится на гавайском острове Оаху, между Вайкики и Даймонд-Хед. Пунчбоульский кратер расположен в 6 милях к северо-западу от него.
  • Картину с изображением Зельды Фицджеральд можно заметить на стене в квартире, где живут Том с Миртл.
  • Режиссер фильма Баз Лурман сыграл в фильме роль камео - официант в ресторане, в котором встречались Ник Каррауэй и Джордан Бейкер.
  • Фильм снят с помощью камеры RED Epic.
  • Баз Лурман задумал этот фильм в период мирового финансового кризиса, находясь в Сибири. В одном интервью он сказал: «Если вы поставите людей перед зеркалом, которое скажет им: вы были пьяны от денег, - они не захотят смотреть в него. Но если вы спроецируете отражение на иную эпоху, то такая история будет пользоваться спросом».
  • Леонардо ДиКаприо хотел сыграть Гэтсби, потому что ему понравилась «идея человека, который был абсолютно ничем, и создал себя, отталкиваясь только от собственного воображения». «Гэтсби - один из знаковых персонажей, потому что он может быть интерпретирован по-разному: безнадежный романтик, одержимый сумасшедший или опасный гангстер, цепляющийся за богатство» - говорит ДиКаприо.
  • В некоторых общих кадрах Манхэттена показывают Крайслер-билдинг и Эмпайр Стейт Билдинг еще в процессе строительства. Действие фильма разворачивается в 1922 году. Строительство Крайслер-билдинг началось в 1928 году, а Эмпайр Стейт Билдинг в 1930.
  • Когда Гэтсби в Луисвилле у дома Дейзи, в первых кадрах у него две орденских ленты на груди, в последующих кадрах этих лент нет. Помимо того одна из лент - это награда за победу в Первой мировой войне, и очевидно, что эта сцена была до того, как Гэтсби отправился во Францию, а значит он никак не мог носить эту ленту в то время.
  • Тенор-саксофонист на вечеринке в особняке Гэтсби держит саксофон неправильно. Правильно держать саксофон - левой рукой в верхней части, а правой в нижней. В фильме все наоборот.
  • «Французский» телефон в сцене, где герои говорят о навязчивом нежелательном госте, звонившем Тому, не был изобретен до середины 30-х годов. В 1922 году все еще нужно было держать в одной руке подсвечникообразный телефон и говорить в микрофон, прижимая наушник к уху.
  • События разворачиваются в 1922 году, но желтый автомобиль Гэтсби - это Duesenberg Model J 1929 года.
  • Когда Дэйзи представляют Гэтсби в коттедже Ника, Гэтсби пробирается через заднюю дверь и выходит через переднюю насквозь промокший под дождем. Однако далее за время непродолжительного разговора Гэтсби полностью высохнет.
  • Гэтсби встречает Дэйзи в коттедже Ника в 4 часа вечера. Позже они смотрят на воду у дома Дэйзи в Ист Эгге, и солнце только всходит над ним, что могло бы произойти только в первой половине дня.
  • Рапсодия в стиле блюз Джорджа Гершвина звучит, когда входит Гэтсби, и это происходит в 1922 году. На самом деле это музыкальное произведение появилось только в январе 1924, а впервые было исполнено автором 12 февраля 1924 в сопровождении оркестра Пола Уайтмана.
  • Почти все машины, задействованные в фильме, имеют более поздний год выпуска, чем 1922 год, когда разворачивается действие: 1930 Buick Series 60, 1932 Cadillac V-16, 1930 Chevrolet Universal, 1928 Chrysler Imperial, 1930 Chrysler Six, 1929 De Soto Six, 1924 Dodge Brothers, 1929 Ford Model A, 1929 Packard Standard Eight, 1929 Packard Standard Eight, 1927 Rolls-Royce Phantom I, 1929 Studebaker President.
  • Код:

    Format                                   : MatroskaFormat version                           : Version 2File size                                : 7.76 GiBDuration                                 : 2h 22mnOverall bit rate                         : 7 815 KbpsMovie name                               : The Great Gatsby.(2013).BDRip.720p.[denis100]Encoded date                             : UTC 2015-12-16 14:48:15Writing application                      : mkvmerge v5.8.0 ('No Sleep / Pillow') built on Sep  2 2012 15:37:04Writing library                          : libebml v1.2.3 + libmatroska v1.3.0

    VideoID                                       : 1Format                                   : AVCFormat/Info                              : Advanced Video CodecFormat profile                           : [email protected] settings, CABAC                   : NoFormat settings, ReFrames                : 11 framesCodec ID                                 : V_MPEG4/ISO/AVCDuration                                 : 2h 22mnBit rate                                 : 6 086 KbpsWidth                                    : 1 280 pixelsHeight                                   : 534 pixelsDisplay aspect ratio                     : 2.40:1Frame rate                               : 23.976 fpsColor space                              : YUVChroma subsampling                       : 4:2:0Bit depth                                : 8 bitsScan type                                : ProgressiveBits/(Pixel*Frame)                       : 0.371Stream size                              : 5.89 GiB (76%)Title                                    : The Great Gatsby.(2013).BDRip.720p.[denis100]Writing library                          : x264 core 148 r2638 7599210Encoding settings                        : cabac=0 / ref=11 / deblock=1:-3:-3 / analyse=0x3:0x133 / me=umh / subme=11 / psy=1 / psy_rd=1.00:0.00 / mixed_ref=1 / me_range=32 / chroma_me=1 / trellis=2 / 8x8dct=1 / cqm=0 / deadzone=21,11 / fast_pskip=0 / chroma_qp_offset=-2 / threads=6 / lookahead_threads=1 / sliced_threads=0 / nr=0 / decimate=1 / interlaced=0 / bluray_compat=0 / constrained_intra=0 / bframes=10 / b_pyramid=2 / b_adapt=2 / b_bias=0 / direct=3 / weightb=1 / open_gop=0 / weightp=2 / keyint=240 / keyint_min=23 / scenecut=40 / intra_refresh=0 / rc=2pass / mbtree=0 / bitrate=6086 / ratetol=1.0 / qcomp=0.60 / qpmin=0 / qpmax=69 / qpstep=4 / cplxblur=20.0 / qblur=0.5 / ip_ratio=1.40 / pb_ratio=1.30 / aq=2:1.00Language                                 : EnglishDefault                                  : YesForced                                   : No

    Audio #1ID                                       : 2Format                                   : AC-3Format/Info                              : Audio Coding 3Mode extension                           : CM (complete main)Codec ID                                 : A_AC3Duration                                 : 2h 22mnBit rate mode                            : ConstantBit rate                                 : 448 KbpsChannel(s)                               : 6 channelsChannel positions                        : Front: L C R, Side: L R, LFESampling rate                            : 48.0 KHzBit depth                                : 16 bitsCompression mode                         : LossyStream size                              : 455 MiB (6%)Title                                    : Дублированный, Blu-ray CEELanguage                                 : RussianDefault                                  : YesForced                                   : No

    Audio #2ID                                       : 3Format                                   : AC-3Format/Info                              : Audio Coding 3Mode extension                           : CM (complete main)Codec ID                                 : A_AC3Duration                                 : 2h 22mnBit rate mode                            : ConstantBit rate                                 : 640 KbpsChannel(s)                               : 6 channelsChannel positions                        : Front: L C R, Side: L R, LFESampling rate                            : 48.0 KHzBit depth                                : 16 bitsCompression mode                         : LossyStream size                              : 651 MiB (8%)Title                                    : Авторский, Юрий СербинLanguage                                 : RussianDefault                                  : NoForced                                   : No

    Audio #3ID                                       : 4Format                                   : AC-3Format/Info                              : Audio Coding 3Mode extension                           : CM (complete main)Codec ID                                 : A_AC3Duration                                 : 2h 22mnBit rate mode                            : ConstantBit rate                                 : 640 KbpsChannel(s)                               : 6 channelsChannel positions                        : Front: L C R, Side: L R, LFESampling rate                            : 48.0 KHzBit depth                                : 16 bitsCompression mode                         : LossyStream size                              : 651 MiB (8%)Language                                 : EnglishDefault                                  : NoForced                                   : No

    Text #1ID                                       : 5Format                                   : UTF-8Codec ID                                 : S_TEXT/UTF8Codec ID/Info                            : UTF-8 Plain TextTitle                                    : ForcedLanguage                                 : RussianDefault                                  : YesForced                                   : No

    Text #2ID                                       : 6Format                                   : UTF-8Codec ID                                 : S_TEXT/UTF8Codec ID/Info                            : UTF-8 Plain TextLanguage                                 : RussianDefault                                  : NoForced                                   : No

    Text #3ID                                       : 7Format                                   : UTF-8Codec ID                                 : S_TEXT/UTF8Codec ID/Info                            : UTF-8 Plain TextTitle                                    : voronineLanguage                                 : RussianDefault                                  : NoForced                                   : No

    Text #4ID                                       : 8Format                                   : UTF-8Codec ID                                 : S_TEXT/UTF8Codec ID/Info                            : UTF-8 Plain TextLanguage                                 : EnglishDefault                                  : NoForced                                   : No

    Text #5ID                                       : 9Format                                   : UTF-8Codec ID                                 : S_TEXT/UTF8Codec ID/Info                            : UTF-8 Plain TextTitle                                    : SDHLanguage                                 : EnglishDefault                                  : NoForced                                   : No

    Text #6ID                                       : 10Format                                   : UTF-8Codec ID                                 : S_TEXT/UTF8Codec ID/Info                            : UTF-8 Plain TextTitle                                    : SDH-COLOREDLanguage                                 : EnglishDefault                                  : NoForced                                   : No

    Menu00:00:00.000                             : en:The East Egg00:11:04.080                             : en:Myrtle Wilson00:22:55.832                             : en:Invitation00:34:26.898                             : en:Lunch With Gatsby00:44:48.727                             : en:Reacquainted00:55:36.332                             : en:Rich and Poor01:06:20.643                             : en:A Party for Daisy01:18:27.786                             : en:Lovers01:31:13.926                             : en:Going Into Town01:44:11.954                             : en:Confronting Tom01:56:35.154                             : en:Trouble on the Road02:05:46.121                             : en:The Driver02:09:40.981                             : en:Revenge

    x264 [info]: frame I:2231 Avg QP:14.47 size:150368x264 [info]: frame P:54368 Avg QP:17.12 size: 57406x264 [info]: frame B:147813 Avg QP:19.03 size: 20489x264 [info]: consecutive B-frames: 4.4% 5.5% 9.0% 47.4% 10.7% 16.2% 2.9% 3.0% 0.4% 0.2% 0.3%

    Скачать Великий Гэтсби через торрент http://i6.imageban.ru/out/2015/12/16/00a928d5bff233d461be6416caa91ae9.png Скачать фильм Великий Гэтсби через торрент бесплантно в хорошем качестве Описание:Весной 1922 года, в эпоху разлагающейся морали, блистательного джаза и «королей контрабандного алкоголя», Ник Каррауэй приезжает ... 2015-12-16 16:35 10 10 6

    Loading...

    Loading...

    Рекламный пират

    Дорогой пользователь! Огромная просьба, поблагодарите релизера, оцените раздачу и оставьте свои комментарий, если Вы скачали Великий Гэтсби через торрент бесплатно! Внесите свою лепту в развитие PiratBit!

    Комментировать посты могут только пользователи прошедшие не сложную регистрацию

    Великий Гэтсби через торрент Скачать бесплатно Великий Гэтсби Великий Гэтсби скачать торрент Великий Гэтсби смотреть онлайн Cкачать фильм Великий Гэтсби бесплатно Великий Гэтсби скачать торрент в хорошем качестве Великий Гэтсби смотреть онлайн бесплатно в хорошем качестве

    Вы не можете начинать темыВы не можете отвечать на сообщенияВы не можете редактировать свои сообщенияВы не можете удалять свои сообщенияВы не можете голосовать в опросахВы не можете прикреплять файлы к сообщениямВы можете скачивать файлы


    Смотрите также