Скачать трон в хорошем качестве торрент


Наследие (2010) смотреть онлайн или скачать фильм через торрент. Трейлеры, правдивые оценки, рецензии, комментарии, похожие фильмы, саундтрек, новости и интересные факты на Fast-torrent

Для того, чтобы в полной мере осознать, с чем мы имеем дело в "Наследии", нужно ясно себе представлять, что из себя представлял первый "Трон". Посему моя рецензия охватит сразу два фильма.

Итак, на дворе 1982 год. Развитие компьютерных технологий идет семимильными шагами. Никто уже не представляет себе при слове "компьютер" железную коробку размером с дом, битком набитую постоянно перегревающимися лампами. Но компьютеризация еще не дошла до той степени, когда у каждого мало-мальски обеспеченного человека дома стоит ПК. Однако, у всех на слуху новомодные словечки: "программа", "файл", "передача и запись данных" и многие другие неологизмы, связанные с внедрением новейшей техники во все сферы общественной жизни.

И тут выходит фильм "Трон". Фильм, который был не только квинтэссенцией представлений людей того времени о компьютерах, но и пытавшийся визуально объяснить непонятные термины: программы, например, в этом фильме представлялись такими же людьми, как и мы с вами. Этот фильм - детская, наивная попытка показать нам, что же происходит внутри системного блока, какая жизнь течет в этом электронном ящике.

Технически в то время фильм был совершенен: для того, чтобы показать людям "настоящий внутренний компьютерный мир", использовался новейший метод съемки, настолько сложный, что никто после "Трона" его не использовал. И этот метод себя оправдал: вся эта векторная графика получилась настолько, кхм, красивой, необычной и аутентичной, что невозможно было не поверить, что действие на самом деле происходит внутри компьютера. Не подкачала и операторская работа. Конечно, она далеко не великолепна, но выполнена на достаточно высоком уровне: смена планов, поиск оригинальных ракурсов, работа в движении... Звук также был совсем неплох, а вот хорошей музыки фильму явно недоставало. И тут дело не в том, что музыка была плохой, а в том, что её было мало - большая часть фильма идет на фоне тишины.

Но по-настоящему фильм проседал только в одном. Неплохая сюжетная задумка "Трона" гробилась поистине детским сценарием и режиссурой: совершенно плоские персонажи, односложные пустые диалоги, непонятные мотивы поступков героев, актеры, недоумевающие по поводу того, что они здесь делают и что за чепуху их заставляют нести, а главное - общая раздробленность повествования, "благодаря" которой было вообще непонятно, что происходит на экране. Одним словом, создатели "Трона" совершили распространенную во все времена ошибку - в погоне за красивой оберткой они не просто не завернули в нее первый попавшийся камешек с обочины вместо вкусной конфетки (мол, и так сойдет), они не завернули туда вообще ничего.

В итоге, мы имели неплохую техносказку, радовавшую глаз, но пресную, как выдохшееся пиво. По хорошему, такое кино больше 3 баллов не заслуживает, но я позволю себе накинуть лишний балл за смелую попытку и оригинальность.

Итого 4 из 5.

Теперь давайте перенесемся в наше время. 2010 год, немногим менее 30 лет спустя.

Сейчас компьютерными спецэффектами уже никого не удивишь: в конце девяностых случились "Армагеддон" и "Матрица", в середине нулевых - "Трансформеры", а в конце десятилетия на нас снизошел великий и могучий "Аватар". Плюс, люди стали технически более грамотными, да и персональный компьютер уже не является роскошью. А значит, тем милым и наивным стереотипам, на которых строился первый "Трон", в продолжении не место. Но как, в таком случае, снять хорошее современное кино, при этом не утратив атмосферы первой части?

"Трон: Наследие" рассчитан, конечно же, в первую очередь на тех кто смотрел и кому понравилась первая часть. В фильме просто запредельное количество отсылок к первому "Трону": начиная от многотонной красной "задней дверцы" в небоскреб компании "Энком" и заканчивая не столь очевидными вещами типа позы героя, стоящего в луче связи с внешним миром. Но это не главное.

Технически фильм, подобно предшественнику, безупречен. Бюджет, естественно, не аватаровский (170 млн. долларов у "Наследия", 237 млн. долларов, если не вру, у "Аватара"), но потрачен с умом, хотя это мягко сказано. Розовых картонных танков не замечено, зато замечены полностью компьютерные, но, тем не менее, великолепные светоциклы и светолеты, отличные драки на дисках, а главное, просто УМОПОМРАЧИТЕЛЬНЫЕ, красивые до безумия световые спецэффекты. Короче говоря, кланяюсь до самой земли работавшим над этим фильмом компьютерщикам. Но это тоже не главное.

Положение усугубляется талантливым оператором и не менее талантливым режиссером: завораживающие ракурсы (летающая тюрьма, спускающаяся на главгероя с неба; лежащая на диване девушка; битва на светоциклах... ммм... это просто волшебство, которое даже и не снилось Гарри Поттеру и работающим над ним Дэвиду Йетсу и компании ), мастерские крупные планы и гораздо лучшая по сравнению с первым фильмом игра актеров (Джефф Бриджес в концовке особенно хорош в обеих своих ипостасях) - все это говорит о том, что люди честно отрабатывают свой хлеб (и даже больше - они этой работой увлечены, она им нравится), а не поднимают отечественный кинематограф при помощи предсмертных сисек за миллиард. Но и это не главное.

А главное то, что проведена работа над ошибками первого "Трона" - сценарием и музыкой. Конечно же, можно сказать, что сюжет в целом и его завязка в частности стандартны и банальны - и, в общем-то, это будет верным утверждением. Той оригинальности, что была у предшественника, тут нет и в помине. Но зато сам сценарий по сравнению с первой частью совершил гигантский скачок вперед: нормальная подача сюжета; по-прежнему односложные диалоги теперь хотя бы осмысленны; у персонажей появились эмоции и относительно обдуманные линии поведения - одним словом, сценарий не то что бы идеален, но близок к голливудским стандартам, и это позволяет сохранить интерес к происходящему на экране. Зато к музыке придраться совершенно невозможно. Ибо это что-то с чем-то. Я не думаю, что сильно ошибусь, если скажу, что саундтрек к фильму "Трон: Наследие" является одним из лучших саундтреков к фильмам, вышедшим за последнее десятилетие. Он просто шикарен. Daft Punk выдали нечто настолько потрясающее, нечто, настолько органично вписавшееся в видеоряд, что, вкупе с другими составляющими фильма, поступление эндорфинов в мозг во время просмотра натурально зашкаливает. Более того, это первый за многие годы фильм, в котором я смотрел... титры. И не потому что они такие интересные (интересные титры вообще только у Джекки Чана бывают), а именно из-за музыки. Завораживает. В общем, честь французским диджеям и хвала, как, впрочем, и тому человеку, который додумался пригласить их в работу над фильмом.

Одни словом, "Трон: Наследие" получился идеальным преемником: как говорится, быстрее, выше, сильнее. И, хотя кино и не без изъяна (и высшего балла, в принципе, не заслуживает), я не могу закрыть глаза при виде результатов искреннего старания создателей, так же, как и не могу заткнуть пальцами уши при звуках местной музыки.

5 из 5

Ибо это и в самом деле наследие. Такое, каким оно и должно быть.

www.fast-torrent.ru

Скачать фильм Трон: Наследие (2010) через торрент

gig-torrent.net

12 января 2016 11:05 Трон: Наследие / TRON: Legacy (2010) BDRip 720p от HELLYWOOD | IMAX | Лицензия .torrent   [Информация о файле (нажмите для просмотра)] Перевод: Профессиональный (полное дублирование) [лицензия BD CEE]Субтитры: Русские (полные + форс.), русские (Нурмухаметов), украинские (полные + форс.), английские (Full + SDH + SDH-Colored)Качество: BDRip 720pФормат: MKVВидео: х.264, 1280x720 (16:9), 23,976 fps, 4414 kbps, 0.200 bit/pixelАудио#1: 48 kHz, AC3 Dolby Digital, 3/2 (L,C,R,l,r) + LFE ch, 640.00 kbps |RUSАудио#2: 48 kHz, AC3 Dolby Digital, 3/2 (L,C,R,l,r) + LFE ch, 640.00 kbps |UKRАудио#3: 48 kHz, AC3 Dolby Digital, 3/2 (L,C,R,l,r) + LFE ch, 640.00 kbps |ENG 5,54 Gb 77 6
12 января 2016 11:05 Трон: Наследие / TRON: Legacy (2010) BDRip-AVC [Hi10P] | D | IMAX .torrent   [Информация о файле (нажмите для просмотра)] Перевод: Дублированный (BD CEE)Субтитры: русские (2 вида), украинские (2 вида), английскиеФормат: MKVКачество: BDRip-AVCВидео: 768x432 (16:9), 23.976 fps, ~1300 kbps (crf 16.5), 0,165 bit/pixelАудио #1: Русский, AAC-HE, 6 chnls, ~224 kbps |DUB, BD CEEАудио #2: Украинский, AAC-HE, 6 chnls, ~224 kbps |DUB, BD CEE | ОтдельноАудио #3: Английский, AAC-HE, 6 chnls, ~224 kbps |Original | Отдельно 1,37 Gb 29 5
12 января 2016 11:05 Трон: Наследие / TRON: Legacy (2010) BDRip-AVC от HQCLUB | IMAX | Лицензия .torrent   [Информация о файле (нажмите для просмотра)] Перевод: Профессиональный (полное дублирование),BD EURСубтитры: русские (полные, форсированные), украинские (полные, форсированные), английские (полные, полные SDH)Формат: MKVКачество: BDRip-AVC (источник / Blu-ray EUR / 1080p)Видео: 1152x648 (16:9), 23.976 fps, MPEG-4 AVC, ~3353 kbps avg, 0.187 bit/pixelАудио #1: 48 kHz, AC3 Dolby Digital, 3/2 (L,C,R,l,r) + LFE ch, ~448 kbps avg (DUB)Аудио #2: 48 kHz, AC3 Dolby Digital, 3/2 (L,C,R,l,r) + LFE ch, ~448 kbps avg (ENG)Аудио #3: 48 kHz, AC3 Dolby Digital, 3/2 (L,C,R,l,r) + LFE ch, ~448 kbps avg (UKR)(отдельно)Видео: Идентификатор : 1 Формат : AVC Формат/Информация : Advanced Video Codec Профиль формата : [email protected] Параметр CABAC формата : Да Параметр ReFrames формата : 11 кадров Идентификатор кодека : V_MPEG4/ISO/AVC Продолжительность : 2 ч. 5 м. Битрейт : 3353 Кбит/сек Ширина : 1152 пикселя Высота : 648 пикселей Соотношение сторон : 16:9 Режим частоты кадров : Постоянный Частота кадров : 23,976 кадра/сек Цветовое пространство : YUV Субдискретизация насыщенности : 4:2:0 Битовая глубина : 8 бит Тип развёртки : Прогрессивная Бит/(Пиксели*Кадры) : 0.187 Размер потока : 2,93 Гбайт (77%) Заголовок : Трон: Наследие / TRON: Legacy [IMAX] (2010) BDRip-AVC by HQCLUB [Elheym] Библиотека кодирования : x264 core 144 r2525kMod 40bb568 Настройки программы : cabac=1 / ref=11 / deblock=1:-2:-1 / analyse=0x3:0x133 / me=umh / subme=11 / psy=1 / fade_compensate=0.00 / psy_rd=1.05:0.00 / mixed_ref=1 / me_range=32 / chroma_me=1 / trellis=2 / 8x8dct=1 / cqm=0 / deadzone=21,11 / fast_pskip=0 / chroma_qp_offset=-4 / threads=6 / lookahead_threads=1 / sliced_threads=0 / nr=0 / decimate=0 / interlaced=0 / bluray_compat=0 / constrained_intra=0 / fgo=0 / bframes=12 / b_pyramid=2 / b_adapt=2 / b_bias=0 / direct=1 / weightb=1 / open_gop=0 / weightp=2 / keyint=230 / keyint_min=23 / scenecut=40 / intra_refresh=0 / rc_lookahead=40 / rc=crf / mbtree=0 / crf=18.5400 / qcomp=0.70 / qpmin=0 / qpmax=69 / qpstep=4 / vbv_maxrate=50000 / vbv_bufsize=62500 / crf_max=0.0 / nal_hrd=none / filler=0 / ip_ratio=1.40 / pb_ratio=1.30 / aq=2:0.90 Язык : English Default : Да Forced : НетАудио #1: Идентификатор : 2 Формат : AC-3 Формат/Информация : Audio Coding 3 Расширение режима : CM (complete main) Параметр Endianness формата : Big Идентификатор кодека : A_AC3 Продолжительность : 2 ч. 5 м. Вид битрейта : Постоянный Битрейт : 448 Кбит/сек Каналы : 6 каналов Расположение каналов : Front: L C R, Side: L R, LFE Частота : 48,0 КГц Битовая глубина : 16 бит Метод сжатия : С потерями Размер потока : 401 Мбайт (10%) Заголовок : АС3 5.1 @ 448 kbps - Dub, BD EUR Язык : Russian Default : Нет Forced : НетАудио #2: Идентификатор : 3 Формат : AC-3 Формат/Информация : Audio Coding 3 Расширение режима : CM (complete main) Параметр Endianness формата : Big Идентификатор кодека : A_AC3 Продолжительность : 2 ч. 5 м. Вид битрейта : Постоянный Битрейт : 448 Кбит/сек Каналы : 6 каналов Расположение каналов : Front: L C R, Side: L R, LFE Частота : 48,0 КГц Битовая глубина : 16 бит Метод сжатия : С потерями Размер потока : 401 Мбайт (10%) Заголовок : АС3 5.1 @ 448 kbps - Original Язык : English Default : Нет Forced : Нет 3,79 Gb 27 2
12 января 2016 11:05 Трон: Наследие / Tron: Legacy (2010) HDRip-AVC | IMAX Version .torrent   [Информация о файле (нажмите для просмотра)] Перевод: ДубляжКодек: x264Качество: HDRip-AVC[BDRip 1080p]Видео: x.264, 640х360 (4:2:0), 23.976 fps, 777 Kbps, 0.141 bit/pixelЗвук: AАС-HE, 48.0 KHz, 60 Kbps, 2 channelsСубтитры: Русские (Форсированные, полные), Украинские (Форсированные, полные), Английские (Полные) 750,04 Mb 20 3
12 января 2016 11:05 Трон: Наследие / TRON: Legacy (2010) BDRip от New-Team | D | IMAX .torrent   [Информация о файле (нажмите для просмотра)] Перевод: Профессиональный (дублированный)Видео: 720x400 (1.80:1), 23.976 fps, XviD build 65, 2042 kbps avg, 0.29 bit/pixelАудио #1: AC3 Dolby Digital, 48 kHz, 6 ch, 448 kbps |DubАудио #2: AC3 Dolby Digital, 48 kHz, 6 ch, 448 kbps | Original (Английский) 2,18 Gb 163 12
12 января 2016 11:05 Трон: Наследие / TRON: Legacy (2010) BDRip 1080p | IMAX | 3D-Video .torrent   [Информация о файле (нажмите для просмотра)] Перевод: Профессиональный (дублированный) + украинский дубляжКачество: BDRip-AVC, 1080pКонтейнер: MKVВидео: AVC / / 23,976 fps / 1920х1080p / 12,8 Mbps / 0.257 / [IMAX]Аудио 1: AC3 / 5.1 ch / 640 kbps /Русский дубляж BD CEEАудио 2: AC3 / 5.1 ch / 640 kbps /Украинский дубляж BD CEEАудио 3: AC3 / 5.1 ch / 640 kbps /Английский Original BD CEEСубтитры: русские (полные и форсарованные), украинские (полные и форсарованные), английские полныеsoftsub (SRT)Видео: Идентификатор : 1 Формат : AVC Формат/Информация : Advanced Video Codec Профиль формата : [email protected] Параметр CABAC формата : Да Параметр ReFrames формата : 4 кадра Идентификатор кодека : V_MPEG4/ISO/AVC Продолжительность : 2 ч. 5 м. Битрейт : 12,8 Мбит/сек Ширина : 1920 пикселей Высота : 1080 пикселей Соотношение сторон : 16:9 Режим частоты кадров : Постоянный Частота кадров : 23,976 кадра/сек Цветовое пространство : YUV Субдискретизация насыщенности : 4:2:0 Битовая глубина : 8 бит Тип развёртки : Прогрессивная Бит/(Пиксели*Кадры) : 0.257 Размер потока : 11,2 Гбайт (85%) Заголовок : Tron: Legacy 3D (2010) Библиотека кодирования : x264 core 128 r2216 198a7ea Настройки программы : cabac=1 / ref=4 / deblock=1:-3:-3 / analyse=0x3:0x113 / me=umh / subme=9 / psy=1 / psy_rd=1.00:0.15 / mixed_ref=1 / me_range=16 / chroma_me=1 / trellis=2 / 8x8dct=1 / cqm=0 / deadzone=21,11 / fast_pskip=1 / chroma_qp_offset=-3 / threads=3 / lookahead_threads=1 / sliced_threads=0 / slices=4 / nr=0 / decimate=1 / interlaced=0 / bluray_compat=0 / constrained_intra=0 / bframes=6 / b_pyramid=2 / b_adapt=2 / b_bias=0 / direct=3 / weightb=1 / open_gop=0 / weightp=2 / keyint=240 / keyint_min=23 / scenecut=40 / intra_refresh=0 / rc_lookahead=60 / rc=crf / mbtree=1 / crf=17.0 / qcomp=0.70 / qpmin=0 / qpmax=69 / qpstep=4 / vbv_maxrate=40000 / vbv_bufsize=40000 / crf_max=0.0 / nal_hrd=none / frame-packing=4 / ip_ratio=1.40 / aq=1:0.70 Язык : English Default : Да Forced : НетАудио #1: Идентификатор : 2 Формат : AC-3 Формат/Информация : Audio Coding 3 Расширение режима : CM (complete main) Параметр Endianness формата : Big Идентификатор кодека : A_AC3 Продолжительность : 2 ч. 5 м. Вид битрейта : Постоянный Битрейт : 640 Кбит/сек Каналы : 6 каналов Расположение каналов : Front: L C R, Side: L R, LFE Частота : 48,0 КГц Битовая глубина : 16 бит Метод сжатия : С потерями Размер потока : 573 Мбайт (4%) Заголовок : AC3 / 5.1 ch / 640 kbps / Русский дубляж BD Язык : Russian Default : Да Forced : НетАудио #2: Идентификатор : 3 Формат : AC-3 Формат/Информация : Audio Coding 3 Расширение режима : CM (complete main) Параметр Endianness формата : Big Идентификатор кодека : A_AC3 Продолжительность : 2 ч. 5 м. Вид битрейта : Постоянный Битрейт : 640 Кбит/сек Каналы : 6 каналов Расположение каналов : Front: L C R, Side: L R, LFE Частота : 48,0 КГц Битовая глубина : 16 бит Метод сжатия : С потерями Размер потока : 573 Мбайт (4%) Заголовок : AC3 / 5.1 ch / 640 kbps / Украинский дубляж BD Язык : Ukrainian Default : Нет Forced : НетАудио #3: Идентификатор : 4 Формат : AC-3 Формат/Информация : Audio Coding 3 Расширение режима : CM (complete main) Параметр Endianness формата : Big Идентификатор кодека : A_AC3 Продолжительность : 2 ч. 5 м. Вид битрейта : Постоянный Битрейт : 640 Кбит/сек Каналы : 6 каналов Расположение каналов : Front: L C R, Side: L R, LFE Частота : 48,0 КГц Битовая глубина : 16 бит Метод сжатия : С потерями Размер потока : 573 Мбайт (4%) Заголовок : AC3 / 5.1 ch / 640 kbps / Original BD Язык : English Default : Нет Forced : Нет 13,13 Gb 73 7
12 января 2016 11:05 Трон: Наследие / TRON: Legacy (2010) BDRip 1080p | IMAX .torrent   [Информация о файле (нажмите для просмотра)] Перевод: Дублированный (лицензия)Кодек: x264Качество: BDRip (источник: Blu-ray Disc)Видео: 1920x1080 (16:9), 23.976 fps, 7600 kbpsАудио #1: AC-3, 6 ch, 640 kbps (Rus)Аудио #2: AC-3, 6 ch, 640 kbps (Eng)Субтитры: Русские (форс,полные), АнглийскиеВидео: Идентификатор : 1 Формат : AVC Формат/Информация : Advanced Video Codec Профиль формата : [email protected] Параметр CABAC формата : Да Параметр ReFrames формата : 4 кадра Идентификатор кодека : V_MPEG4/ISO/AVC Продолжительность : 2 ч. 5 м. Битрейт : 7600 Кбит/сек Ширина : 1920 пикселей Высота : 1080 пикселей Соотношение сторон : 16:9 Частота кадров : 23,976 кадра/сек Цветовое пространство : YUV Субдискретизация насыщенности : 4:2:0 Битовая глубина : 8 бит Тип развёртки : Прогрессивная Бит/(Пиксели*Кадры) : 0.153 Размер потока : 6,49 Гбайт (84%) Заголовок : Release by AlexKa Библиотека кодирования : x264 core 128 r2216 198a7ea Настройки программы : cabac=1 / ref=4 / deblock=1:0:0 / analyse=0x3:0x133 / me=tesa / subme=11 / psy=1 / psy_rd=1.00:0.00 / mixed_ref=1 / me_range=32 / chroma_me=1 / trellis=2 / 8x8dct=1 / cqm=0 / deadzone=21,11 / fast_pskip=0 / chroma_qp_offset=-2 / threads=12 / lookahead_threads=2 / sliced_threads=0 / nr=0 / decimate=0 / interlaced=0 / bluray_compat=0 / constrained_intra=0 / bframes=7 / b_pyramid=2 / b_adapt=2 / b_bias=0 / direct=3 / weightb=1 / open_gop=0 / weightp=2 / keyint=240 / keyint_min=23 / scenecut=40 / intra_refresh=0 / rc=2pass / mbtree=0 / bitrate=7600 / ratetol=1.0 / qcomp=0.60 / qpmin=0 / qpmax=69 / qpstep=4 / cplxblur=20.0 / qblur=0.5 / ip_ratio=1.40 / pb_ratio=1.30 / aq=1:0.90 Язык : EnglishАудио #1: Идентификатор : 2 Формат : AC-3 Формат/Информация : Audio Coding 3 Расширение режима : CM (complete main) Идентификатор кодека : A_AC3 Продолжительность : 2 ч. 5 м. Вид битрейта : Постоянный Битрейт : 640 Кбит/сек Каналы : 6 каналов Расположение каналов : Front: L C R, Side: L R, LFE Частота : 48,0 КГц Битовая глубина : 16 бит Метод сжатия : С потерями Размер потока : 573 Мбайт (7%) Заголовок : Rus Язык : RussianАудио #2: Идентификатор : 3 Формат : AC-3 Формат/Информация : Audio Coding 3 Расширение режима : CM (complete main) Идентификатор кодека : A_AC3 Продолжительность : 2 ч. 5 м. Вид битрейта : Постоянный Битрейт : 640 Кбит/сек Каналы : 6 каналов Расположение каналов : Front: L C R, Side: L R, LFE Частота : 48,0 КГц Битовая глубина : 16 бит Метод сжатия : С потерями Размер потока : 573 Мбайт (7%) Заголовок : Eng Язык : English 7,76 Gb 185 15
12 января 2016 11:05 Трон: Наследие / TRON: Legacy (2011) HDRip от Scarabey | Лицензия | IMAX .torrent   [Информация о файле (нажмите для просмотра)] Перевод: Профессиональный (дублированный)Видео: 720x400 (1.80:1), 23.976 fps, XviD build 50 ~2035 kbps avg, 0.29 bit/pixelАудио #1: 48 kHz, AC3 Dolby Digital, 3/2 (L,C,R,l,r) + LFE ch, ~448.00 kbps avgАудио #2: 48 kHz, AC3 Dolby Digital, 3/2 (L,C,R,l,r) + LFE ch, ~448.00 kbps avg -оригинал - отдельно 2,57 Gb 17 7
12 января 2016 11:05 Трон: Наследие / TRON: Legacy (2010) BDRip-AVC от HQ-ViDEO | IMAX | Лицензия .torrent   [Информация о файле (нажмите для просмотра)] Перевод: Русский дублированный перевод + Оригинальная дорожка (Английский)Субтитры: Русские (полные, форсированные), Английские.Качество: BDRip-AVC (Исходник: Blu-ray)Формат: MKV; MPEG-4 AVC; x264 codecВидео: 1152 x 648; 23.976 fps; 4105 kbps; 0.229 bit/pixelЗвук #1: Russian AC3 Dolby Digital; 448 kbps; 5.1 Ch; 48 kHzЗвук #2: English AC3 Dolby Digital; 448 kbps; 5.1 Ch; 48 kHzСубтитры: English; Russian; Russian forced 4,37 Gb 9 2
12 января 2016 11:04 Трон: Наследие / TRON: Legacy (2010) BDRip [720p] от HQRips .torrent   9,44 Gb 2 1
12 января 2016 11:04 Трон: Наследие / TRON: Legacy (2010) HDRip | IMAX версия .torrent   [Информация о файле (нажмите для просмотра)] Перевод: Профессиональный (дублированный)Видео: 624x352 (1.77:1), 23.976 fps, XviD build 50 ~705 kbps avg, 0.13 bit/pixelАудио: 48 kHz, MPEG Layer 3, 2 ch, ~128.00 kbps avg 754,6 Mb 22 5
12 января 2016 11:04 Трон: Наследие / TRON: Legacy (2010) BDRip-AVC 720p | 3D .torrent   [Информация о файле (нажмите для просмотра)] Перевод: Профессиональный (полное дублирование)Качество: BDRip-AVC 3DФормат: MKVВидео: x264, 1280x720, 23.976 fps, 2049 KbpsАудио: AC3, 6 ch, 48 KHz, 384 kbps 2,12 Gb 15 2
12 января 2016 11:04 Трон: Наследие / TRON: Legacy [IMAX] (2010) BDRip-AVC от HELLYWOOD .torrent   [Информация о файле (нажмите для просмотра)] Контейнер: MKVКачество: BDRip-AVCВидео: , 1088х612 (1,77:1) at 23.976 fps, ~2802 Kbps avgАудио#1: Russian AAC-LC, 288 Kbps, 48 kHz, 6 channels [Дублированный]Аудио#2: English AAC-LC, 242 Kbps, 48 kHz, 6 channels [Оригинал]Субтитры#1: RussianСубтитры#2: RussianСубтитры#3: English 2,91 Gb 11 5
12 января 2016 11:04 Трон: Наследие / TRON: Legacy (2010) BDRip от alldown | КПК .torrent   [Информация о файле (нажмите для просмотра)] Перевод: Профессиональный (дублированный)Формат: mp4Кодек: MPEG-4 (DivX)Качество: BDRip [Исходник BDRip]Видео: 640x272, 23.976 fps; ~512 kbps avgЗвук: 48000 Hz, AAC, ~96.00 kbps avgСубтитры: нет 547,1 Mb 8 1
12 января 2016 11:04 Трон: Наследие / TRON: Legacy [IMAX] (2010) BDRip от HELLYWOOD .torrent   2,57 Gb 1 3
12 января 2016 11:04 Трон: Наследие / TRON: Legacy (2010) BDRip 720p от FireBit .torrent   [Информация о файле (нажмите для просмотра)] Перевод: Профессиональный (полное дублирование) Лицензия!Качество: BDRip 720pВидео: .mkv (H.264), 1280 x 720 (1.778) at 23.976 fps, 2286 Кбит/секЗвук: Русский / Украинский, AC-3 at 448 Кбит/сек, 6 канала(ов), 48,0 КГц | Лицензия!Субтитры: Русские (форсированные + полные), Английские 2,84 Gb 11 3
12 января 2016 11:04 Трон: Наследие / TRON: Legacy (2010) Blu-Ray Remux .torrent   [Информация о файле (нажмите для просмотра)] Перевод: Дублированный [ЛИЦЕНЗИЯ] (Blu-Ray EUR)Видео: MPEG-4 AVC, 23967 Кбит/с, 1920x1080, 23.976 кадр/сАудио 1: Русский, AC3, 6 каналов, 640 Кбит/сАудио 2: Украинский, AC3, 6 каналов, 640 Кбит/с Аудио 3: Английский, DTS-HD, 8 каналов, 3304 Кбит/сСубтитры: Русские (полные, форсированные), украинские (полные, форсированные), английские, эстонские, греческие, итальянские, латышские, литовские, португальские 26,6 Gb 10 6
12 января 2016 11:04 Трон: Наследие / TRON: Legacy (2010) HDRip-AVC | Лицензия .torrent   [Информация о файле (нажмите для просмотра)] Перевод: Профессиональный (дублированный) ЛицензияВидео: AVC; 1024x576; 16:9; 23,976 fps; 1730 kb/sАудио: AC3 Dolby Digital; 48 KHz; 384 kb/s; 3/2 (L,C,R,l,r) + LFE chАудио 2: AC3 Dolby Digital; 48 KHz; 384 kb/s; 3/2 (L,C,R,l,r) + LFE ch,ENG 2,18 Gb 4 2
12 января 2016 11:04 Трон: Наследие / TRON: Legacy (2010) BDRip 1080p .torrent   [Информация о файле (нажмите для просмотра)] Перевод: Дублированный (Blu-Ray EUR)] [Лицензия]Субтитры: Русские (полные, форсированные), английскиеКачество: BDRip (1080p)Видео: MPEG-4 AVC, 13.4 Mбит/с, 1920x1080, 23.976 кадр/секАудио: Русский (AC3, 6 ch, 640 Кбит/с), английский (DTS, 6 ch, 1510 Кбит/с)Видео: Идентификатор : 1 Формат : AVC Формат/Информация : Advanced Video Codec Профиль формата : [email protected] Параметр CABAC формата : Да Параметр ReFrames формата : 4 кадра Идентификатор кодека : V_MPEG4/ISO/AVC Продолжительность : 2 ч. 5 м. Битрейт : 13,4 Мбит/сек Ширина : 1920 пикселей Высота : 1080 пикселей Соотношение сторон : 16:9 Частота кадров : 23,976 кадра/сек Цветовое пространство : YUV Субдискретизация насыщенности : 4:2:0 Битовая глубина : 8 бит Тип развёртки : Прогрессивная Бит/(Пиксели*Кадры) : 0.270 Размер потока : 11,5 Гбайт (84%) Заголовок : Tron.Legacy.2010 Библиотека кодирования : x264 core 107 r1766 f9f0035 Настройки программы : cabac=1 / ref=4 / deblock=1:-3:-3 / analyse=0x3:0x113 / me=umh / subme=10 / psy=1 / psy_rd=1.05:0.10 / mixed_ref=1 / me_range=48 / chroma_me=1 / trellis=2 / 8x8dct=1 / cqm=2 / deadzone=21,11 / fast_pskip=0 / chroma_qp_offset=-2 / threads=12 / sliced_threads=0 / nr=0 / decimate=1 / interlaced=0 / constrained_intra=0 / bframes=6 / b_pyramid=2 / b_adapt=2 / b_bias=0 / direct=3 / weightb=1 / open_gop=0 / weightp=2 / keyint=250 / keyint_min=23 / scenecut=40 / intra_refresh=0 / rc_lookahead=60 / rc=2pass / mbtree=1 / bitrate=13423 / ratetol=1.0 / qcomp=0.70 / qpmin=10 / qpmax=51 / qpstep=4 / cplxblur=20.0 / qblur=0.5 / vbv_maxrate=40000 / vbv_bufsize=30000 / ip_ratio=1.40 / aq=1:1.00 / nal_hrd=none Язык : EnglishАудио #1: Идентификатор : 2 Формат : AC-3 Формат/Информация : Audio Coding 3 Расширение режима : CM (complete main) Идентификатор кодека : A_AC3 Продолжительность : 2 ч. 5 м. Вид битрейта : Постоянный Битрейт : 640 Кбит/сек Каналы : 6 каналов Расположение каналов : Front: L C R, Side: L R, LFE Частота : 48,0 КГц Битовая глубина : 16 бит Метод сжатия : С потерями Размер потока : 573 Мбайт (4%) Заголовок : AC3 5.1 @ 640 kbps - Dub, BluRay Язык : RussianАудио #2: Идентификатор : 3 Формат : DTS Формат/Информация : Digital Theater Systems Идентификатор кодека : A_DTS Продолжительность : 2 ч. 5 м. Вид битрейта : Постоянный Битрейт : 1510 Кбит/сек Каналы : 6 каналов Расположение каналов : Front: L C R, Side: L R, LFE Частота : 48,0 КГц Битовая глубина : 24 бит Метод сжатия : С потерями Размер потока : 1,32 Гбайт (10%) Заголовок : DTS-CORE 1536K Язык : English 13,62 Gb 41 6
12 января 2016 11:04 Трон: Наследие / TRON: Legacy (2010) BDRip 720p .torrent   [Информация о файле (нажмите для просмотра)] Перевод: Дублированный (Blu-Ray EUR) [Лицензия]Субтитры: Русские (полные, форсированные), английскиеКачество: BDRip (720p)Видео: MPEG-4 AVC, 5965 Кбит/с, 1280x720, 23.976 кадр/секАудио: Русский (AC3, 6 ch, 640 Кбит/с), английский (DTS, 6 ch, 1510 Кбит/с) 7,1 Gb 6 2
12 января 2016 11:04 Трон: Наследие / TRON: Legacy (2010) HDRip .torrent   [Информация о файле (нажмите для просмотра)] Перевод: Профессиональный (дублированный)[Лицензия]Видео: 720x400 (1.80:1), 23.976 fps, XviD MPEG-4 ~1174 kbps avg, 0.17 bit/pixelАудио: 48 kHz, AC3 Dolby Digital, 3/2 (L,C,R,l,r) + LFE ch, ~384.00 kbps avg 1,37 Gb 355 26

Скачать Трон: Наследие через торрент

Категория: Фильмы 2541 0 Торрент добавлен: 18-04-2015 Рейтинг:

2010 / фантастика, боевик / 125 мин.Производство: США Режиссер: Джозеф Косински В ролях: Джефф Бриджес, Гаррет Хедлунд, Оливия Уайлд, Брюс Бокслейтнер, Джеймс Фрейн, Бо Гарретт, Майкл Шин, Серинда Свон, Йайа ДаКоста, Элизабет Мэтис

Сэм Флинн 20 лет назад потерял своего папу, которого до сих пор считали пропавшем безвести. Поиски отца Сэма уже давно прекратились, но недавно его другу пришло смс с номера телефона, принадлежавшего папе Сэма. Теперь у Сэма вновь появилась маленькая зацепка и возможно она раскроет двадцатилетнюю тайну. Он тут же направился в офис телефонной компании, а оттуда попадает в виртуальный мир, созданный когда-то папой Сэма.

Трейлер к фильму Трон: Наследие

Трон: Наследие скачать торрент

Видео: MPEG-4 AVC, 23967 Кбит/с, 1920x1080, 23.976 кадр/сАудио 1: Русский, AC3, 6 каналов, 640 Кбит/сДублированный [ЛИЦЕНЗИЯ] 26,60 Gb

скачать

3DФормат: MKVВидео кодек: AVCАудио кодек: AC3Видео: AVC / [email protected] / 23,976 fps / 1920х1080p / 12,8 Mbps / 0.257 / [IMAX] Аудио: Аудио 1: AC3 / 5.1 ch / 640 kbps / Русский дубляж BD CEE

13,13 Gb

Формат: MKVВидео кодек: H.26xАудио кодек: AC3Видео: 1920x1080 (16:9), 23.976 fps, 4363 kbps Аудио: 48 kHz, AC-3, 6 ch, 640 kbpsПроф. (полное дублирование)

4,37 Gb

Качество видео: HDRipФормат видео: AVIВидео: 720x400 (1.80:1), 23.976 fps, XviD MPEG-4 ~1174 kbps avg, 0.17 bit/pixelАудио: 48 kHz, AC3 Dolby Digital, 3/2 (L,C,R,l,r) + LFE ch, ~384.00 kbps avgПроф. (полное дублирование)

скачать

Вы находитесь на странице, где можете совершенно бесплатно скачать фильм Трон: Наследие в хорошем качестве через торрент, в любом формате, который больше всего вам на данный момент подходит. Скачивание осуществляется через торрент, что означает максимально высокую скорость загрузки. Желаем Вам приятного просмотра!. Не забудь поделиться своими впечатлениями после того как посмотришь фильм Трон: Наследие.

Информация Посетители, находящиеся в группе Гости, не могут оставлять комментарии к данной публикации.

psp-gu.ru

Наследие через торрент в хорошем качестве бесплатно BDRip-AVC-Hi10P

GeneralUnique ID : 193077005696438909093279548364317427223 (0x91414757DB5CC025BCC4C56A5C228617)Complete name : K:\Tron Legacy (2010) AVC Hi10P\Tron.Legacy.2010.{am}.768.Hi10P.Rus.Sub.mkvFormat : MatroskaFormat version : Version 2File size : 1.37 GiBDuration : 2h 5mnOverall bit rate : 1 569 KbpsMovie name : Tron: Legacy (2010) - Rip by -{am}-Encoded date : UTC 2015-02-05 15:28:25Writing application : mkvmerge v5.8.0 ('No Sleep / Pillow') built on Sep 2 2012 15:37:04Writing library : libebml v1.2.3 + libmatroska v1.3.0Attachements : tron-legacy.cover.jpg

VideoID : 1Format : AVCFormat/Info : Advanced Video CodecFormat profile : High [email protected] settings, CABAC : YesFormat settings, ReFrames : 5 framesCodec ID : V_MPEG4/ISO/AVCDuration : 2h 5mnBit rate : 1 314 KbpsWidth : 768 pixelsHeight : 432 pixelsDisplay aspect ratio : 16:9Frame rate mode : ConstantFrame rate : 23.976 fpsColor space : YUVChroma subsampling : 4:2:0Bit depth : 10 bitsScan type : ProgressiveTitle : Tron.Legacy.2010.{am}.768.Hi10P.Rus.SubBits/(Pixel*Frame) : 0.165Stream size : 1.15 GiB (98%)Writing library : x264_10 - core 144 r2525M 40bb568Encoding settings : cabac=1 / ref=6 / deblock=1:-2:-2 / analyse=0x3:0x133 / me=umh / subme=9 / psy=1 / psy_rd=1,00:0,00 / mixed_ref=1 / me_range=32 / chroma_me=1 / trellis=2 / 8x8dct=1 / cqm=1 / deadzone=21,11 / fast_pskip=0 / chroma_qp_offset=-2 / threads=6 / lookahead_threads=6 / sliced_threads=0 / slices=6 / nr=0 / decimate=1 / interlaced=0 / bluray_compat=0 / constrained_intra=0 / bframes=6 / b_pyramid=1 / b_adapt=2 / b_bias=0 / direct=3 / weightb=1 / open_gop=0 / weightp=2 / keyint=230 / keyint_min=23 / scenecut=40 / intra_refresh=0 / rc_lookahead=60 / rc=crf / mbtree=1 / crf=16,5 / qcomp=0,60 / qpmin=3 / qpmax=51 / qpstep=2 / vbv_maxrate=9000 / vbv_bufsize=1835 / crf_max=30,0 / nal_hrd=none / filler=0 / ip_ratio=1,40 / aq=3:0,80 / zones=173522,180027,q=40Default : YesForced : NoColor primaries : BT.709Transfer characteristics : BT.709Matrix coefficients : BT.709Color range : LimitedDATE : -1

AudioID : 2Format : AACFormat/Info : Advanced Audio CodecFormat profile : HE-AAC / LCCodec ID : A_AACDuration : 2h 5mnChannel(s) : 6 channelsChannel positions : Front: L C R, Side: L R, LFESampling rate : 48.0 KHz / 24.0 KHzCompression mode : LossyDelay relative to video : -52msTitle : DUB, BD CEELanguage : RussianDefault : YesForced : No

Text #1ID : 3Format : UTF-8Codec ID : S_TEXT/UTF8Codec ID/Info : UTF-8 Plain TextTitle : ForcedLanguage : RussianDefault : YesForced : No

Text #2ID : 4Format : UTF-8Codec ID : S_TEXT/UTF8Codec ID/Info : UTF-8 Plain TextTitle : FullLanguage : RussianDefault : NoForced : No

Text #3ID : 5Format : UTF-8Codec ID : S_TEXT/UTF8Codec ID/Info : UTF-8 Plain TextTitle : ForcedLanguage : UkrainianDefault : NoForced : No

Text #4ID : 6Format : UTF-8Codec ID : S_TEXT/UTF8Codec ID/Info : UTF-8 Plain TextTitle : FullLanguage : UkrainianDefault : NoForced : No

Text #5ID : 7Format : UTF-8Codec ID : S_TEXT/UTF8Codec ID/Info : UTF-8 Plain TextLanguage : EnglishDefault : NoForced : No

Menu00:00:00.000 : en:The Same Team / Одна команда00:04:07.163 : en:All Grown Up / Все взрослеют00:14:44.133 : en:A Visit from a Friend / Визит друга00:23:15.602 : en:The Grid / Система00:26:52.694 : en:Games / Игры00:36:12.211 : en:Not Your Father / Я не твой отец00:38:35.980 : en:Lightcycle Battle / Битва на светоциклах00:46:52.726 : en:The Real Kevin Flynn / Настояший Кевин Флинн00:53:03.763 : en:Father's Wisdom / Отцовская мудрость01:04:54.181 : en:Castor / Кастор01:13:47.422 : en:Zuse / Зюс01:19:00.944 : en:She's An ISO / Она – изоморф!01:22:40.455 : en:Catching Up / Погоня01:25:50.895 : en:A Deal / Сделка01:28:11.828 : en:A Rescue / Спасение01:31:42.413 : en:Building An Army / Создание армии01:43:13.061 : en:Air Battle / Битва в воздухе01:48:18.033 : en:Flynn's Sacrifice / Жертва Флинна01:54:48.381 : en:You Were Right / Ты был прав01:58:03.659 : en:End Credits / Финальные титры

piratbit.ru

Наследие через торрент в хорошем качестве бесплатно 720p

GeneralUnique ID : 237054578066211277116726762993568177021 (0xB2570D10A43C29B0B02263F952F7DB7D)Complete name : D:\Моя музыка\Трон 2 720p 60fps.mkvFormat : MatroskaFormat version : Version 4 / Version 2File size : 7.11 GiBDuration : 2h 5mnOverall bit rate : 8 133 KbpsEncoded date : UTC 2014-07-05 06:01:58Writing application : mkvmerge v7.0.0 ('Where We Going') 64bit built on Jun 9 2014 15:16:27Writing library : libebml v1.3.0 + libmatroska v1.4.1DURATION : 02:05:08.704000000NUMBER_OF_FRAMES : 234647NUMBER_OF_BYTES : 600696320_STATISTICS_WRITING_APP : mkvmerge v7.0.0 ('Where We Going') 64bit built on Jun 9 2014 15:16:27_STATISTICS_WRITING_DATE_UTC : 2014-07-05 06:01:58_STATISTICS_TAGS : BPS DURATION NUMBER_OF_FRAMES NUMBER_OF_BYTES

VideoID : 1Format : AVCFormat/Info : Advanced Video CodecFormat profile : [email protected] settings, CABAC : YesFormat settings, ReFrames : 9 framesCodec ID : V_MPEG4/ISO/AVCDuration : 2h 5mnBit rate : 6 691 KbpsWidth : 1 280 pixelsHeight : 720 pixelsDisplay aspect ratio : 16:9Frame rate mode : ConstantFrame rate : 59.880 fpsOriginal frame rate : 59.940 fpsColor space : YUVChroma subsampling : 4:2:0Bit depth : 8 bitsScan type : ProgressiveBits/(Pixel*Frame) : 0.121Stream size : 5.85 GiB (82%)Writing library : x264 core 130 r2273 b3065e6Encoding settings : cabac=1 / ref=9 / deblock=1:-2:-2 / analyse=0x3:0 / me=umh / subme=9 / psy=1 / psy_rd=1.00:0.10 / mixed_ref=1 / me_range=24 / chroma_me=0 / trellis=1 / 8x8dct=1 / cqm=0 / deadzone=21,11 / fast_pskip=0 / chroma_qp_offset=-3 / threads=12 / lookahead_threads=1 / sliced_threads=0 / nr=0 / decimate=0 / interlaced=0 / bluray_compat=0 / constrained_intra=0 / bframes=6 / b_pyramid=2 / b_adapt=2 / b_bias=0 / direct=1 / weightb=1 / open_gop=0 / weightp=2 / keyint=599 / keyint_min=59 / scenecut=40 / intra_refresh=0 / rc=crf / mbtree=0 / crf=16.0 / qcomp=0.60 / qpmin=0 / qpmax=69 / qpstep=4 / ip_ratio=1.40 / pb_ratio=1.30 / aq=1:0.90Language : EnglishDefault : YesForced : NoDURATION : 02:05:08.559000000NUMBER_OF_FRAMES : 450063NUMBER_OF_BYTES : 6427695858_STATISTICS_WRITING_APP : mkvmerge v7.0.0 ('Where We Going') 64bit built on Jun 9 2014 15:16:27_STATISTICS_WRITING_DATE_UTC : 2014-07-05 06:01:58_STATISTICS_TAGS : BPS DURATION NUMBER_OF_FRAMES NUMBER_OF_BYTES

Audio #1ID : 2Format : AC-3Format/Info : Audio Coding 3Mode extension : CM (complete main)Format settings, Endianness : BigCodec ID : A_AC3Duration : 2h 5mnBit rate mode : ConstantBit rate : 640 KbpsChannel(s) : 6 channelsChannel positions : Front: L C R, Side: L R, LFESampling rate : 48.0 KHzBit depth : 16 bitsCompression mode : LossyStream size : 573 MiB (8%)Title : DubLanguage : RussianDefault : YesForced : No

Audio #2ID : 6Format : AC-3Format/Info : Audio Coding 3Mode extension : CM (complete main)Format settings, Endianness : BigCodec ID : A_AC3Duration : 2h 5mnBit rate mode : ConstantBit rate : 640 KbpsChannel(s) : 6 channelsChannel positions : Front: L C R, Side: L R, LFESampling rate : 48.0 KHzBit depth : 16 bitsCompression mode : LossyStream size : 573 MiB (8%)Title : OriginalLanguage : EnglishDefault : NoForced : No

Text #1ID : 3Format : UTF-8Codec ID : S_TEXT/UTF8Codec ID/Info : UTF-8 Plain TextTitle : ForcedLanguage : RussianDefault : YesForced : No

Text #2ID : 4Format : UTF-8Codec ID : S_TEXT/UTF8Codec ID/Info : UTF-8 Plain TextTitle : FullLanguage : RussianDefault : NoForced : No

Text #3ID : 5Format : UTF-8Codec ID : S_TEXT/UTF8Codec ID/Info : UTF-8 Plain TextTitle : FullLanguage : EnglishDefault : NoForced : No

Menu00:00:00.000 : en:The Same Team / Одна команда00:04:07.163 : en:All Grown Up / Все взрослеют00:14:44.133 : en:A Visit from a Friend / Визит друга00:23:15.602 : en:The Grid / Система00:26:52.694 : en:Games / Игры00:36:12.211 : en:Not Your Father / Я не твой отец00:38:35.980 : en:Lightcycle Battle / Битва на светоциклах00:46:52.726 : en:The Real Kevin Flynn / Настояший Кевин Флинн00:53:03.763 : en:Father's Wisdom / Отцовская мудрость01:04:54.181 : en:Castor / Кастор01:13:47.422 : en:Zuse / Зюс01:19:00.944 : en:She's An ISO / Она – изоморф!01:22:40.455 : en:Catching Up / Погоня01:25:50.895 : en:A Deal / Сделка01:28:11.828 : en:A Rescue / Спасение01:31:42.413 : en:Building An Army / Создание армии01:43:13.061 : en:Air Battle / Битва в воздухе01:48:18.033 : en:Flynn's Sacrifice / Жертва Флинна01:54:48.381 : en:You Were Right / Ты был прав01:58:03.659 : en:End Credits / Финальные титры

piratbit.ru


Смотрите также