Скачать трилогию риддик через торрент в хорошем качестве


rutor.org :: Риддик. Трилогия (Режиссёрские версии) / Riddick. Trilogy (Director's Cut) BDRip 1080p ::: Скачать торрент

main-rutor.org

Информация о фильмеНазвание: Риддик. Трилогия (Режиссёрские версии)Оригинальное название: Riddick. Trilogy (Director's Cut)Годы выхода: 2000-2013Жанр: Фантастика, боевик, триллер

Чёрная дыра (2000)

Режиссер: Дэвид ТуиВ ролях: Вин Дизель, Рада Митчелл, Коул Хаузер, Кит Дэвид, Льюис Фиц-Джералд, Клаудия Блэк, Риана Гриффит, Джон Мур, Саймон Бурк, Лес Чэнтери и др.

О фильме: В недалеком будущем космический корабль терпит бедствие, в результате чего совершает вынужденную посадку на отдаленной планете. Но в результате такой посадки погибает командир корабля, часть команды и большинство пассажиров.

Оставшиеся в живых оказываются одни на жуткой и безжизненной планете. Первое, что бросается в глаза — это то, что планета имеет три солнца, из-за чего все живое погибает в этой пустыне. Но как только планета погружается в темноту, появляются какие-то странные существа…

Страна: СШАСтудия: Polygram Filmed Entertainment, Interscope CommunicationsПродолжительность: 01:51:55Перевод: профессиональный (полное дублирование), профессиональный (многоголосый закадровый), авторский (одноголосый закадровый)

ФайлКодек: MPEG4 AVC/h.264Качество: BDRip 1080pВидео: 1920x816 (2,35:1), 10 Mbit/s, 23,976 fps.Звук: AC3, 448 Kbit/s, 48 KHz, Stereo, Russian [многоголосый закадровый (Киномания)] AC3, 448 Kbit/s, 48 KHz, Stereo, Russian [дублированный со вставками многоголосого 'Киномания'] AC3, 448 Kbit/s, 48 KHz, Stereo, Russian [одноголосый закадровый (Д.Пучков)] AC3, 448 Kbit/s, 48 KHz, Stereo, English [оригинал] Субтитры: русские (full, forced), русские (Д.Пучков), английские (full)

MediaInfo

Общее Уникальный идентификатор : 253916024285546995541773666958012394054 (0xBF06728C49CC370D883936E67EFD2A46) Полное имя : 2000 Pitch Black.mkv Формат : Matroska Версия формата : Version 4 / Version 2 Размер файла : 9,22 Гбайт Продолжительность : 1 ч. 51 м. Общий поток : 11,8 Мбит/сек Название фильма : Чёрная дыра / Pitch Black [Director's Cut] (2000) BDRip [1080p] Дата кодирования : UTC 2015-03-15 14:55:01 Программа кодирования : mkvmerge v7.7.0 ('Six Voices') 64bit built on Feb 28 2015 23:39:33 Библиотека кодирования : Lavf55.12.0

Видео Идентификатор : 1 Формат : AVC Формат/Информация : Advanced Video Codec Профиль формата : [email protected] Параметр CABAC формата : Да Параметр ReFrames формата : 4 кадра Идентификатор кодека : V_MPEG4/ISO/AVC Продолжительность : 1 ч. 51 м. Битрейт : 10000 Кбит/сек Ширина : 1920 пикселей Высота : 816 пикселей Соотношение сторон : 2,35:1 Режим частоты кадров : Постоянный Частота кадров : 23,976 кадра/сек Цветовое пространство : YUV Субдискретизация насыщенности : 4:2:0 Битовая глубина : 8 бит Тип развёртки : Прогрессивная Бит/(Пиксели*Кадры) : 0.266 Размер потока : 7,63 Гбайт (83%) Библиотека кодирования : x264 core 142 r2479 dd79a61 Настройки программы : cabac=1 / ref=1 / deblock=1:0:0 / analyse=0x3:0x113 / me=hex / subme=2 / psy=1 / psy_rd=1.00:0.00 / mixed_ref=0 / me_range=16 / chroma_me=1 / trellis=0 / 8x8dct=1 / cqm=0 / deadzone=21,11 / fast_pskip=1 / chroma_qp_offset=0 / threads=3 / lookahead_threads=1 / sliced_threads=0 / nr=0 / decimate=1 / interlaced=0 / bluray_compat=0 / constrained_intra=0 / bframes=3 / b_pyramid=2 / b_adapt=1 / b_bias=0 / direct=1 / weightb=1 / open_gop=0 / weightp=1 / keyint=240 / keyint_min=24 / scenecut=40 / intra_refresh=0 / rc_lookahead=10 / rc=2pass / mbtree=1 / bitrate=10000 / ratetol=1.0 / qcomp=0.60 / qpmin=0 / qpmax=69 / qpstep=4 / cplxblur=20.0 / qblur=0.5 / vbv_maxrate=62500 / vbv_bufsize=78125 / nal_hrd=none / filler=0 / ip_ratio=1.40 / aq=1:1.00 Default : Да Forced : Нет Основные цвета : BT.709 Характеристики трансфера : BT.709 Коэффициенты матрицы : BT.709 colour_range : Limited DURATION : 01:51:55.125000000 NUMBER_OF_FRAMES : 161002 NUMBER_OF_BYTES : 8390744613 _STATISTICS_WRITING_APP : mkvmerge v7.7.0 ('Six Voices') 64bit built on Feb 28 2015 23:39:33 _STATISTICS_WRITING_DATE_UTC : 2015-03-15 14:55:01 _STATISTICS_TAGS : BPS DURATION NUMBER_OF_FRAMES NUMBER_OF_BYTES

Аудио #1 Идентификатор : 2 Формат : AC-3 Формат/Информация : Audio Coding 3 Расширение режима : CM (complete main) Параметр Endianness формата : Big Идентификатор кодека : A_AC3 Продолжительность : 1 ч. 51 м. Вид битрейта : Постоянный Битрейт : 448 Кбит/сек Каналы : 2 канала Расположение каналов : Front: L R Частота : 48,0 КГц Битовая глубина : 16 бит Метод сжатия : С потерями Задержка видео : -5 мс. Размер потока : 359 Мбайт (4%) Заголовок : Stereo Язык : Russian Default : Нет Forced : Нет DURATION : 01:51:52.832000000 NUMBER_OF_FRAMES : 209776 NUMBER_OF_BYTES : 375918592 _STATISTICS_WRITING_APP : mkvmerge v7.7.0 ('Six Voices') 64bit built on Feb 28 2015 23:39:33 _STATISTICS_WRITING_DATE_UTC : 2015-03-15 14:55:01 _STATISTICS_TAGS : BPS DURATION NUMBER_OF_FRAMES NUMBER_OF_BYTES

Аудио #2 Идентификатор : 3 Формат : AC-3 Формат/Информация : Audio Coding 3 Расширение режима : CM (complete main) Параметр Endianness формата : Big Идентификатор кодека : A_AC3 Продолжительность : 1 ч. 51 м. Вид битрейта : Постоянный Битрейт : 448 Кбит/сек Каналы : 2 канала Расположение каналов : Front: L R Частота : 48,0 КГц Битовая глубина : 16 бит Метод сжатия : С потерями Задержка видео : -5 мс. Размер потока : 359 Мбайт (4%) Заголовок : Stereo Язык : Russian Default : Нет Forced : Нет DURATION : 01:51:52.896000000 NUMBER_OF_FRAMES : 209778 NUMBER_OF_BYTES : 375922176 _STATISTICS_WRITING_APP : mkvmerge v7.7.0 ('Six Voices') 64bit built on Feb 28 2015 23:39:33 _STATISTICS_WRITING_DATE_UTC : 2015-03-15 14:55:01 _STATISTICS_TAGS : BPS DURATION NUMBER_OF_FRAMES NUMBER_OF_BYTES

Аудио #3 Идентификатор : 4 Формат : AC-3 Формат/Информация : Audio Coding 3 Расширение режима : CM (complete main) Параметр Endianness формата : Big Идентификатор кодека : A_AC3 Продолжительность : 1 ч. 51 м. Вид битрейта : Постоянный Битрейт : 448 Кбит/сек Каналы : 2 канала Расположение каналов : Front: L R Частота : 48,0 КГц Битовая глубина : 16 бит Метод сжатия : С потерями Задержка видео : -5 мс. Размер потока : 359 Мбайт (4%) Заголовок : Stereo Язык : Russian Default : Нет Forced : Нет DURATION : 01:51:52.864000000 NUMBER_OF_FRAMES : 209777 NUMBER_OF_BYTES : 375920384 _STATISTICS_WRITING_APP : mkvmerge v7.7.0 ('Six Voices') 64bit built on Feb 28 2015 23:39:33 _STATISTICS_WRITING_DATE_UTC : 2015-03-15 14:55:01 _STATISTICS_TAGS : BPS DURATION NUMBER_OF_FRAMES NUMBER_OF_BYTES

Аудио #4 Идентификатор : 5 Формат : AC-3 Формат/Информация : Audio Coding 3 Расширение режима : CM (complete main) Параметр Endianness формата : Big Идентификатор кодека : A_AC3 Продолжительность : 1 ч. 51 м. Вид битрейта : Постоянный Битрейт : 448 Кбит/сек Каналы : 2 канала Расположение каналов : Front: L R Частота : 48,0 КГц Битовая глубина : 16 бит Метод сжатия : С потерями Задержка видео : -5 мс. Размер потока : 359 Мбайт (4%) Заголовок : Stereo Язык : English Default : Нет Forced : Нет DURATION : 01:51:55.168000000 NUMBER_OF_FRAMES : 209849 NUMBER_OF_BYTES : 376049408 _STATISTICS_WRITING_APP : mkvmerge v7.7.0 ('Six Voices') 64bit built on Feb 28 2015 23:39:33 _STATISTICS_WRITING_DATE_UTC : 2015-03-15 14:55:01 _STATISTICS_TAGS : BPS DURATION NUMBER_OF_FRAMES NUMBER_OF_BYTES

Текст #1 Идентификатор : 6 Формат : ASS Идентификатор кодека : S_TEXT/ASS Идентификатор кодека/Информация : Advanced Sub Station Alpha Метод сжатия : Без потерь Язык : Russian Default : Нет Forced : Нет DURATION : 01:44:58.546000000 NUMBER_OF_FRAMES : 732 NUMBER_OF_BYTES : 59957 _STATISTICS_WRITING_APP : mkvmerge v7.7.0 ('Six Voices') 64bit built on Feb 28 2015 23:39:33 _STATISTICS_WRITING_DATE_UTC : 2015-03-15 14:55:01 _STATISTICS_TAGS : BPS DURATION NUMBER_OF_FRAMES NUMBER_OF_BYTES

Текст #2 Идентификатор : 7 Формат : ASS Идентификатор кодека : S_TEXT/ASS Идентификатор кодека/Информация : Advanced Sub Station Alpha Метод сжатия : Без потерь Язык : Russian Default : Нет Forced : Нет DURATION : 00:38:15.369000000 NUMBER_OF_FRAMES : 48 NUMBER_OF_BYTES : 3942 _STATISTICS_WRITING_APP : mkvmerge v7.7.0 ('Six Voices') 64bit built on Feb 28 2015 23:39:33 _STATISTICS_WRITING_DATE_UTC : 2015-03-15 14:55:01 _STATISTICS_TAGS : BPS DURATION NUMBER_OF_FRAMES NUMBER_OF_BYTES

Текст #3 Идентификатор : 8 Формат : ASS Идентификатор кодека : S_TEXT/ASS Идентификатор кодека/Информация : Advanced Sub Station Alpha Метод сжатия : Без потерь Язык : Russian Default : Нет Forced : Нет DURATION : 01:44:32.362000000 NUMBER_OF_FRAMES : 814 NUMBER_OF_BYTES : 73030 _STATISTICS_WRITING_APP : mkvmerge v7.7.0 ('Six Voices') 64bit built on Feb 28 2015 23:39:33 _STATISTICS_WRITING_DATE_UTC : 2015-03-15 14:55:01 _STATISTICS_TAGS : BPS DURATION NUMBER_OF_FRAMES NUMBER_OF_BYTES

Текст #4 Идентификатор : 9 Формат : ASS Идентификатор кодека : S_TEXT/ASS Идентификатор кодека/Информация : Advanced Sub Station Alpha Метод сжатия : Без потерь Язык : English Default : Нет Forced : Нет DURATION : 01:44:23.056000000 NUMBER_OF_FRAMES : 974 NUMBER_OF_BYTES : 50584 _STATISTICS_WRITING_APP : mkvmerge v7.7.0 ('Six Voices') 64bit built on Feb 28 2015 23:39:33 _STATISTICS_WRITING_DATE_UTC : 2015-03-15 14:55:01 _STATISTICS_TAGS : BPS DURATION NUMBER_OF_FRAMES NUMBER_OF_BYTES

Меню 00:00:00.000 : :The Animal Side 00:02:56.968 : :Crash Landing 00:08:28.090 : :The Survivors 00:17:06.150 : :The Dead Planet 00:27:13.715 : :The Other Inhabitants 00:32:28.154 : :Into the Hole 00:36:50.082 : :Riddick's Deal 00:46:49.515 : :The Coming Eclipse 00:56:08.990 : :Darkness Falls 01:02:45.887 : :Just Don't Run 01:08:08.042 : :The Escape Plan 01:14:22.416 : :Paris's Demise 01:20:00.587 : :Duel in the Dark 01:25:39.008 : :Running the Gauntlet 01:30:14.992 : :Survival Instinct 01:39:00.100 : :Sacrifices 01:43:38.086 : :Say Good Night 01:46:13.950 : :End Titles

Хроники Риддика (2004)

Режиссер: Дэвид ТуиВ ролях: Вин Дизель, Колм Фиор, Тэнди Ньютон, Джуди Денч, Карл Урбан, Алекса Давалос, Лайнас Роуч, Йорик ван Вагенинген, Ник Чинланд, Кит Дэвид и др.

О фильме: Последние пять лет Риддик провел в бегах среди забытых миров на задворках галактики, прячась от наемников, назначивших цену за его голову. Теперь беглец оказался на планете Гелион, где живет прогрессивное многонациональное общество, завоеванное лордом Маршалом, фанатиком, решившим поработить человечество армадой своих воинов, некромонгеров.

Совершив побег из подземной тюрьмы, где температура колебалась от арктических ночей до вулканических дней, Риддик встречает Кайру, последнюю оставшуюся в живых женщину из раннего периода его жизни. Его попытки освободить себя и Кайру приводят их на борт главного корабля некромонгеров, где ему предстоит столкнуться с лордом Маршалом в апокалиптической битве не на жизнь, а на смерть...

Страна: СШАСтудия: Universal Pictures, Radar Pictures, One Race ProductionsПродолжительность: 02:14:06Перевод: профессиональный (полное дублирование), профессиональный (многоголосый закадровый), авторский (одноголосый закадровый)

ФайлКодек: MPEG4 AVC/h.264Качество: BDRip 1080pВидео: 1920x800 (2,40:1), 10 Mbit/s, 23.976 fps.Звук: AC3, 448 Kbit/s, 48 KHz, Stereo, Russian [многоголосый закадровый (CP Digital)] AC3, 448 Kbit/s, 48 KHz, Stereo, Russian [дублированный со вставками многоголосого 'CP Digital'] AC3, 448 Kbit/s, 48 KHz, Stereo, Russian [одноголосый закадровый (Д.Пучков)] AC3, 448 Kbit/s, 48 KHz, Stereo, English [оригинал] Субтитры: русские (CP Digital), русские (Tycoon), английские (Full)

MediaInfo

Общее Уникальный идентификатор : 234073400996245346725722702681997939187 (0xB018E5AFF80CB44D9714FB5A462991F3) Полное имя : D:ФильмыRiddick2004 The Chronicles of Riddick.mkv Формат : Matroska Версия формата : Version 4 / Version 2 Размер файла : 11,0 Гбайт Продолжительность : 2 ч. 14 м. Общий поток : 11,8 Мбит/сек Название фильма : Хроники Риддика / The Chronicles of Riddick [Director's Cut] (2004) BDRip [1080p] Дата кодирования : UTC 2015-03-15 19:39:32 Программа кодирования : mkvmerge v7.7.0 ('Six Voices') 64bit built on Feb 28 2015 23:39:33 Библиотека кодирования : Lavf55.12.0

Видео Идентификатор : 1 Формат : AVC Формат/Информация : Advanced Video Codec Профиль формата : [email protected] Параметр CABAC формата : Да Параметр ReFrames формата : 4 кадра Идентификатор кодека : V_MPEG4/ISO/AVC Продолжительность : 2 ч. 14 м. Битрейт : 10000 Кбит/сек Ширина : 1920 пикселей Высота : 800 пикселей Соотношение сторон : 2,40:1 Режим частоты кадров : Постоянный Частота кадров : 23,976 кадра/сек Цветовое пространство : YUV Субдискретизация насыщенности : 4:2:0 Битовая глубина : 8 бит Тип развёртки : Прогрессивная Бит/(Пиксели*Кадры) : 0.272 Размер потока : 9,15 Гбайт (83%) Библиотека кодирования : x264 core 142 r2479 dd79a61 Настройки программы : cabac=1 / ref=1 / deblock=1:0:0 / analyse=0x3:0x113 / me=hex / subme=2 / psy=1 / psy_rd=1.00:0.00 / mixed_ref=0 / me_range=16 / chroma_me=1 / trellis=0 / 8x8dct=1 / cqm=0 / deadzone=21,11 / fast_pskip=1 / chroma_qp_offset=0 / threads=3 / lookahead_threads=1 / sliced_threads=0 / nr=0 / decimate=1 / interlaced=0 / bluray_compat=0 / constrained_intra=0 / bframes=3 / b_pyramid=2 / b_adapt=1 / b_bias=0 / direct=1 / weightb=1 / open_gop=0 / weightp=1 / keyint=240 / keyint_min=24 / scenecut=40 / intra_refresh=0 / rc_lookahead=10 / rc=2pass / mbtree=1 / bitrate=10000 / ratetol=1.0 / qcomp=0.60 / qpmin=0 / qpmax=69 / qpstep=4 / cplxblur=20.0 / qblur=0.5 / vbv_maxrate=62500 / vbv_bufsize=78125 / nal_hrd=none / filler=0 / ip_ratio=1.40 / aq=1:1.00 Default : Да Forced : Нет Основные цвета : BT.709 Характеристики трансфера : BT.709 Коэффициенты матрицы : BT.709 colour_range : Limited _STATISTICS_WRITING_APP : mkvmerge v7.7.0 ('Six Voices') 64bit built on Feb 28 2015 23:39:33 _STATISTICS_WRITING_DATE_UTC : 2015-03-15 19:39:32 _STATISTICS_TAGS : BPS DURATION NUMBER_OF_FRAMES NUMBER_OF_BYTES DURATION : 02:14:05.996000000 NUMBER_OF_FRAMES : 192911 NUMBER_OF_BYTES : 10057859183

Аудио #1 Идентификатор : 2 Формат : AC-3 Формат/Информация : Audio Coding 3 Расширение режима : CM (complete main) Параметр Endianness формата : Big Идентификатор кодека : A_AC3 Продолжительность : 2 ч. 14 м. Вид битрейта : Постоянный Битрейт : 448 Кбит/сек Каналы : 2 канала Расположение каналов : Front: L R Частота : 48,0 КГц Битовая глубина : 16 бит Метод сжатия : С потерями Задержка видео : -5 мс. Размер потока : 430 Мбайт (4%) Заголовок : Stereo Язык : Russian Default : Да Forced : Нет _STATISTICS_WRITING_APP : mkvmerge v7.7.0 ('Six Voices') 64bit built on Feb 28 2015 23:39:33 _STATISTICS_WRITING_DATE_UTC : 2015-03-15 19:39:32 _STATISTICS_TAGS : BPS DURATION NUMBER_OF_FRAMES NUMBER_OF_BYTES DURATION : 02:14:06.016000000 NUMBER_OF_FRAMES : 251438 NUMBER_OF_BYTES : 450576896

Аудио #2 Идентификатор : 3 Формат : AC-3 Формат/Информация : Audio Coding 3 Расширение режима : CM (complete main) Параметр Endianness формата : Big Идентификатор кодека : A_AC3 Продолжительность : 2 ч. 14 м. Вид битрейта : Постоянный Битрейт : 448 Кбит/сек Каналы : 2 канала Расположение каналов : Front: L R Частота : 48,0 КГц Битовая глубина : 16 бит Метод сжатия : С потерями Задержка видео : -5 мс. Размер потока : 430 Мбайт (4%) Заголовок : Stereo Язык : Russian Default : Нет Forced : Нет _STATISTICS_WRITING_APP : mkvmerge v7.7.0 ('Six Voices') 64bit built on Feb 28 2015 23:39:33 _STATISTICS_WRITING_DATE_UTC : 2015-03-15 19:39:32 _STATISTICS_TAGS : BPS DURATION NUMBER_OF_FRAMES NUMBER_OF_BYTES DURATION : 02:14:05.024000000 NUMBER_OF_FRAMES : 251407 NUMBER_OF_BYTES : 450521344

Аудио #3 Идентификатор : 4 Формат : AC-3 Формат/Информация : Audio Coding 3 Расширение режима : CM (complete main) Параметр Endianness формата : Big Идентификатор кодека : A_AC3 Продолжительность : 2 ч. 14 м. Вид битрейта : Постоянный Битрейт : 448 Кбит/сек Каналы : 2 канала Расположение каналов : Front: L R Частота : 48,0 КГц Битовая глубина : 16 бит Метод сжатия : С потерями Задержка видео : -5 мс. Размер потока : 430 Мбайт (4%) Заголовок : Stereo Язык : Russian Default : Нет Forced : Нет _STATISTICS_WRITING_APP : mkvmerge v7.7.0 ('Six Voices') 64bit built on Feb 28 2015 23:39:33 _STATISTICS_WRITING_DATE_UTC : 2015-03-15 19:39:32 _STATISTICS_TAGS : BPS DURATION NUMBER_OF_FRAMES NUMBER_OF_BYTES DURATION : 02:14:05.024000000 NUMBER_OF_FRAMES : 251407 NUMBER_OF_BYTES : 450521344

Аудио #4 Идентификатор : 5 Формат : AC-3 Формат/Информация : Audio Coding 3 Расширение режима : CM (complete main) Параметр Endianness формата : Big Идентификатор кодека : A_AC3 Продолжительность : 2 ч. 14 м. Вид битрейта : Постоянный Битрейт : 448 Кбит/сек Каналы : 2 канала Расположение каналов : Front: L R Частота : 48,0 КГц Битовая глубина : 16 бит Метод сжатия : С потерями Задержка видео : -5 мс. Размер потока : 430 Мбайт (4%) Заголовок : Stereo Язык : English Default : Нет Forced : Нет _STATISTICS_WRITING_APP : mkvmerge v7.7.0 ('Six Voices') 64bit built on Feb 28 2015 23:39:33 _STATISTICS_WRITING_DATE_UTC : 2015-03-15 19:39:32 _STATISTICS_TAGS : BPS DURATION NUMBER_OF_FRAMES NUMBER_OF_BYTES DURATION : 02:14:05.024000000 NUMBER_OF_FRAMES : 251407 NUMBER_OF_BYTES : 450521344

Текст #1 Идентификатор : 6 Формат : ASS Идентификатор кодека : S_TEXT/ASS Идентификатор кодека/Информация : Advanced Sub Station Alpha Метод сжатия : Без потерь Язык : Russian Default : Нет Forced : Нет _STATISTICS_WRITING_APP : mkvmerge v7.7.0 ('Six Voices') 64bit built on Feb 28 2015 23:39:33 _STATISTICS_WRITING_DATE_UTC : 2015-03-15 19:39:32 _STATISTICS_TAGS : BPS DURATION NUMBER_OF_FRAMES NUMBER_OF_BYTES DURATION : 02:05:08.511000000 NUMBER_OF_FRAMES : 873 NUMBER_OF_BYTES : 79087

Текст #2 Идентификатор : 7 Формат : ASS Идентификатор кодека : S_TEXT/ASS Идентификатор кодека/Информация : Advanced Sub Station Alpha Метод сжатия : Без потерь Язык : Russian Default : Нет Forced : Нет _STATISTICS_WRITING_APP : mkvmerge v7.7.0 ('Six Voices') 64bit built on Feb 28 2015 23:39:33 _STATISTICS_WRITING_DATE_UTC : 2015-03-15 19:39:32 _STATISTICS_TAGS : BPS DURATION NUMBER_OF_FRAMES NUMBER_OF_BYTES DURATION : 02:02:43.901000000 NUMBER_OF_FRAMES : 908 NUMBER_OF_BYTES : 76146

Текст #3 Идентификатор : 8 Формат : ASS Идентификатор кодека : S_TEXT/ASS Идентификатор кодека/Информация : Advanced Sub Station Alpha Метод сжатия : Без потерь Язык : English Default : Нет Forced : Нет _STATISTICS_WRITING_APP : mkvmerge v7.7.0 ('Six Voices') 64bit built on Feb 28 2015 23:39:33 _STATISTICS_WRITING_DATE_UTC : 2015-03-15 19:39:32 _STATISTICS_TAGS : BPS DURATION NUMBER_OF_FRAMES NUMBER_OF_BYTES DURATION : 02:02:43.530000000 NUMBER_OF_FRAMES : 920 NUMBER_OF_BYTES : 57278

Меню 00:00:00.000 : :The Necromongers 00:02:39.409 : :Hard Bounty 00:07:05.633 : :Back to Civilization 00:11:25.810 : :A Fighting Chance 00:15:31.972 : :A True Furyan 00:20:58.924 : :Attack of the Necromongers 00:27:11.838 : :Lensing & Cleansing 00:31:27.385 : :The Lord Marshal's Offer 00:38:52.413 : :Mind Regression 00:43:32.651 : :Caught 00:47:18.544 : :You Can Keep What You Kill 00:53:38.506 : :Welcome to Crematoria 01:01:36.943 : :Jack's Dead... 01:04:29.991 : :A Private War 01:08:45.746 : :Feeding Time 01:11:43.424 : :Two Killers 01:17:19.259 : :Good News & Bad News 01:22:50.173 : :Running the Surface 01:29:05.298 : :The Big Heat 01:32:42.640 : :The Better Killer 01:41:13.734 : :This Is Your Chance 01:44:28.345 : :What Are the Odds? 01:48:15.363 : :The Enemy Within 01:53:18.750 : :Convert or Fall 01:57:02.849 : :The Soul of a Furyan 02:00:00.860 : :Kill the Beast 02:03:05.920 : :At the Feet of an Outlaw 02:04:08.399 : :End Titles

Риддик (2013)

Режиссер: Дэвид ТуиВ ролях: Вин Дизель, Хорди Молья, Мэтью Нэйбл, Кэти Сакхофф, Дэйв Батиста, Букем Вудбайн, Рауль Трухильо, Конрад Пла, Дэнни Бланко, Карл Урбан и др.

О фильме: Преданный своими и брошенный умирать на пустынной планете, Риддик сражается с хищниками за жизнь и становится сильнее и опаснее себя прежнего. Открывшие на него охоту галактические наемники оказываются пешками в грандиозном плане отмщения. С врагами, возникающими на его пути тогда, когда это нужно самому Риддику, он начинает поход во имя мести, чтобы в конечном счете вернуться на родную Фурию и спасти ее от уничтожения...

Страна: США, ВеликобританияСтудия: One Race Productions, Radar Pictures, Riddick Canada ProductionsПродолжительность: 02:06:50Перевод: профессиональный (полное дублирование), любительский

ФайлКодек: MPEG4 AVC/h.264Качество: BDRip 1080pВидео: 1920x800 (2,40:1), 10 Mbit/s, 23.976 fps.Звук: AC3, 448 Kbit/s, 48 KHz, Stereo, Russian [дублированный со вставками 'DVD-Paradox'] AC3, 448 Kbit/s, 48 KHz, Stereo, Russian [одноголосый закадровый (Д.Есарев)] AC3, 448 Kbit/s, 48 KHz, Stereo, English [оригинал] Субтитры: русские (full, forced), английские (full)

MediaInfo

Общее Уникальный идентификатор : 225883550358024097489181145158453962176 (0xA9EF96E028D30BF5B6BCE4FAF71225C0) Полное имя : D:ФильмыRiddick2013 Riddick.mkv Формат : Matroska Версия формата : Version 4 / Version 2 Размер файла : 10,1 Гбайт Продолжительность : 2 ч. 6 м. Общий поток : 11,3 Мбит/сек Название фильма : Хроники Риддика / The Chronicles of Riddick [Director's Cut] (2004) BDRip [1080p] Дата кодирования : UTC 2015-03-15 12:02:12 Программа кодирования : mkvmerge v7.7.0 ('Six Voices') 64bit built on Feb 28 2015 23:39:33 Библиотека кодирования : Lavf55.12.0 Язык : eng DURATION : 02:01:36.793000000 NUMBER_OF_FRAMES : 894 NUMBER_OF_BYTES : 49621 _STATISTICS_WRITING_APP : mkvmerge v7.7.0 ('Six Voices') 64bit built on Feb 28 2015 23:39:33 _STATISTICS_WRITING_DATE_UTC : 2015-03-15 12:02:12 _STATISTICS_TAGS : BPS DURATION NUMBER_OF_FRAMES NUMBER_OF_BYTES

Видео Идентификатор : 1 Формат : AVC Формат/Информация : Advanced Video Codec Профиль формата : [email protected] Параметр CABAC формата : Да Параметр ReFrames формата : 4 кадра Идентификатор кодека : V_MPEG4/ISO/AVC Продолжительность : 2 ч. 6 м. Битрейт : 10000 Кбит/сек Ширина : 1920 пикселей Высота : 800 пикселей Соотношение сторон : 2,40:1 Режим частоты кадров : Постоянный Частота кадров : 23,976 кадра/сек Цветовое пространство : YUV Субдискретизация насыщенности : 4:2:0 Битовая глубина : 8 бит Тип развёртки : Прогрессивная Бит/(Пиксели*Кадры) : 0.272 Размер потока : 8,66 Гбайт (86%) Библиотека кодирования : x264 core 142 r2479 dd79a61 Настройки программы : cabac=1 / ref=1 / deblock=1:0:0 / analyse=0x3:0x113 / me=hex / subme=2 / psy=1 / psy_rd=1.00:0.00 / mixed_ref=0 / me_range=16 / chroma_me=1 / trellis=0 / 8x8dct=1 / cqm=0 / deadzone=21,11 / fast_pskip=1 / chroma_qp_offset=0 / threads=3 / lookahead_threads=1 / sliced_threads=0 / nr=0 / decimate=1 / interlaced=0 / bluray_compat=0 / constrained_intra=0 / bframes=3 / b_pyramid=2 / b_adapt=1 / b_bias=0 / direct=1 / weightb=1 / open_gop=0 / weightp=1 / keyint=240 / keyint_min=24 / scenecut=40 / intra_refresh=0 / rc_lookahead=10 / rc=2pass / mbtree=1 / bitrate=10000 / ratetol=1.0 / qcomp=0.60 / qpmin=0 / qpmax=69 / qpstep=4 / cplxblur=20.0 / qblur=0.5 / vbv_maxrate=62500 / vbv_bufsize=78125 / nal_hrd=none / filler=0 / ip_ratio=1.40 / aq=1:1.00 Default : Да Forced : Нет Основные цвета : BT.709 Характеристики трансфера : BT.709 Коэффициенты матрицы : BT.709 colour_range : Limited DURATION : 02:06:50.770000000 NUMBER_OF_FRAMES : 182476 NUMBER_OF_BYTES : 9513333446 _STATISTICS_WRITING_APP : mkvmerge v7.7.0 ('Six Voices') 64bit built on Feb 28 2015 23:39:33 _STATISTICS_WRITING_DATE_UTC : 2015-03-15 12:02:12 _STATISTICS_TAGS : BPS DURATION NUMBER_OF_FRAMES NUMBER_OF_BYTES

Аудио #1 Идентификатор : 2 Формат : AC-3 Формат/Информация : Audio Coding 3 Расширение режима : CM (complete main) Параметр Endianness формата : Big Идентификатор кодека : A_AC3 Продолжительность : 2 ч. 6 м. Вид битрейта : Постоянный Битрейт : 448 Кбит/сек Каналы : 2 канала Расположение каналов : Front: L R Частота : 48,0 КГц Битовая глубина : 16 бит Метод сжатия : С потерями Задержка видео : -5 мс. Размер потока : 406 Мбайт (4%) Заголовок : Stereo Язык : Russian Default : Да Forced : Нет DURATION : 02:06:50.784000000 NUMBER_OF_FRAMES : 237837 NUMBER_OF_BYTES : 426203904 _STATISTICS_WRITING_APP : mkvmerge v7.7.0 ('Six Voices') 64bit built on Feb 28 2015 23:39:33 _STATISTICS_WRITING_DATE_UTC : 2015-03-15 12:02:12 _STATISTICS_TAGS : BPS DURATION NUMBER_OF_FRAMES NUMBER_OF_BYTES

Аудио #2 Идентификатор : 3 Формат : AC-3 Формат/Информация : Audio Coding 3 Расширение режима : CM (complete main) Параметр Endianness формата : Big Идентификатор кодека : A_AC3 Продолжительность : 2 ч. 6 м. Вид битрейта : Постоянный Битрейт : 448 Кбит/сек Каналы : 2 канала Расположение каналов : Front: L R Частота : 48,0 КГц Битовая глубина : 16 бит Метод сжатия : С потерями Задержка видео : -5 мс. Размер потока : 406 Мбайт (4%) Заголовок : Stereo Язык : Russian Default : Нет Forced : Нет

Аудио #3 Идентификатор : 4 Формат : AC-3 Формат/Информация : Audio Coding 3 Расширение режима : CM (complete main) Параметр Endianness формата : Big Идентификатор кодека : A_AC3 Продолжительность : 2 ч. 6 м. Вид битрейта : Постоянный Битрейт : 448 Кбит/сек Каналы : 2 канала Расположение каналов : Front: L R Частота : 48,0 КГц Битовая глубина : 16 бит Метод сжатия : С потерями Задержка видео : -5 мс. Размер потока : 406 Мбайт (4%) Заголовок : Stereo Язык : English Default : Нет Forced : Нет

Текст #1 Идентификатор : 5 Формат : ASS Идентификатор кодека : S_TEXT/ASS Идентификатор кодека/Информация : Advanced Sub Station Alpha Метод сжатия : Без потерь Язык : Russian Default : Нет Forced : Нет DURATION : 02:06:47.648000000 NUMBER_OF_FRAMES : 237739 NUMBER_OF_BYTES : 426028288 _STATISTICS_WRITING_APP : mkvmerge v7.7.0 ('Six Voices') 64bit built on Feb 28 2015 23:39:33 _STATISTICS_WRITING_DATE_UTC : 2015-03-15 12:02:12 _STATISTICS_TAGS : BPS DURATION NUMBER_OF_FRAMES NUMBER_OF_BYTES

Текст #2 Идентификатор : 6 Формат : ASS Идентификатор кодека : S_TEXT/ASS Идентификатор кодека/Информация : Advanced Sub Station Alpha Метод сжатия : Без потерь Язык : English Default : Нет Forced : Нет DURATION : 02:06:50.720000000 NUMBER_OF_FRAMES : 237835 NUMBER_OF_BYTES : 426200320 _STATISTICS_WRITING_APP : mkvmerge v7.7.0 ('Six Voices') 64bit built on Feb 28 2015 23:39:33 _STATISTICS_WRITING_DATE_UTC : 2015-03-15 12:02:12 _STATISTICS_TAGS : BPS DURATION NUMBER_OF_FRAMES NUMBER_OF_BYTES

Текст #3 Идентификатор : 7 Формат : ASS Идентификатор кодека : S_TEXT/ASS Идентификатор кодека/Информация : Advanced Sub Station Alpha Метод сжатия : Без потерь Язык : Russian Default : Нет Forced : Нет DURATION : 02:01:36.502000000 NUMBER_OF_FRAMES : 821 NUMBER_OF_BYTES : 63976 _STATISTICS_WRITING_APP : mkvmerge v7.7.0 ('Six Voices') 64bit built on Feb 28 2015 23:39:33 _STATISTICS_WRITING_DATE_UTC : 2015-03-15 12:02:12 _STATISTICS_TAGS : BPS DURATION NUMBER_OF_FRAMES NUMBER_OF_BYTES

Меню 00:00:00.000 : :Chapter 1 00:05:35.501 : :Chapter 2 00:12:10.604 : :Chapter 3 00:23:27.531 : :Chapter 4 00:27:56.549 : :Chapter 5 00:32:11.346 : :Chapter 6 00:38:03.781 : :Chapter 7 00:44:20.532 : :Chapter 8 00:48:40.959 : :Chapter 9 00:56:19.751 : :Chapter 10 01:01:16.881 : :Chapter 11 01:07:35.176 : :Chapter 12 01:15:23.644 : :Chapter 13 01:19:58.919 : :Chapter 14 01:26:52.081 : :Chapter 15 01:31:27.440 : :Chapter 16 01:39:32.841 : :Chapter 17 01:45:32.784 : :Chapter 18 01:53:45.735 : :Chapter 19 02:02:56.327 : :Chapter 20

риддик торрент скачать | Скачать торренты в BDRip и HDRip качестве

Риддик / Riddick (Дэвид Туи / David Twohy) [2013, США, Великобритания, фантастика, боевик, триллер, BDRip] [Unrated] Dub (со вставками DVO)1.46 GBРиддик (Трилогия) / Riddick: Trilogy / 2000-2013 / ДБ / BDRip / 6.55 ГБ6.55 GBРиддик / Riddick (2013) BDRip-AVC от MediaClub | Расширенная версия / Extended Cut3.93 GBРиддик (Трилогия) (Режиссерская версия) / Riddick: Trilogy (Director's Cut) / 2000-2013 / ДБ, ПМ, СТ / BDRip (1080p) / 28.82 ГБ28.82 GBХроники Риддика / The Chronicles of Riddick (Дэвид Туи / David Twohy) [2004, США, фантастика, боевик, триллер, приключения, BDRip] [Театральная версия / Theatrical Cut] Dub1.46 GBХроники Риддика / The Chronicles of Riddick (Дэвид Туи / David Twohy) [2004, США, фантастика, боевик, триллер, приключения, BDRip] [Режиссёрская версия / Director's Cut] Dub + Subs (Rus, Eng x2) + Original Eng2.9 GBХроники Риддика / The Chronicles of Riddick / 2004 / ДБ / BDRip / 2.05 ГБ2.05 GBРиддик / Riddick (Дэвид Туи / David Twohy) [2013, США, Великобритания, фантастика, боевик, BDRip-AVC] [Unrated] Dub + AVO (А. Гаврилов) + Sub Rus, Eng + Original Eng3.01 GBРиддик / Riddick (1999-2013) BDRip 720p | 60 FPS | Director's Cut | Трилогия20.08 GBНастоящий гений со Стивеном Хокингом / Genius by Stephen Hawking (Йен Риддик, Джейн Сэйерс / Iain Riddick, Jane Sayers) [2016, Документальный, научно-познавательный, HDTVRip 720p]7.64 GBРиддик / Riddick (2013) BDRip от HQCLUB | Extended Cut | Лицензия2.18 GBРиддик / Riddick (Дэвид Туи / David Twohy) [2013, США, Великобритания, фантастика, боевик, триллер, BDRip 720p] [Extended Cut] Dub + 2x AVO (Гаврилов, Володарский) + VO (Есарев) + Original Eng + sub (Rus, Eng)13.42 GBХроники Риддика / The Chronicles of Riddick (Дэвид Туи / David Twohy) [2004, США, Фантастика, боевик, триллер, приключения, BDRip-AVC] [Режиссёрская версия / Director's Cut]2.17 GBХроники Риддика / The Chronicles of Riddick (Дэвид Туи / David Twohy) [2004, США, фантастика, боевик, DVDRip] [Open Matte] Dub1.46 GBРиддик: Коллекция / Riddick: Full collection (2000-2013) HDRip [H.264] [MP4|960х400] (Director's Cut)4.42 GBРиддик / Riddick (1999-2013) BDRip [1080p] [Director's Cut] [Трилогия]65.2 GBРиддик (Трилогия) (Режиссерская версия) / Riddick: Trilogy (Director's Cut) / 2000-2013 / 2 x ДБ, 3 x ПМ, ПД, 5 x АП, СТ / BDRip (1080p) / 69.09 ГБ69.09 GBРиддик / Riddick (2013) BDRip 1080p | Theatrical Cut | US Transfer7.76 GBРиддик / Riddick (Дэвид Туи / David Twohy) [2013, США, Великобритания, фантастика, боевик, триллер, BDRip] [Unrated] Dub (со вставками DVO) + Original Eng + Subs2.18 GBРиддик / Riddick / 2013 / ДБ / DVDRip / 2.18 ГБ2.18 GBРиддик / Riddick (2013) BDRip [H.265/1080p-LQ] [Extended Cut]4.99 GBРиддик / Riddick (Дэвид Туи) [2013 г., фантастика, боевик, триллер, BDRip 720p] [Extended Cut] Dub/DVO + Original + Sub (Rus, Eng)5.84 GBХроники Риддика / The Chronicles of Riddick (Дэвид Туи / David Twohy) [2004, США, фантастика, боевик, триллер, приключения, BDRip] [Театральная версия / Theatrical Cut] Dub + Subs (Rus, Eng) + Original Eng2.18 GBХроники Риддика / The Chronicles of Riddick (Дэвид Туи / David Twohy) [2004, США, фантастика, приключения, боевик, BDRip 1080p] [Director's Cut]13.85 GBХроники Риддика: Темная Ярость / The Chronicles of Riddick: Dark Fury (Питер Чанг / Peter Chung) [2004, фантастика, приключения, боевик, DVDRip-AVC] MVO + Original + subs731.4 MBРиддик / Riddick (Дэвид Туи / David Twohy) [2013, США, Великобритания, фантастика, боевик, триллер, BDRip] [Theatrical Cut] Dub BD1.46 GBХроники Риддика (Режиссерская версия) / The Chronicles of Riddick (Director's cut) / 2004 / ДБ / HDRip / 2.05 ГБ2.05 GBРиддик / Riddick [Extended Cut] (Дэвид Туи / David Twohy) [2013, США, Великобритания, фантастика, боевик, триллер, BDRip-AVC] Dub + AVO (Гаврилов, Володарский) + VO (Д.Есарев) + Original (Eng) + Subs5.56 GBРиддик / Riddick / 2013 / ДБ / BDRip / 1.46 ГБ1.46 GBХроники Риддика / The Chronicles of Riddick (Дэвид Туи / David Twohy) [2004, США, фантастика, боевик, триллер, BDRip-AVC] [Режиссерская версия / Director's Cut] MVO + DVO + AVO (x3) + Original (Eng) + Sub (Rus, Eng)5.62 GBХроники Риддика (Режиссёрская версия) / The Chronicles of Riddick (Director's cut) / 2004 / ДБ, ПМ, АП (Пучков), СТ / BDRip (1080p) / 13.85 ГБ13.85 GBРиддик / Riddick (Дэвид Туи / David Twohy) [2013, США, Великобритания, фантастика, боевик, триллер, BDRemux 1080p] [Extended Cut] Dub + AVO (Гаврилов) + AVO (Володарский) + VO (Есарев) + Sub Rus, Eng + Original Eng36.72 GBРиддик / Riddick (Дэвид Туи / David Twohy) [2013, США, Великобритания, фантастика, боевик, триллер, BDRip 1080p] [Extended Cut] Dub + 2x AVO (Гаврилов, Володарский) + VO (Есарев) + Original Eng + sub (Rus, Eng)24.14 GBРиддик / Riddick (2013) BDRip-AVC от HELLYWOOD | Расширенная версия | Лицензия2.13 GBХроники Риддика / The Chronicles of Riddick / 2004 / ДБ / BDRip (1080p) / 10.79 ГБ10.79 GBХроники Риддика / The Chronicles of Riddick (Дэвид Туи / David Twohy) [2004, США, фантастика, боевик, триллер, приключения, HDRip] AVO (Гоблин) [Director's Cut]1.46 GBХроники Риддика / The Chronicles of Riddick / 2004 / АП (Пучков) / HDRip / 2.18 ГБ2.18 GBХроники Риддика / The Chronicles of Riddick (Дэвид Туи / David Twohy) [2004, США, фантастика, боевик, триллер, приключения, BDRip 1080p] [Театральная версия] Dub + Sub Rus, Eng + Original Eng10.79 GBРиддик: Удар в спину / Riddick: Blindsided (Дэвид Туи) [2013, мультфильм, короткометражка, фантастика, WEB-DL] Sub [Tydysh]74 MBРиддик / Riddick / 2013 / ДБ, СТ / US Transfer / BDRip (1080p) / 10.52 ГБ10.52 GBFoster Alan / Фостер Алан - Historian Riddik / Вселенная Риддика [2011, FB2/RTF/PDF, RUS]12 MBРиддик / Riddick (Дэвид Туи) [2013, США, Великобритания, фантастика, боевик, триллер, WEB-DL HD (720p)] DUB, Original + SUB (eng)4.24 GBРиддик (Трилогия) (Режиссерская версия) / Riddick: Trilogy (Director's Cut) / 2000-2013 / 2 x ДБ, 3 x ПМ, ПД, 5 x АП, СТ / BDRip (720p) / 47.74 ГБ47.74 GBРиддик (Расширенная Версия) / Riddick (Extended Cut) / 2013 / ДБ, СТ / BDRip (1080p) / 9.84 ГБ9.84 GBХроники Риддика / The Chronicles of Riddick (Дэвид Туи / David Twohy) [2004, США, фантастика, приключения, боевик, BDRemux 1080p] [Theatrical Cut / Театральная версия]16.64 GBВо Вселенную со Стивеном Хокингом / Into the Universe with Stephen Hawking (Айэйн Риддик, Мартин Уильямс, Натан Уильямс) [2010, документальный, BDRip 720p]9.04 GBThe Chronicles of Riddick Gold / Хроники Риддика. Золотое издание [RePack] [RUS / ENG] (2009)5.24 GBХроники Риддика: Тёмная Ярость / The Chronicles of Riddick: Dark Fury (Питер Чанг / Peter Chung) [2004, Аниме, фантастика, приключения, боевик, DVDRip] MVO348.7 MBРиддик / Riddick / 2013 / ДБ, СТ / US Transfer / BDRip (AVC) / 2.57 ГБ2.57 GBХроники Риддика: Темная ярость / The Chronicles of Riddick: Dark Fury (Питер Чунг / Peter Chung) [2004, мультфильм, короткометражка, фантастика, боевик, DVDRip] MVO + Subs (2 x Rus; Eng) + Original Eng745.3 MB tparser.org – торрент поисковик по популярным торрент трекерам. Находить и скачивать новинки кино в HDRip и BDRip качестве через tparser намного проще! Добро пожаловать на крупный торрент архив фильмов и игр tparser.org. Вам больше не придется искать торренты на основных торрент трекерах в поисках нужной раздачи – мы предлагаем найти и скачать фильмы в хорошем качестве прямо на нашем сайте. Наш сервис поиска торрентов в реальном времени собирает информацию с крупных торрент трекеров и сортирует полученные результаты в удобную таблицу. Скачивайте торренты без ограничений и без всяких регистраций на трекерах. Начните скачивать торрент риддик прямо сейчас!

tparser.org

Риддик / Riddick [Дэвид Туи / David Twohy BDRip 720p / 60 FPS / Director's Cut / Трилогия] скачать через торрент

piratbit.ru

Раздают: 1 [ 0 KB/s ]
Размер: 20.08 GB | Добавлен: 3 года 3 мес. назад | Торрент скачан:388 раз

нравится ли вам видео с 60 fps?

Всего проголосовало : 33

Реклама Дарим 3000 рублей за регистрацию, не упусти свой шанс получить шикарный бонус!!!

29-06-2014 12:33 Риддик Скачать торрент  

Риддик / Riddick Жанр: Фантастика, Боевик, ТриллерГода производства: 1999, 2004, 2013Произведено: США, ВеликобританияПродолжительность: 01:51:55; 02:14:06; 02:06:48

Риддик предстаёт перед зрителями в качестве закоренелого уголовника, пойманного охотником за головами, так как за его голову объявлено вознаграждение. В одной из тюрем за двадцать ментоловых сигарет тюремный врач сделал ему операцию на глазах, поэтому его специфическое зрение, позволяющее видеть в темноте. В фильме раскрываются такие особенности его личности, как привычка говорить с самим собой, возможно из-за долгой изоляции в тюрьмах, скверный характер, сарказм и пристрастие к алкоголю и женщинам, что не мешает ему находиться в прекрасной физической форме и обладать чрезвычайно развитым обонянием.Риддик не знает своего прошлого и, постепенно разбираясь с ним, познаёт новые грани своей натуры. Постепенно при развитии сюжета выясняется, что он — вовсе не громила, готовый убивать без разбора; он обладает смекалкой, может анализировать ситуацию и делать верные выводы.

Риддик возвращается в следующей картине «Хроники Риддика» уже не столько в качестве озлобленного уголовника, сколько в качестве борца за свободу. Он заметно изменился, живя на далёкой покрытой снегами планете, сильно оброс. Впрочем, скоро он приобретает привычный для аудитории вид: гладко выбритая голова и тёмные очки. Он вновь и вновь использует свой нож, проявляя при этом звериную жестокость, но всё же пытается спасти единственных небезразличных ему людей, тех, кого он спас когда-то на далёкой планете от опасных хищников.

Сюжет фильма «Риддик» — продолжение событий первых двух частей, двух игр и мультфильма. Риддик хочет найти родную планету Фурию, но оказывается на дикой, где он в очередной раз должен выжить и победить — природу, чудовищ, наёмников

Дополнительная информацияВ 2,5 раза больше кадров!В 2,5 раза плавнее! (59,94 fps)

Чёрная дыра / Pitch Black Год выпуска: 1999Страна: СШАЖанр: фантастика, боевик, триллерПродолжительность: 01:51:55Перевод: Профессиональный [Дубляж] + Многоголосый закадровый на вставкиСубтитры: Rus (полные), Eng (полные)

Режиссер: Дэвид Туи / David TwohyВ ролях: Вин Дизель (Richard B. Riddick), Рада Митчелл (Carolyn Fry), Коул Хаузер (William J. Johns), Кит Дэвид (Abu «Imam» al-Walid), Льюис Фиц-Джералд (Paris P. Ogilvie), Клаудия Блэк (Sharon «Shazza» Montgomery), Риана Гриффит (Jack / Jackie), Джон Мур (John «Zeke» Ezekiel), Саймон Бурк (Greg Owens), Лес Чэнтери (Suleiman), Сэм Сари (Hassan), Фирэсс Дирани (Ali)

Описание: В недалеком будущем космический корабль терпит бедствие, в результате чего совершает вынужденную посадку на отдаленной планете. Но в результате такой посадки погибает командир корабля, часть команды и большинство пассажиров.Оставшиеся в живых оказываются одни на жуткой и безжизненной планете. Первое, что бросается в глаза - это то, что планета имеет три солнца, из-за чего все живое погибает в этой пустыне. Но как только планета погружается в темноту, появляются какие-то странные существа...

kinopoisk.ru: 7.628 (38 415)imdb.com: 7.10 (163 961)MPAA: R - Лицам до 17 лет обязательно присутствие взрослого

Качество: BDRip 720pФормат: MKVВидео кодек: AVCАудио кодек: AC3Видео: AVC, 1280x544 (2.35:1), 7516 kbps, 59,940 fps, 0,180 bppАудио дубляж: AC3 / 5.1 / 48 kHz / 448 kbps / 16 bit || Аудио киномания: AC3 / 5.1 / 48 kHz / 640 kbps / 16 bit || Аудио английский: AC3 / 5.1 / 48 kHz / 640 kbps / 16 bit

ОбщееУникальный идентификатор : 220519309222991548445835620523796499765 (0xA5E6795E471CACA2BB6839C39E3E8D35)Полное имя : C:\закачки\Риддик 720p 60fps\Риддик 1 720p 60fps.mkvФормат : MatroskaВерсия формата : Version 4 / Version 2Размер файла : 7,37 ГбайтПродолжительность : 1 ч. 51 м.Общий поток : 9432 Кбит/секДата кодирования : UTC 2014-06-26 10:10:04Программа кодирования : mkvmerge v7.0.0 ('Where We Going') 64bit built on Jun 9 2014 15:16:27Библиотека кодирования : libebml v1.3.0 + libmatroska v1.4.1DURATION : 01:51:52.704000000NUMBER_OF_FRAMES : 209772NUMBER_OF_BYTES : 537016320_STATISTICS_WRITING_APP : mkvmerge v7.0.0 ('Where We Going') 64bit built on Jun 9 2014 15:16:27_STATISTICS_WRITING_DATE_UTC : 2014-06-26 10:10:04_STATISTICS_TAGS : BPS DURATION NUMBER_OF_FRAMES NUMBER_OF_BYTESAttachment : Yes

ВидеоИдентификатор : 1Формат : AVCФормат/Информация : Advanced Video CodecПрофиль формата : [email protected]Параметр CABAC формата : ДаПараметр ReFrames формата : 9 кадровИдентификатор кодека : V_MPEG4/ISO/AVCПродолжительность : 1 ч. 51 м.Битрейт : 7516 Кбит/секШирина : 1280 пикселейВысота : 544 пикселяСоотношение сторон : 2,35:1Режим частоты кадров : ПостоянныйЧастота кадров : 59,880 кадров/секЧастота кадров в оригинале : 59,940 кадров/секЦветовое пространство : YUVСубдискретизация насыщенности : 4:2:0Битовая глубина : 8 битТип развёртки : ПрогрессивнаяБит/(Пиксели*Кадры) : 0.180Размер потока : 5,88 Гбайт (80%)Библиотека кодирования : x264 core 130 r2273 b3065e6Настройки программы : cabac=1 / ref=9 / deblock=1:-2:-2 / analyse=0x3:0 / me=umh / subme=9 / psy=1 / psy_rd=1.00:0.10 / mixed_ref=1 / me_range=24 / chroma_me=0 / trellis=1 / 8x8dct=1 / cqm=0 / deadzone=21,11 / fast_pskip=0 / chroma_qp_offset=-3 / threads=12 / lookahead_threads=1 / sliced_threads=0 / nr=0 / decimate=0 / interlaced=0 / bluray_compat=0 / constrained_intra=0 / bframes=6 / b_pyramid=2 / b_adapt=2 / b_bias=0 / direct=1 / weightb=1 / open_gop=0 / weightp=2 / keyint=599 / keyint_min=59 / scenecut=40 / intra_refresh=0 / rc=crf / mbtree=0 / crf=16.0 / qcomp=0.60 / qpmin=0 / qpmax=69 / qpstep=4 / ip_ratio=1.40 / pb_ratio=1.30 / aq=1:0.90Язык : EnglishDefault : ДаForced : НетDURATION : 01:51:55.065000000NUMBER_OF_FRAMES : 402501NUMBER_OF_BYTES : 6463061855_STATISTICS_WRITING_APP : mkvmerge v7.0.0 ('Where We Going') 64bit built on Jun 9 2014 15:16:27_STATISTICS_WRITING_DATE_UTC : 2014-06-26 10:10:04_STATISTICS_TAGS : BPS DURATION NUMBER_OF_FRAMES NUMBER_OF_BYTES

Аудио #1Идентификатор : 2Формат : AC-3Формат/Информация : Audio Coding 3Расширение режима : CM (complete main)Параметр Endianness формата : BigИдентификатор кодека : A_AC3Продолжительность : 1 ч. 51 м.Вид битрейта : ПостоянныйБитрейт : 448 Кбит/секКаналы : 6 каналовРасположение каналов : Front: L C R, Side: L R, LFEЧастота : 48,0 КГцБитовая глубина : 16 битМетод сжатия : С потерямиРазмер потока : 359 Мбайт (5%)Заголовок : Dub+MVOЯзык : RussianDefault : ДаForced : Нет

Аудио #2Идентификатор : 3Формат : AC-3Формат/Информация : Audio Coding 3Расширение режима : CM (complete main)Параметр Endianness формата : BigИдентификатор кодека : A_AC3Продолжительность : 1 ч. 51 м.Вид битрейта : ПостоянныйБитрейт : 640 Кбит/секКаналы : 6 каналовРасположение каналов : Front: L C R, Side: L R, LFEЧастота : 48,0 КГцБитовая глубина : 16 битМетод сжатия : С потерямиЗадержка видео : 16 мс.Размер потока : 512 Мбайт (7%)Заголовок : MVOЯзык : RussianDefault : НетForced : Нет

Аудио #3Идентификатор : 4Формат : AC-3Формат/Информация : Audio Coding 3Расширение режима : CM (complete main)Параметр Endianness формата : BigИдентификатор кодека : A_AC3Продолжительность : 1 ч. 51 м.Вид битрейта : ПостоянныйБитрейт : 640 Кбит/секКаналы : 6 каналовРасположение каналов : Front: L C R, Side: L R, LFEЧастота : 48,0 КГцБитовая глубина : 16 битМетод сжатия : С потерямиРазмер потока : 512 Мбайт (7%)Заголовок : OriginalЯзык : EnglishDefault : НетForced : Нет

Текст #1Идентификатор : 5Формат : UTF-8Идентификатор кодека : S_TEXT/UTF8Идентификатор кодека/Информация : UTF-8 Plain TextЗаголовок : FullЯзык : RussianDefault : НетForced : Нет

Текст #2Идентификатор : 6Формат : UTF-8Идентификатор кодека : S_TEXT/UTF8Идентификатор кодека/Информация : UTF-8 Plain TextЗаголовок : FullЯзык : EnglishDefault : НетForced : Нет

Меню00:00:00.000 : en:Chapter 100:02:56.884 : en:Chapter 200:08:28.007 : en:Chapter 300:17:05.857 : en:Chapter 400:27:13.631 : en:Chapter 500:32:27.987 : en:Chapter 600:36:49.914 : en:Chapter 700:46:49.389 : en:Chapter 800:56:08.907 : en:Chapter 901:02:45.677 : en:Chapter 1001:08:07.750 : en:Chapter 1101:14:22.291 : en:Chapter 1201:20:00.502 : en:Chapter 1301:25:38.800 : en:Chapter 1401:30:14.908 : en:Chapter 1501:38:59.975 : en:Chapter 1601:43:37.877 : en:Chapter 1701:46:13.867 : en:Chapter 18

Хроники Риддика / The Chronicles of Riddick Год выпуска: 2004Страна: СШАЖанр: фантастика, боевик, триллер, приключенияПродолжительность: 02:14:06Перевод: Профессиональный [Дубляж] + Многоголосый закадровый на вставкиСубтитры: Rus (полные), Eng (полные)

Режиссер: Дэвид Туи / David TwohyВ ролях: Вин Дизель (Riddick), Колм Фиор (Lord Marshal), Тэнди Ньютон (Dame Vaako), Джуди Денч (Aereon), Карл Урбан (Vaako), Алекса Давалос (Kyra), Лайнас Роуч (Purifier), Йорик ван Вагенинген (The Guv), Ник Чинланд (Toombs), Кит Дэвид (Imam), Марк Гиббон (Irgun), Роджер Р. Кросс (Toal)

Описание: Последние пять лет Риддик провел в бегах среди забытых миров на задворках галактики, прячась от наемников, назначивших цену за его голову. Теперь беглец оказался на планете Гелион, где живет прогрессивное многонациональное общество, завоеванное лордом Маршалом, фанатиком, решившим поработить человечество армадой своих воинов, некромонгеров. Совершив побег из подземной тюрьмы, где температура колебалась от арктических ночей до вулканических дней, Риддик встречает Кайру, последнюю оставшуюся в живых женщину из раннего периода его жизни. Его попытки освободить себя и Кайру приводят их на борт главного корабля некромонгеров, где ему предстоит столкнуться с лордом Маршалом в апокалиптической битве не на жизнь, а на смерть.

kinopoisk.ru: 7.437 (54 151)imdb.com: 6.70 (153 785)MPAA: PG-13 - Детям до 13 лет просмотр не желателен

Качество: BDRip 720pФормат: MKVВидео кодек: AVCАудио кодек: AC3Видео: AVC, 1280x536 (2.40:1), 5544 kbps, 59,940 fps, 0,135 bppАудио дубляж: AC3 / 5.1 / 48 kHz / 640 kbps / 16 bit Аудио CP Digital: AC3 / 5.1 / 48 kHz / 640 kbps / 16 bit Аудио английский: AC3 / 5.1 / 48 kHz / 640 kbps / 16 bit

ОбщееУникальный идентификатор : 208555050480025407614160248921859535063 (0x9CE63DDE8FB7066CA86D52DA424BB0D7)Полное имя : C:\закачки\Риддик 720p 60fps\Риддик 2 720p 60fps.mkvФормат : MatroskaВерсия формата : Version 4 / Version 2Размер файла : 7,13 ГбайтПродолжительность : 2 ч. 14 м.Общий поток : 7616 Кбит/секДата кодирования : UTC 2014-06-27 23:58:52Программа кодирования : mkvmerge v7.0.0 ('Where We Going') 64bit built on Jun 9 2014 15:16:27Библиотека кодирования : libebml v1.3.0 + libmatroska v1.4.1DURATION : 02:02:43.610000000NUMBER_OF_FRAMES : 919NUMBER_OF_BYTES : 29486_STATISTICS_WRITING_APP : mkvmerge v7.0.0 ('Where We Going') 64bit built on Jun 9 2014 15:16:27_STATISTICS_WRITING_DATE_UTC : 2014-06-27 23:58:52_STATISTICS_TAGS : BPS DURATION NUMBER_OF_FRAMES NUMBER_OF_BYTES

ВидеоИдентификатор : 1Формат : AVCФормат/Информация : Advanced Video CodecПрофиль формата : [email protected]Параметр CABAC формата : ДаПараметр ReFrames формата : 9 кадровИдентификатор кодека : V_MPEG4/ISO/AVCПродолжительность : 2 ч. 14 м.Битрейт : 5545 Кбит/секШирина : 1280 пикселейВысота : 536 пикселейСоотношение сторон : 2,40:1Режим частоты кадров : ПостоянныйЧастота кадров : 59,880 кадров/секЧастота кадров в оригинале : 59,940 кадров/секЦветовое пространство : YUVСубдискретизация насыщенности : 4:2:0Битовая глубина : 8 битТип развёртки : ПрогрессивнаяБит/(Пиксели*Кадры) : 0.135Размер потока : 5,19 Гбайт (73%)Библиотека кодирования : x264 core 130 r2273 b3065e6Настройки программы : cabac=1 / ref=9 / deblock=1:-2:-2 / analyse=0x3:0 / me=umh / subme=9 / psy=1 / psy_rd=1.00:0.10 / mixed_ref=1 / me_range=24 / chroma_me=0 / trellis=1 / 8x8dct=1 / cqm=0 / deadzone=21,11 / fast_pskip=0 / chroma_qp_offset=-3 / threads=12 / lookahead_threads=1 / sliced_threads=0 / nr=0 / decimate=0 / interlaced=0 / bluray_compat=0 / constrained_intra=0 / bframes=6 / b_pyramid=2 / b_adapt=2 / b_bias=0 / direct=1 / weightb=1 / open_gop=0 / weightp=2 / keyint=599 / keyint_min=59 / scenecut=40 / intra_refresh=0 / rc=crf / mbtree=0 / crf=16.0 / qcomp=0.60 / qpmin=0 / qpmax=69 / qpstep=4 / ip_ratio=1.40 / pb_ratio=1.30 / aq=1:0.90Язык : EnglishDefault : ДаForced : НетDURATION : 02:14:05.930000000NUMBER_OF_FRAMES : 482273NUMBER_OF_BYTES : 5724510748_STATISTICS_WRITING_APP : mkvmerge v7.0.0 ('Where We Going') 64bit built on Jun 9 2014 15:16:27_STATISTICS_WRITING_DATE_UTC : 2014-06-27 23:58:52_STATISTICS_TAGS : BPS DURATION NUMBER_OF_FRAMES NUMBER_OF_BYTES

Аудио #1Идентификатор : 2Формат : AC-3Формат/Информация : Audio Coding 3Расширение режима : CM (complete main)Параметр Endianness формата : BigИдентификатор кодека : A_AC3Продолжительность : 2 ч. 14 м.Вид битрейта : ПостоянныйБитрейт : 640 Кбит/секКаналы : 6 каналовРасположение каналов : Front: L C R, Side: L R, LFEЧастота : 48,0 КГцБитовая глубина : 16 битМетод сжатия : С потерямиРазмер потока : 614 Мбайт (8%)Заголовок : Dub+MVOЯзык : RussianDefault : ДаForced : Нет

Аудио #2Идентификатор : 3Формат : AC-3Формат/Информация : Audio Coding 3Расширение режима : CM (complete main)Параметр Endianness формата : BigИдентификатор кодека : A_AC3Продолжительность : 2 ч. 14 м.Вид битрейта : ПостоянныйБитрейт : 640 Кбит/секКаналы : 6 каналовРасположение каналов : Front: L C R, Side: L R, LFEЧастота : 48,0 КГцБитовая глубина : 16 битМетод сжатия : С потерямиРазмер потока : 614 Мбайт (8%)Заголовок : MVOЯзык : RussianDefault : НетForced : Нет

Аудио #3Идентификатор : 4Формат : AC-3Формат/Информация : Audio Coding 3Расширение режима : CM (complete main)Параметр Endianness формата : BigИдентификатор кодека : A_AC3Продолжительность : 2 ч. 14 м.Вид битрейта : ПостоянныйБитрейт : 640 Кбит/секКаналы : 6 каналовРасположение каналов : Front: L C R, Side: L R, LFEЧастота : 48,0 КГцБитовая глубина : 16 битМетод сжатия : С потерямиРазмер потока : 614 Мбайт (8%)Заголовок : OriginalЯзык : EnglishDefault : НетForced : Нет

Текст #1Идентификатор : 5Формат : UTF-8Идентификатор кодека : S_TEXT/UTF8Идентификатор кодека/Информация : UTF-8 Plain TextЗаголовок : FullЯзык : RussianDefault : НетForced : Нет

Текст #2Идентификатор : 6Формат : UTF-8Идентификатор кодека : S_TEXT/UTF8Идентификатор кодека/Информация : UTF-8 Plain TextЗаголовок : FullЯзык : EnglishDefault : НетForced : Нет

Меню00:00:00.000 : en:The Necromongers00:02:39.325 : en:Hard Bounty00:07:05.508 : en:Back to Civilization00:11:25.643 : en:A Fighting Chance00:15:31.805 : en:A True Furyan00:20:58.757 : en:Attack of the Necromongers00:27:11.713 : en:Lensing & Cleansing00:31:27.302 : en:The Lord Marshal's Offer00:38:52.330 : en:Mind Regression00:43:32.568 : en:Caught00:47:18.418 : en:You Can Keep What You Kill00:53:38.340 : en:Welcome to Crematoria01:01:36.818 : en:Jack's Dead...01:04:29.824 : en:A Private War01:08:45.579 : en:Feeding Time01:11:43.173 : en:Two Killers01:17:19.051 : en:Good News & Bad News01:22:50.006 : en:Running the Surface01:29:05.131 : en:The Big Heat01:32:42.473 : en:The Better Killer01:41:13.650 : en:This Is Your Chance01:44:28.220 : en:What Are the Odds?01:48:15.197 : en:The Enemy Within01:53:18.583 : en:Convert or Fall01:57:02.682 : en:The Soul of a Furyan02:00:00.693 : en:Kill the Beast02:03:05.753 : en:At the Feet of an Outlaw02:04:08.065 : en:End Titles

Риддик / Riddick Год выпуска: 2013Страна: США, ВеликобританияЖанр: фантастика, боевик, триллерПродолжительность: 02:06:47Перевод: Профессиональный [Дубляж] + Двухголосный закадровый на вставкиСубтитры: Rus (полные), Eng (полные)

Режиссер: Дэвид Туи / David TwohyВ ролях: Вин Дизель (Riddick), Хорди Молья (Santana), Мэтью Нэйбл (Boss Johns), Кэти Сакхофф (Dahl), Дэйв Батиста (Diaz), Букем Вудбайн (Moss), Рауль Трухильо (Lockspur), Конрад Пла (Vargas), Дэнни Бланко (Falco), Карл Урбан (Vaako), Ной Дэнби (Nunez), Нил Напье (Rubio)

Описание: Преданный своими и брошенный умирать на пустынной планете, Риддик сражается с хищниками за жизнь и становится сильнее и опаснее себя прежнего. Открывшие на него охоту галактические наемники оказываются пешками в грандиозном плане отмщения. С врагами, возникающими на его пути тогда, когда это нужно самому Риддику, он начинает поход во имя мести, чтобы в конечном счете вернуться на родную Фурию и спасти ее от уничтожения.

kinopoisk.ru: 6.584 (37 418)imdb.com: 6.40 (83 847)MPAA: R - Лицам до 17 лет обязательно присутствие взрослого

Качество: BDRip 720pФормат: MKVВидео кодек: AVCАудио кодек: AC3Видео: AVC, 1280x536 (2.40:1), 5146 kbps, 59,940 fps, 0,125 bppАудио русский: AC3 / 5.1 / 48 kHz / 384 kbps / 16 bit Аудио английский: AC3 / 5.1 / 48 kHz / 640 kbps / 16 bit

ОбщееУникальный идентификатор : 214226309229947470555203000873011056083 (0xA12A7C838A6A466DB3D1A073E7770DD3)Полное имя : C:\закачки\Риддик 720p 60fps\Риддик 3 720p 60fps.mkvФормат : MatroskaВерсия формата : Version 4 / Version 2Размер файла : 5,58 ГбайтПродолжительность : 2 ч. 6 м.Общий поток : 6296 Кбит/секДата кодирования : UTC 2014-06-28 01:04:01Программа кодирования : mkvmerge v7.0.0 ('Where We Going') 64bit built on Jun 9 2014 15:16:27Библиотека кодирования : libebml v1.3.0 + libmatroska v1.4.1DURATION : 02:01:18.403000000NUMBER_OF_FRAMES : 1184NUMBER_OF_BYTES : 32853_STATISTICS_WRITING_APP : mkvmerge v7.0.0 ('Where We Going') 64bit built on Jun 9 2014 15:16:27_STATISTICS_WRITING_DATE_UTC : 2014-06-28 01:04:01_STATISTICS_TAGS : BPS DURATION NUMBER_OF_FRAMES NUMBER_OF_BYTESAttachment : Yes

ВидеоИдентификатор : 1Формат : AVCФормат/Информация : Advanced Video CodecПрофиль формата : [email protected]Параметр CABAC формата : ДаПараметр ReFrames формата : 9 кадровИдентификатор кодека : V_MPEG4/ISO/AVCПродолжительность : 2 ч. 6 м.Битрейт : 5146 Кбит/секШирина : 1280 пикселейВысота : 536 пикселейСоотношение сторон : 2,40:1Режим частоты кадров : ПостоянныйЧастота кадров : 59,880 кадров/секЧастота кадров в оригинале : 59,940 кадров/секЦветовое пространство : YUVСубдискретизация насыщенности : 4:2:0Битовая глубина : 8 битТип развёртки : ПрогрессивнаяБит/(Пиксели*Кадры) : 0.125Размер потока : 4,56 Гбайт (82%)Библиотека кодирования : x264 core 130 r2273 b3065e6Настройки программы : cabac=1 / ref=9 / deblock=1:-2:-2 / analyse=0x3:0 / me=umh / subme=9 / psy=1 / psy_rd=1.00:0.10 / mixed_ref=1 / me_range=24 / chroma_me=0 / trellis=1 / 8x8dct=1 / cqm=0 / deadzone=21,11 / fast_pskip=0 / chroma_qp_offset=-3 / threads=12 / lookahead_threads=1 / sliced_threads=0 / nr=0 / decimate=0 / interlaced=0 / bluray_compat=0 / constrained_intra=0 / bframes=6 / b_pyramid=2 / b_adapt=2 / b_bias=0 / direct=1 / weightb=1 / open_gop=0 / weightp=2 / keyint=599 / keyint_min=59 / scenecut=40 / intra_refresh=0 / rc=crf / mbtree=0 / crf=16.0 / qcomp=0.60 / qpmin=0 / qpmax=69 / qpstep=4 / ip_ratio=1.40 / pb_ratio=1.30 / aq=1:0.90Язык : EnglishDefault : ДаForced : НетDURATION : 02:06:47.541000000NUMBER_OF_FRAMES : 455996NUMBER_OF_BYTES : 5008583555_STATISTICS_WRITING_APP : mkvmerge v7.0.0 ('Where We Going') 64bit built on Jun 9 2014 15:16:27_STATISTICS_WRITING_DATE_UTC : 2014-06-28 01:04:01_STATISTICS_TAGS : BPS DURATION NUMBER_OF_FRAMES NUMBER_OF_BYTES

Аудио #1Идентификатор : 2Формат : AC-3Формат/Информация : Audio Coding 3Расширение режима : CM (complete main)Параметр Endianness формата : BigИдентификатор кодека : A_AC3Продолжительность : 2 ч. 6 м.Вид битрейта : ПостоянныйБитрейт : 384 Кбит/секКаналы : 6 каналовРасположение каналов : Front: L C R, Side: L R, LFEЧастота : 48,0 КГцБитовая глубина : 16 битМетод сжатия : С потерямиРазмер потока : 348 Мбайт (6%)Заголовок : Dub+MVOЯзык : RussianDefault : ДаForced : Нет

Аудио #2Идентификатор : 3Формат : AC-3Формат/Информация : Audio Coding 3Расширение режима : CM (complete main)Параметр Endianness формата : BigИдентификатор кодека : A_AC3Продолжительность : 2 ч. 6 м.Вид битрейта : ПостоянныйБитрейт : 640 Кбит/секКаналы : 6 каналовРасположение каналов : Front: L C R, Side: L R, LFEЧастота : 48,0 КГцБитовая глубина : 16 битМетод сжатия : С потерямиРазмер потока : 580 Мбайт (10%)Заголовок : OriginalЯзык : EnglishDefault : НетForced : Нет

Текст #1Идентификатор : 4Формат : UTF-8Идентификатор кодека : S_TEXT/UTF8Идентификатор кодека/Информация : UTF-8 Plain TextЗаголовок : FullЯзык : RussianDefault : НетForced : Нет

Текст #2Идентификатор : 5Формат : UTF-8Идентификатор кодека : S_TEXT/UTF8Идентификатор кодека/Информация : UTF-8 Plain TextЗаголовок : FullЯзык : EnglishDefault : НетForced : Нет

Меню00:00:00.000 : en:Chapter 0100:05:35.418 : en:Chapter 0200:12:10.521 : en:Chapter 0300:23:27.364 : en:Chapter 0400:27:56.424 : en:Chapter 0500:32:11.220 : en:Chapter 0600:38:03.698 : en:Chapter 0700:44:20.282 : en:Chapter 0800:48:40.876 : en:Chapter 0900:56:19.667 : en:Chapter 1001:01:16.672 : en:Chapter 1101:07:35.092 : en:Chapter 1201:15:23.435 : en:Chapter 1301:19:58.835 : en:Chapter 1401:26:51.831 : en:Chapter 1501:31:27.106 : en:Chapter 1601:39:32.716 : en:Chapter 1701:45:32.701 : en:Chapter 1801:53:45.652 : en:Chapter 1902:02:56.160 : en:Chapter 20

Скачать Риддик через торрент http://i1.imageban.ru/out/2014/06/28/210bdb04b7e5f061e246bf58458fa1f3.jpg Скачать фильм Риддик через торрент бесплантно в хорошем качестве Описание: В недалеком будущем космический корабль терпит бедствие, в результате чего совершает вынужденную посадку на отдаленной планете. ... 2014-06-29 12:33 9.9 10 33

Loading...

Loading...

% Раздел Тема Автор DL S | L
Видео (iPhone, iPod Touch) [ 3.6 GB ] Риддик / Riddick [2013 BDRip 1080p ] makarevich Скачать
Сборники и Сиквелы (48-60 fps) [ 28.82 GB ] Риддик / Riddick [Трилогия] [1999 2004 2013 BDRip 1080p DUB] 60fps [Director's Cut] Ворон Скачать
Фильмы [HD 720p, 1080p] (Хороший звук DUB, MVO) [ 13.32 GB ] Хроники Риддика / The chronicles of Riddick [2004 BDRip 1080p DUB лицензия] Anatoly1812 Скачать
Фильмы 2013 [DVDrip, WEB-DLRip, HDrip] [ 2.52 GB ] Риддик / Riddick [2013 HDRip-AVC] [Extended] [] + [AVO] killermax2013 Скачать
Фильмы (Blu-ray, BD-Remux, HDDVD) [ 22.22 GB ] Риддик / Riddick [2013 BD-Remux USA Transfer ] Seedtank Скачать
Фильмы (Blu-ray, BD-Remux, HDDVD) [ 17.44 GB ] Риддик / Riddick [2013 Blu-ray + Оригинал] Бумер Скачать
Фильмы 2013 [DVDrip, WEB-DLRip, HDrip] [ 1.46 GB ] Риддик / Riddick [2013 HDRip [Цифровая / Russia] MihailHD Скачать

Рекламный пират

29-06-2014 13:20 Риддик Скачать торрент  

форсаж понравился при 60 fps, посмотрим и эти

29-06-2014 15:58 Риддик Скачать торрент  

____MPAA: R - Лицам до 17 лет обязательно присутствие взрослого____мне 16, допустим, и че мне с мамой это смотреть? в обязательном порядке?

29-06-2014 16:35 Риддик Скачать торрент  

SLAVIK 1.01 писал(а):

____MPAA: R - Лицам до 17 лет обязательно присутствие взрослого____мне 16, допустим, и че мне с мамой это смотреть? в обязательном порядке?

кинопоиск писал(а):

1. Что такое рейтинг MPAA?

Ассоциация MPAA (Американская Киноассоциация, Motion Picture Association of America) является родоначальницей рейтинговой системы, помогающей родителям оценить, подходят ли те или иные фильмы для просмотра их детьми.

Эта система не берёт на себя функции критика, она не определяет, плоха или хороша та или иная картина. Она не подвергает её цензуре, а лишь разъясняет потенциальные опасности для детских глаз. Причём, оценки выставляют сами родители — именно они на ротационной основе входят в правление администрации по классификации и рейтингам.

с кем хочешь смотри

29-06-2014 16:42 Риддик Скачать торрент  

KEYS, спс .. постою на раздаче

29-06-2014 17:36 Риддик Скачать торрент  

Класс, как раз хотел посмотреть все части, а тут еще и 60 FPS )

29-06-2014 19:54 Риддик Скачать торрент  

срочно место нужно найти))) спс))

29-06-2014 20:00 Риддик Скачать торрент  

В первой части (остальные пока не смотрел) при движении крупных объектов по экрану возникают сильные артефакты. Очень хорошо это видно в кадре № 81471 (22:39 М:С) где ствол пистолета просто исчезает. Это только у меня так?

30-06-2014 16:11 Риддик Скачать торрент  

lvdima писал(а):

В первой части (остальные пока не смотрел) при движении крупных объектов по экрану возникают сильные артефакты. Очень хорошо это видно в кадре № 81471 (22:39 М:С) где ствол пистолета просто исчезает. Это только у меня так?

в этом минус 60 фпс,у всех так

Pекламный агент PB

Дорогой пользователь! Огромная просьба, поблагодарите релизера, оцените раздачу и оставьте свои комментарий, если Вы скачали Риддик через торрент бесплатно! Внесите свою лепту в развитие PiratBit!

Комментировать посты могут только пользователи прошедшие не сложную регистрацию

Риддик через торрент Скачать бесплатно Риддик Риддик скачать торрент Риддик смотреть онлайн Cкачать фильм Риддик бесплатно Риддик скачать торрент в хорошем качестве Риддик смотреть онлайн бесплатно в хорошем качестве

Вы не можете начинать темыВы не можете отвечать на сообщенияВы не можете редактировать свои сообщенияВы не можете удалять свои сообщенияВы не можете голосовать в опросахВы не можете прикреплять файлы к сообщениямВы можете скачивать файлы

Скачать фильм Риддик через торрент в хорошем качестве бесплатно 1080p

Общее Уникальный идентификатор : 231069828314546354904510415453160845812 (0xADD66E1EEF856469B5D6C27A61E5B1F4) Полное имя : Riddick.2013.UNRATED.DC.BluRay.1080p.DTS.x264-CHD.mkv Формат : Matroska Версия формата : Version 2 Размер файла : 9,84 Гбайт Продолжительность : 2 ч. 6 м. Общий поток : 11,1 Мбит/сек Дата кодирования : UTC 2014-01-01 18:20:39 Программа кодирования : mkvmerge v6.3.0 ('You can't stop me!') built on Jun 28 2013 20:09:41 Библиотека кодирования : libebml v1.3.0 + libmatroska v1.4.0

ВидеоИдентификатор : 1Формат : AVCФормат/Информация : Advanced Video CodecПрофиль формата : [email protected]Параметр CABAC формата : ДаПараметр ReFrames формата : 5 кадровИдентификатор кодека : V_MPEG4/ISO/AVCПродолжительность : 2 ч. 6 м.Битрейт : 9220 Кбит/секШирина : 1920 пикселейВысота : 800 пикселейСоотношение сторон : 2,40:1Режим частоты кадров : ПостоянныйЧастота кадров : 23,976 кадра/секЦветовое пространство : YUVСубдискретизация насыщенности : 4:2:0Битовая глубина : 8 битТип развёртки : ПрогрессивнаяБит/(Пиксели*Кадры) : 0.250Размер потока : 7,97 Гбайт (81%)Заголовок : Riddick.2013.UNRATED.DCБиблиотека кодирования : x264 core 138 r2356 a1d3d17Настройки программы : cabac=1 / ref=5 / deblock=1:-3:-3 / analyse=0x3:0x113 / me=umh / subme=10 / psy=1 / psy_rd=1.00:0.05 / mixed_ref=1 / me_range=32 / chroma_me=1 / trellis=2 / 8x8dct=1 / cqm=0 / deadzone=21,11 / fast_pskip=0 / chroma_qp_offset=-2 / threads=18 / lookahead_threads=1 / sliced_threads=0 / nr=0 / decimate=1 / interlaced=0 / bluray_compat=0 / constrained_intra=0 / bframes=5 / b_pyramid=2 / b_adapt=2 / b_bias=0 / direct=3 / weightb=1 / open_gop=0 / weightp=2 / keyint=250 / keyint_min=23 / scenecut=40 / intra_refresh=0 / rc=2pass / mbtree=0 / bitrate=9220 / ratetol=1.0 / qcomp=0.70 / qpmin=0 / qpmax=69 / qpstep=4 / cplxblur=20.0 / qblur=0.5 / ip_ratio=1.40 / pb_ratio=1.30 / aq=2:1.00Язык : EnglishDefault : ДаForced : Нет

Аудио #1Идентификатор : 2Формат : AC-3Формат/Информация : Audio Coding 3Расширение режима : CM (complete main)Параметр Endianness формата : BigИдентификатор кодека : A_AC3Продолжительность : 2 ч. 6 м.Вид битрейта : ПостоянныйБитрейт : 384 Кбит/секКаналы : 6 каналовРасположение каналов : Front: L C R, Side: L R, LFEЧастота : 48,0 КГцБитовая глубина : 16 битМетод сжатия : С потерямиРазмер потока : 348 Мбайт (3%)Заголовок : R5+ParadoxЯзык : RussianDefault : ДаForced : Нет

Аудио #2Идентификатор : 3Формат : DTSФормат/Информация : Digital Theater SystemsРежим : 16Параметр Endianness формата : BigИдентификатор кодека : A_DTSПродолжительность : 2 ч. 6 м.Вид битрейта : ПостоянныйБитрейт : 1509 Кбит/секКаналы : 6 каналовРасположение каналов : Front: L C R, Side: L R, LFEЧастота : 48,0 КГцБитовая глубина : 24 битМетод сжатия : С потерямиРазмер потока : 1,34 Гбайт (14%)Заголовок : DTS-CORE 1536K ENGЯзык : EnglishDefault : НетForced : Нет

Текст #1Идентификатор : 4Формат : UTF-8Идентификатор кодека : S_TEXT/UTF8Идентификатор кодека/Информация : UTF-8 Plain TextЯзык : RussianDefault : ДаForced : Нет

Текст #2Идентификатор : 5Формат : UTF-8Идентификатор кодека : S_TEXT/UTF8Идентификатор кодека/Информация : UTF-8 Plain TextЗаголовок : full VoronineЯзык : RussianDefault : НетForced : Нет

Текст #3Идентификатор : 6Формат : UTF-8Идентификатор кодека : S_TEXT/UTF8Идентификатор кодека/Информация : UTF-8 Plain TextЯзык : EnglishDefault : НетForced : Нет

Меню00:00:00.000 : en:00:00:00.00000:05:35.418 : en:00:05:35.41800:12:10.521 : en:00:12:10.52100:23:27.364 : en:00:23:27.36400:27:56.425 : en:00:27:56.42500:32:11.221 : en:00:32:11.22100:38:03.698 : en:00:38:03.69800:44:20.283 : en:00:44:20.28300:48:40.876 : en:00:48:40.87600:56:19.668 : en:00:56:19.66801:01:16.673 : en:01:01:16.67301:07:35.093 : en:01:07:35.09301:15:23.436 : en:01:15:23.43601:19:58.836 : en:01:19:58.83601:26:51.832 : en:01:26:51.83201:31:27.107 : en:01:31:27.10701:39:32.717 : en:01:39:32.71701:45:32.701 : en:01:45:32.70101:53:45.652 : en:01:53:45.65202:02:56.160 : en:02:02:56.160

piratbit.ru


Смотрите также