Скачать три мушкетера 1961 через торрент в хорошем качестве


rutor.org :: Три мушкетера / Les Trois Mousquetaires (1961) HDTVRip 720p

main-rutor.org

Информация о фильмеНазвание: Три мушкетераОригинальное название: Les Trois MousquetairesГод выхода: 1961Жанр: ПриключенияРежиссер: Бернар БордериВ ролях: Жерар Баррэ, Жорж Декриер, Бернар Воринже, Жак Тожа, Милен Демонжо, Жан Карме, Ги Делорм, Робер Берри, Анн Тоньетти, Ги Трежан ...

О фильме:Итак, молодой гасконец Д`Артаньян прибывает в столицу на дрянной лошаденке непонятного цвета. Казалось, что может ждать деревенщину в Париже, кроме неприятностей? А вот что: служба в мушкетерском полку, любовь прелестнейшей из придворных дам, знакомство с королевой Анной Австрийской и приключения, приключения, приключения…

Фильм снят по мотивам романа Александра Дюма отца «Три мушкетёра» (Les trois mousquetaires, 1844). По мнению многих зрителей и критиков — лучшая экранизация великой книги. Весёлый, жизнерадостный, увлекательный фильм с великолепной режиссурой, диалогами, бравой и лиричной музыкой Поля Мизраки. Подбор актёров — выше всех похвал (изумительная по качеству и вкусу отечественная «озвучка»), отменные фехтовальные поединки, потасовки и трюки, тонкий юмор и ненавязчивый флер эротизма, привнесенного красивыми французскими актрисами. В картине, по отношению к роману, возросла роль графа Рошфора и появился персонаж, который только упоминается у Александра Дюма — мадам де Ланнуа… Абсолютный лидер советского проката 1962—1963 годов. Оставался популярным и в последующие годы. При повторном выпуске вновь побил все рекорды. 1 серия - «Подвески королевы». 2 серия - «Месть миледи»

Страна: Франция, ИталияСтудия: Borderie, Fono Roma, Le Film d'Art, Les Films Modernes (I)Продолжительность: 01:39:25 + 01:34:56Перевод 1: Профессиональный (дублированный) - Советский дубляжПеревод 2: Профессиональный (многоголосый закадровый) - Студия "Инис" по заказу "Союз-Видео"Перевод 3: Профессиональный (многоголосый закадровый) - ТВЦ

ФайлКодек: h364Качество: HDTVRip 720pВидео: MPEG4 Video (h364), 1280x520, 59.94fps, 5000 KbpsЗвук: Dolby AC3, 48000 Hz, 2ch, 192 kbps - Советский дубляж Звук: Dolby AC3, 48000 Hz, 2ch, 192 kbps - Многоголосый - Студия "Инис" по заказу "Союз-Видео" Звук: Dolby AC3, 48000 Hz, 2ch, 192 kbps - Многоголосый - ТВЦ

Сэмпл

MediaInfo:

General Unique ID : 252572880716162512055868487707831377662 (0xBE03C4750E761914AF1E755AFD911EFE) Complete name : F:Torrent 21961.Три.мушкетёра.renta231961 Три мушкетёра 1.mkv Format : Matroska Format version : Version 4 / Version 2 File size : 3.88 GiB Duration : 1h 39mn Overall bit rate : 5 581 Kbps Encoded date : UTC 2014-09-22 08:15:47 Writing application : mkvmerge v7.1.0 ('Good Love') 32bit built on Jul 27 2014 12:59:18 Writing library : libebml v1.3.0 + libmatroska v1.4.1 DURATION : 01:39:24.032000000 NUMBER_OF_FRAMES : 186376 NUMBER_OF_BYTES : 143136768 _STATISTICS_WRITING_APP : mkvmerge v7.1.0 ('Good Love') 32bit built on Jul 27 2014 12:59:18 _STATISTICS_WRITING_DATE_UTC : 2014-09-22 08:15:47 _STATISTICS_TAGS : BPS DURATION NUMBER_OF_FRAMES NUMBER_OF_BYTES

Video ID : 1 Format : AVC Format/Info : Advanced Video Codec Format profile : [email protected] Format settings, CABAC : Yes Format settings, ReFrames : 7 frames Codec ID : V_MPEG4/ISO/AVC Bit rate : 5 000 Kbps Width : 1 280 pixels Height : 520 pixels Display aspect ratio : 2.462 Frame rate mode : Variable Original frame rate : 59.940 fps Color space : YUV Chroma subsampling : 4:2:0 Bit depth : 8 bits Scan type : Progressive Bits/(Pixel*Frame) : 0.125 Title : Три мушкетера / Les trois mousquetaires 1961 / renta23 Writing library : x264 core 125 r2208 d9d2288 Encoding settings : cabac=1 / ref=8 / deblock=1:-1:-1 / analyse=0x3:0x133 / me=umh / subme=11 / psy=1 / psy_rd=1.15:0.15 / mixed_ref=1 / me_range=32 / chroma_me=1 / trellis=2 / 8x8dct=1 / cqm=0 / deadzone=21,11 / fast_pskip=0 / chroma_qp_offset=-3 / threads=12 / lookahead_threads=2 / sliced_threads=0 / nr=0 / decimate=1 / interlaced=0 / bluray_compat=0 / constrained_intra=0 / bframes=16 / b_pyramid=1 / b_adapt=2 / b_bias=0 / direct=3 / weightb=1 / open_gop=0 / weightp=2 / keyint=250 / keyint_min=25 / scenecut=40 / intra_refresh=0 / rc_lookahead=50 / rc=2pass / mbtree=1 / bitrate=5000 / ratetol=1.0 / qcomp=0.60 / qpmin=0 / qpmax=69 / qpstep=4 / cplxblur=20.0 / qblur=0.5 / ip_ratio=1.40 / aq=2:1.00 Language : French Default : Yes Forced : No

Audio #1 ID : 2 Format : AC-3 Format/Info : Audio Coding 3 Mode extension : CM (complete main) Format settings, Endianness : Big Codec ID : A_AC3 Duration : 1h 39mn Bit rate mode : Constant Bit rate : 192 Kbps Channel(s) : 2 channels Channel positions : Front: L R Sampling rate : 48.0 KHz Bit depth : 16 bits Compression mode : Lossy Stream size : 137 MiB (3%) Title : Советский дубляж Language : Russian Default : Yes Forced : No

Audio #2 ID : 3 Format : AC-3 Format/Info : Audio Coding 3 Mode extension : CM (complete main) Format settings, Endianness : Big Codec ID : A_AC3 Duration : 1h 39mn Bit rate mode : Constant Bit rate : 192 Kbps Channel(s) : 2 channels Channel positions : Front: L R Sampling rate : 48.0 KHz Bit depth : 16 bits Compression mode : Lossy Stream size : 137 MiB (3%) Title : Многоголосый - Студия "Инис" по заказу "Союз-Видео" Language : Russian Default : No Forced : No

Audio #3 ID : 4 Format : AC-3 Format/Info : Audio Coding 3 Mode extension : CM (complete main) Format settings, Endianness : Big Codec ID : A_AC3 Duration : 1h 39mn Bit rate mode : Constant Bit rate : 192 Kbps Channel(s) : 2 channels Channel positions : Front: L R Sampling rate : 48.0 KHz Bit depth : 16 bits Compression mode : Lossy Stream size : 137 MiB (3%) Title : Многоголосый - ТВЦ Language : Russian Default : No Forced : No

Три мушкетёра 1961 торрент скачать

Три мушкетера: Подвески королевы. Месть миледи / Les Trois Mousquetaires: Les ferrets de la reine. La vengeance de Milady (Бернар Бордери / Bernard Borderie) [1961, Франция, приключения, DVDRip] DUB1.45 GBТри мушкетера / Les trois mousquetaires (1961) HDTVRip [H.264/720p]7.84 GBТри мушкетера / Les trois mousquetaires (Бернар Бордери / Bernard Borderie) [1961, Франция, Италия, приключения, DVDRip] Dub (Советский Дубляж) + MVO (Студия "Инис") + MVO (ТВЦ) + Sub Ger + Original Fre3.4 GBТри мушкетера / Les trois mousquetaires (Бернар Бордери / Bernard Borderie) [1961, Франция, Италия, приключения, исторический, мелодрама, VHSRip] [Советская прокатная копия] Dub (Мосфильм)7.98 GBТри мушкетера (2 серии из 2) / Les Trois Mousquetaires / 1961 / ДБ, 2 x ПМ / HDTVRip (720p) / 7.84 ГБ7.84 GBТри мушкетера (2 серии из 2) / Les Trois Mousquetaires / 1961 / ДБ / DVDRip / 3.06 ГБ3.06 GBТри мушкетера (2 серии из 2) / Les Trois Mousquetaires / 1961 / ДБ, 2 x ПМ / 2 x DVD-9 / 14.29 ГБ14.29 GBТри мушкетера: Месть миледи / Les trois mousquetaires: La vengeance de Milady (Бернар Бордери / Bernard Borderie) [1961, приключения, AC3] MVO (НТВ+ / НТВ)127.8 MBТри мушкетера (1-2 серии из 2) / Les Trois Mousquetaires / 1961 / ПМ, ПД / DVDRip / 3.32 ГБ3.32 GBТри мушкетера / Les trois mousquetaires (Бернар Бордери / Bernard Borderie) [1961, Франция, Италия, приключения, 2xDVD9 (Custom)] [16:9 PAL R2] Dub (Советский Дубляж) + MVO (Студия "Инис") + MVO (ТВЦ) + Sub Ger + Original Fre + DUB Ger14.29 GBТри мушкетера (2 серии из 2) / Les Trois Mousquetaires / 1961 / ДБ, 2 x ПМ / DVDRip (AVC) / 5.54 ГБ5.54 GBТри мушкетера: Подвески королевы / Les trois mousquetaires: Les ferrets de la reine (Бернар Бордери / Bernard Borderie) [1961, приключения, AC3] MVO (НТВ+ / НТВ)135.5 MBТри мушкетера / Les Trois Mousquetaires (2 серии) (Бернар Бордери / Bernard Borderie) [1961, Франция, Приключения, DVDRip] MVO ТВЦ1.54 GBТри мушкетера / Les Trois mousquetaires (Бернар Бордери / Bernard Borderie) [1961, Франция, Италия, Приключения, псевдоисторические авантюры, 2хDVD5, союзовская картинка + советский дубляж + французская оригинальная дорожка]7.06 GBТри мушкетера (2 части из 2) / Les Trois Mousquetaires / 1961 / ДБ / 2 x DVD-5 / 7.06 ГБ7.06 GBТри мушкетера / Les Trois mousquetaires (1961) 2хDVD57.3 GBТри мушкетера: Подвески королевы. Месть миледи / Les Trois Mousquetaires: Les ferrets de la reine. La vengeance de Milady (Бернар Бордери / Bernard Borderie) [1961, Франция, Приключения, DVDRip-AVC] Dub + MVO4.37 GBТри мушкетера / Les Trois Mousquetaires (1961) [H.264] DVDRip5.38 GBТри мушкетера / Les Trois mousquetaires (Бернар Бордери / Bernard Borderie) [1961, Франция, Италия, Приключения, DVD5]8.09 GBТри мушкетера (1-2 серии из 2) / Les Trois Mousquetaires / 1961 / ДБ / DVDRip / 1.45 ГБ1.45 GBТри Мушкетёра / Три Мушкетёра (Jean Bernard-Luc, Bernanrd Borderie) [1961, Франция, Комедия, DVDRip]1.37 GBТри мушкетера (2 серии из 2) / Les Trois Mousquetaires / 1961 / ДБ, ПД / 2 x DVD-5 / 8.36 ГБ8.36 GBТри мушкетера / Les Trois mousquetaires 1961 Советский дубляж266.9 MBТри мушкетера / Les trois mousquetaires (Бернар Бордери) [1961, Франция, Италия, мелодрама, приключения, история, DVDRip SD (480p)] DUV, Original (fra)2.83 GBТри мушкетера (подвески королевы) / Les Trois Mousquetaires (Бернар Бодери / Bernard Borderie) [1961, Франция, Италия, мелодрама, приключения, DVD9]5.28 GBТРИ МУШКЕТЕРА /TROIS MOUSQUETAIRES, LES/ (1961)1.37 GBТри мушкетёра: Подвески королевы / Les Trois mousquetaires: Les ferrets de la reine (1961) VHSrip2.73 GBТри мушкетера / Les Trois Mousquetaires (1961) DVDRip3.32 GBТри мушкетера (2 серии из 2) / Les Trois Mousquetaires / 1961 / ПМ / DVD-9 / 7.78 ГБ7.78 GBТри мушкетера (2 серии из 2) / Les Trois Mousquetaires / 1961 / ДБ / BDRip (1080p) / 5.9 ГБ5.9 GB tparser.org – торрент поисковик по популярным торрент трекерам. Находить и скачивать новинки кино в HDRip и BDRip качестве через tparser намного проще! Добро пожаловать на крупный торрент архив фильмов и игр tparser.org. Вам больше не придется искать торренты на основных торрент трекерах в поисках нужной раздачи – мы предлагаем найти и скачать фильмы в хорошем качестве прямо на нашем сайте. Наш сервис поиска торрентов в реальном времени собирает информацию с крупных торрент трекеров и сортирует полученные результаты в удобную таблицу. Скачивайте торренты без ограничений и без всяких регистраций на трекерах. Начните скачивать торрент Три мушкетёра 1961 прямо сейчас!

tparser.org

( ) [2013, , BDRip 720p] [GER Transfer]

--------------------------------------------------------------------------- x264 [info]: frame I:3203 Avg QP:16.82 size:101691 x264 [info]: frame P:89761 Avg QP:19.71 size: 34025 x264 [info]: frame B:84892 Avg QP:21.61 size: 10767 --------------------------------------------------------------------------- Format : Matroska Format version : Version 2 File size : 4.37 GiB Duration : 1h 58mn Overall bit rate : 5 278 Kbps Movie name : = BDRip 720p by SC Kosmos = Encoded date : UTC 2014-09-20 08:29:40 Writing application : mkvmerge v3.3.0 ('Language') gebaut am Mar 24 2010 14:59:24 Writing library : libebml v0.8.0 + libmatroska v0.9.0

Video

ID : 1 Format : AVC Format/Info : Advanced Video Codec Format profile : [email protected] Format settings, CABAC : Yes Format settings, ReFrames : 9 frames Codec ID : V_MPEG4/ISO/AVC Duration : 1h 58mn Bit rate : 4 830 Kbps Width : 1 280 pixels Height : 720 pixels Display aspect ratio : 16:9 Frame rate : 25.000 fps Color space : YUV Chroma subsampling : 4:2:0 Bit depth : 8 bits Scan type : Progressive Bits/(Pixel*Frame) : 0.210 Stream size : 3.91 GiB (90%) Title : BDRip 720p by SC Kosmos Writing library : x264 core 142 r2479 dd79a61 Encoding settings : cabac=1 / ref=9 / deblock=1:-3:-3 / analyse=0x3:0x113 / me=umh / subme=11 / psy=1 / psy_rd=1.00:0.00 / mixed_ref=1 / me_range=32 / chroma_me=1 / trellis=2 / 8x8dct=1 / cqm=0 / deadzone=21,11 / fast_pskip=0 / chroma_qp_offset=-2 / threads=12 / lookahead_threads=1 / sliced_threads=0 / nr=0 / decimate=1 / interlaced=0 / bluray_compat=0 / constrained_intra=0 / bframes=12 / b_pyramid=2 / b_adapt=1 / b_bias=0 / direct=3 / weightb=1 / open_gop=0 / weightp=2 / keyint=250 / keyint_min=25 / scenecut=40 / intra_refresh=0 / rc_lookahead=40 / rc=2pass / mbtree=0 / bitrate=4830 / ratetol=1.0 / qcomp=0.60 / qpmin=0 / qpmax=69 / qpstep=4 / cplxblur=20.0 / qblur=0.5 / vbv_maxrate=50000 / vbv_bufsize=50000 / nal_hrd=none / filler=0 / ip_ratio=1.40 / pb_ratio=1.30 / aq=1:1.00 / zones=173970,177855,b=0.25 Language : Russian Default : No Forced : No

Audio

ID : 2 Format : AC-3 Format/Info : Audio Coding 3 Mode extension : CM (complete main) Codec ID : A_AC3 Duration : 1h 58mn Bit rate mode : Constant Bit rate : 448 Kbps Channel(s) : 6 channels Channel positions : Front: L C R, Side: L R, LFE Sampling rate : 48.0 KHz Bit depth : 16 bits Compression mode : Lossy Stream size : 380 MiB (8%) Language : Russian Default : Yes Forced : No

Menu

00:00:00.000 : en:Chapter 01 00:03:17.280 : en:Chapter 02 00:10:14.840 : en:Chapter 03 00:16:16.200 : en:Chapter 04 00:31:32.520 : en:Chapter 05 00:44:49.320 : en:Chapter 06 00:55:05.720 : en:Chapter 07 01:06:08.760 : en:Chapter 08 01:13:03.960 : en:Chapter 09 01:27:21.680 : en:Chapter 10 01:43:35.040 : en:Chapter 11 01:55:58.600 : en:Chapter 12 01:58:34.160 : en:Chapter 13

unionpeer.com

Три мушкетера (1961) скачать фильм через торрент бесплатно Все тут!

Три мушкетера (1961) скачать фильм через торрент бесплатно Все тут!

Jillian Brookes

Kina Kai

Daisy Strong

Paloma A

Aletta Ocean

Jeannie Sapphic

Amber Rayne

Lucy Lee

Mandy Bright

Brandy Aniston

Chyanne Jacobs

Ruri Haruka

Winnie

Kelly Madison

Deja Daire

Ginger Lynn

Nikita Bellucci

Iris

Shani Reid

Ciara Bugatti

dagwoodsdfw.com


Смотрите также