Скачать торрент в хорошем качестве оз великий и ужасный


Великий и Ужасный через торрент в хорошем качестве бесплатно BDRip

Размер: 2.18 GB | Добавлен: 4 года 3 мес. назад | Торрент скачан:1667 раз
Реклама Дарим 3000 рублей за регистрацию, не упусти свой шанс получить шикарный бонус!!!

07-07-2013 15:36 Оз: Великий и Ужасный Скачать торрент  

Оз: Великий и Ужасный / Oz the Great and Powerful«Find yourself in Oz.»
  • Год выпуска
  • :2013
  • Страна: США
  • Жанр:фэнтези, приключения, комедия, семейный
  • Продолжительность: 02:10:29
  • Перевод:Профессиональный (полное дублирование)[Лицензия]
  • Субтитры: Нет
    • Режиссер
    • : Сэм Рэйми / Sam Raimi
    • Продюсер:Джо Рот / Joe Roth, Дэбби Босси / Debbi Bossi, Грант Кертис / Grant Curtis, Джошуа Донен / Joshua Donen, К.С. Ходенфилд / K.C. Hodenfield
    • Сценарий:Митчелл Кэпнер / Mitchell Kapner, Дэвид Линдси-Эбейр / David Lindsay-Abaire, Лаймен Фрэнк Баум / Lyman Frank Baum
  • В ролях
  • :Джеймс Франко (Oz), Мила Кунис (Theodora), Рейчел Вайс (Evanora), Мишель Уильямс (Annie / Glinda), Зак Брафф (Frank / Finley), Билл Коббс (Master Tinker), Джои Кинг (Girl in Wheelchair / China Girl), Тони Кокс (Knuck), Стивен Р. Харт (Winkie General), Эбигейл Спенсер (May), Брюс Кэмпбелл (Winkie Gate Keeper), Тед Рэйми (Skeptic in Audience)
    • Описание
    • :Когда ураган забрасывает циркового фокусника Оскара Диггса из пыльного Канзаса в волшебную страну Оз, склонный к мошенничеству циркач полагает, что он поймал удачу за хвост - ведь с помощью своих трюков он с легкостью может добыть в новых землях и славу и богатство. Однако его ждёт встреча с тремя чародейками, Теодорой, Эванорой и Глиндой, которые сомневаются в том, тот ли это великий волшебник, появления которого ждали легковерные жители страны Оз. Волей-неволей, пришелец оказывается втянутым в противостояние эпического масштаба, и ему приходится использовать весь свой «магический» арсенал, с добавлением толики настоящего волшебства. В ситуации выбора между Добром и Злом, Оскару Диггсу предстоит не только стать Великим и Ужасным Волшебником из Страны Оз, но и немного измениться к лучшему.
  • Рейтингkinopoisk.ru: 6.586 (30 815)imdb.com: 6.60 (85 385)MPAA: PG - Рекомендуется присутствие родителей
    • Качество
    • : BDRip (источник: / Blu-ray Disc US / 1080p)
    • Формат
    : AVI
  • Видео кодек
  • : XviD
  • Аудио кодек
  • : AC3
  • Видео: XviD, 720x304 (2.35:1), 1839 kbps, 23,976 fps, 0,350 bpp
  • Аудио: AC3 / 5.1 / 48 kHz / 448 kbps / 16 bit GeneralComplete name : D:ТорентыOz.Velikij.i.Uzhasnyj.2013.RUS.BDRip.XviD.AC3.-HQCLUB.aviFormat : AVIFormat/Info : Audio Video InterleaveFile size : 2.18 GiBDuration : 2h 10mnOverall bit rate : 2 391 KbpsMovie name : Оз: Великий и Ужасный / Oz the Great and Powerful (2013) BDRipDirector : kingsize87Writing application : VirtualDubMod 1.5.10.2 (build 2540/release)Writing library : VirtualDubMod build 2540/releaseCopyright : HQCLUBComment : 07.07.2013

    VideoID : 0Format : MPEG-4 VisualFormat profile : Advanced [email protected] settings, BVOP : 1Format settings, QPel : NoFormat settings, GMC : No warppointsFormat settings, Matrix : CustomCodec ID : XVIDCodec ID/Hint : XviDDuration : 2h 10mnBit rate : 1 839 KbpsWidth : 720 pixelsHeight : 304 pixelsDisplay aspect ratio : 2.35:1Frame rate : 23.976 fpsColor space : YUVChroma subsampling : 4:2:0Bit depth : 8 bitsScan type : ProgressiveCompression mode : LossyBits/(Pixel*Frame) : 0.350Stream size : 1.68 GiB (77%)Writing library : XviD 65

    AudioID : 1Format : AC-3Format/Info : Audio Coding 3Mode extension : CM (complete main)Codec ID : 2000Duration : 2h 10mnBit rate mode : ConstantBit rate : 448 KbpsChannel(s) : 6 channelsChannel positions : Front: L C R, Side: L R, LFESampling rate : 48.0 KHzBit depth : 16 bitsCompression mode : LossyStream size : 418 MiB (19%)Alignment : Split accross interleaves

    Сценарий: Митчелл Кэпнер / Mitchell Kapner, Дэвид Линдси-Эбейр / David Lindsay-Abaire, Лаймен Фрэнк Баум / Lyman Frank BaumПродюсер: Джо Рот / Joe Roth, Дэбби Босси / Debbi Bossi, Грант Кертис / Grant Curtis, Джошуа Донен / Joshua Donen, К.С. Ходенфилд / K.C. HodenfieldОператор: Питер Диминг / Peter DemingКомпозитор: Дэнни Элфман / Danny Elfman

    Бюджет: $215 000 000Сборы в США: $234 832 779Сборы в России: $27 474 081Сборы в мире: $491 832 779

    Мировая премьера: 14 февраля 2013Релиз на DVD: 6 августа 2013, «Уолт Дисней Компани СНГ»Релиз на Blu-ray: 6 августа 2013, «Уолт Дисней Компани СНГ»

  • © Оформление by Vetal Скачать Оз: Великий и Ужасный через торрент http://i1.imageban.ru/out/2013/07/07/59ea8f4cc52c5f3f9ff9a213addd0ef3.jpg Скачать фильм Оз: Великий и Ужасный через торрент бесплантно в хорошем качестве Описание:Когда ураган забрасывает циркового фокусника Оскара Диггса из пыльного Канзаса в волшебную страну Оз, склонный к мошенничеству ... 2013-07-07 15:36 9.7 10 25

    Loading...

    Loading...

    Последний раз редактировалось: Ворон (2013-07-07 18:31), всего редактировалось 1 раз

    Рекламный пират

    07-07-2013 15:39 Оз: Великий и Ужасный Скачать торрент  

    http://drive.hqclub.net/file993

    http://drive.hqclub.net/file996

    http://drive.hqclub.net/file995

    06-10-2013 17:51 Оз: Великий и Ужасный Скачать торрент  

    Жалко ведьму которая зеленой стала, такая красотка была

    Дорогой пользователь! Огромная просьба, поблагодарите релизера, оцените раздачу и оставьте свои комментарий, если Вы скачали Оз: Великий и Ужасный через торрент бесплатно! Внесите свою лепту в развитие PiratBit!

    Комментировать посты могут только пользователи прошедшие не сложную регистрацию

    Оз: Великий и Ужасный через торрент Скачать бесплатно Оз: Великий и Ужасный Оз: Великий и Ужасный скачать торрент Оз: Великий и Ужасный смотреть онлайн Cкачать фильм Оз: Великий и Ужасный бесплатно Оз: Великий и Ужасный скачать торрент в хорошем качестве Оз: Великий и Ужасный смотреть онлайн бесплатно в хорошем качестве

    Вы не можете начинать темыВы не можете отвечать на сообщенияВы не можете редактировать свои сообщенияВы не можете удалять свои сообщенияВы не можете голосовать в опросахВы не можете прикреплять файлы к сообщениямВы можете скачивать файлы

    piratbit.ru

    Великий и Ужасный через торрент в хорошем качестве бесплатно 720p

    Размер: 6.04 GB | Добавлен: 4 года 4 мес. назад | Торрент скачан:646 раз
    Реклама Дарим 3000 рублей за регистрацию, не упусти свой шанс получить шикарный бонус!!!

    02-06-2013 13:08 Оз: Великий и Ужасный Скачать торрент  

    Оз: Великий и Ужасный / Oz the Great and Powerful Год выпуска: 2013Страна: США / Walt Disney Pictures, Roth FilmsЖанр: фэнтези, приключения, комедия, семейныйПродолжительность: 02:10:29
    • Перевод: Профессиональный (Дубляж) [iTunes Russia]
    • Русские субтитры: есть
    • Оригинальная аудиодорожка: АнглийскаяРежиссер: Сэм Рэйми / Sam RaimiВ ролях: Джеймс Франко, Мила Кунис, Рейчел Вайс, Мишель Уильямс, Зак Брафф, Билл Коббс, Джои Кинг, Тони Кокс, Стивен Р. Харт, Эбигейл СпенсерОписание: Когда ураган забрасывает циркового фокусника Оскара Диггса из пыльного Канзаса в волшебную страну Оз, склонный к мошенничеству циркач полагает, что он поймал удачу за хвост — ведь с помощью своих трюков он с легкостью может добыть в новых землях и славу и богатство. Однако его ждёт встреча с тремя чародейками, Теодорой, Эванорой и Глиндой, которые сомневаются в том, тот ли это великий волшебник, появления которого ждали легковерные жители страны Оз. Волей-неволей, пришелец оказывается втянутым в противостояние эпического масштаба, и ему приходится использовать весь свой «магический» арсенал, с добавлением толики настоящего волшебства. В ситуации выбора между Добром и Злом, Оскару Диггсу предстоит не только стать Великим и Ужасным Волшебником из Страны Оз, но и немного измениться к лучшему.
      • Тип релиза: BDRip 720p
      • Контейнер: MKV
      • Видео кодек: H.264 | Аудио кодек: DTS, AC3
      • Видео: 1280x536 (2.35:1), 23.976 fps, ~4 444 Kbps (0.272 bit/pixel)
      • Аудио 1: Russian: 48 kHz, AC3, 3/2 (L,C,R,l,r) + LFE ch, ~640.00 kbps avg |Дубляж|
      • Аудио 2: English: 48 kHz, DTS, 3/2 (L,C,R,l,r) + LFE ch, ~1510.00 kbps avg |Оriginal|
      • Субтитры: Russian, English
      • Чаптеры: 52шт.
      ОбщееПолное имя : D:torrenttorOz.the.Great.and.Powerful.720p.BluRay.Rus.Eng.mkvФормат : MatroskaРазмер файла : 6,04 ГиБПродолжительность : 2 ч. 10 м.Общий поток : 6624 Кбит/секДата кодирования : UTC 2010-02-22 21:41:31Программа кодирования : mkvmerge v5.9.0 ('On The Loose') built on Dec 9 2012 15:37:01Библиотека кодирования : libebml v1.3.0 + libmatroska v1.4.0

      ВидеоИдентификатор : 1Формат : AVCФормат/Информация : Advanced Video CodecПрофайл формата : [email protected]Параметры CABAC формата : ДаПараметры ReFrames формата : 5 кадрыFormat_Settings_GOP : M=4, N=32Режим смешивания : Container [email protected]Идентификатор кодека : V_MPEG4/ISO/AVCПродолжительность : 2 ч. 10 м.Битрейт : 4445 Кбит/секШирина : 1280 пикс.Высота : 536 пикс.Соотношение кадра : 2,35:1Частота кадров : 23,976 кадр/секColorSpace : YUVChromaSubsampling : 4:2:0BitDepth/String : 8 битТип развёртки : ПрогрессивнаяБит/(Пиксели*Кадры) : 0.272Размер потока : 3,96 ГиБ (66%)Библиотека кодирования : x264 core 133 r2334 a3ac64bНастройки программы : cabac=1 / ref=5 / deblock=1:0:0 / analyse=0x3:0x133 / me=umh / subme=7 / psy=1 / psy_rd=1.00:0.00 / mixed_ref=1 / me_range=16 / chroma_me=1 / trellis=1 / 8x8dct=1 / cqm=0 / deadzone=21,11 / fast_pskip=0 / chroma_qp_offset=-2 / threads=18 / lookahead_threads=3 / sliced_threads=0 / nr=0 / decimate=1 / interlaced=0 / bluray_compat=0 / constrained_intra=0 / bframes=3 / b_pyramid=2 / b_adapt=1 / b_bias=0 / direct=1 / weightb=1 / open_gop=0 / weightp=2 / keyint=250 / keyint_min=23 / scenecut=40 / intra_refresh=0 / rc_lookahead=40 / rc=2pass / mbtree=1 / bitrate=4476 / ratetol=1.0 / qcomp=0.60 / qpmin=0 / qpmax=69 / qpstep=4 / cplxblur=20.0 / qblur=0.5 / ip_ratio=1.40 / aq=1:1.00

      Аудио #1Идентификатор : 2Формат : AC-3Формат/Информация : Audio Coding 3Format_Settings_ModeExtension : CM (complete main)Идентификатор кодека : A_AC3Продолжительность : 2 ч. 10 м.Вид битрейта : ПостоянныйБитрейт : 640 Кбит/секКанал(ы) : 6 канала(ов)Расположение каналов : Front: L C R, Side: L R, LFEЧастота : 48,0 КГцBitDepth/String : 16 битРазмер потока : 597 МиБ (10%)Заголовок : Дубляж, ЛицензияЯзык : Russian

      Аудио #2Идентификатор : 3Формат : DTSФормат/Информация : Digital Theater SystemsИдентификатор кодека : A_DTSПродолжительность : 2 ч. 10 м.Вид битрейта : ПостоянныйБитрейт : 1510 Кбит/секКанал(ы) : 6 канала(ов)Расположение каналов : Front: L C R, Side: L R, LFEЧастота : 48,0 КГцBitDepth/String : 24 битЗадержка видео : 11 мс.Размер потока : 1,38 ГиБ (23%)Заголовок : DTS

      Текст #1Идентификатор : 4Формат : UTF-8Идентификатор кодека : S_TEXT/UTF8Идентификатор кодека/Информация : UTF-8 Plain TextЗаголовок : English

      Текст #2Идентификатор : 5Формат : UTF-8Идентификатор кодека : S_TEXT/UTF8Идентификатор кодека/Информация : UTF-8 Plain TextЗаголовок : Russian

      Меню00:00:00.000 : en:00:00:00.00000:02:37.699 : en:00:02:37.69900:06:16.960 : en:00:06:16.96000:09:57.555 : en:00:09:57.55500:11:32.692 : en:00:11:32.69200:15:20.753 : en:00:15:20.75300:17:47.191 : en:00:17:47.19100:20:29.478 : en:00:20:29.47800:24:01.982 : en:00:24:01.98200:24:49.780 : en:00:24:49.78000:27:01.662 : en:00:27:01.66200:29:37.359 : en:00:29:37.35900:32:43.420 : en:00:32:43.42000:34:30.193 : en:00:34:30.19300:37:22.657 : en:00:37:22.65700:38:57.377 : en:00:38:57.37700:40:39.145 : en:00:40:39.14500:42:09.944 : en:00:42:09.94400:42:52.445 : en:00:42:52.44500:45:33.481 : en:00:45:33.48100:47:22.840 : en:00:47:22.84000:48:32.409 : en:00:48:32.40900:53:29.832 : en:00:53:29.83200:55:22.653 : en:00:55:22.65300:57:15.932 : en:00:57:15.93200:59:10.839 : en:00:59:10.83901:02:05.263 : en:01:02:05.26301:05:33.221 : en:01:05:33.22101:06:21.102 : en:01:06:21.10201:09:55.775 : en:01:09:55.77501:12:20.836 : en:01:12:20.83601:15:37.783 : en:01:15:37.78301:18:20.321 : en:01:18:20.32101:19:47.783 : en:01:19:47.78301:21:27.883 : en:01:21:27.88301:26:16.171 : en:01:26:16.17101:28:08.783 : en:01:28:08.78301:30:33.219 : en:01:30:33.21901:34:24.117 : en:01:34:24.11701:36:57.437 : en:01:36:57.43701:37:35.975 : en:01:37:35.97501:41:30.876 : en:01:41:30.87601:42:30.394 : en:01:42:30.39401:45:51.762 : en:01:45:51.76201:48:33.424 : en:01:48:33.42401:51:23.802 : en:01:51:23.80201:54:26.318 : en:01:54:26.31801:55:54.072 : en:01:55:54.07201:57:58.405 : en:01:57:58.40501:59:34.417 : en:01:59:34.41702:02:49.571 : en:02:02:49.57102:04:32.757 : en:02:04:32.757

    Скачать Оз: Великий и Ужасный через торрент http://i47.fastpic.ru/big/2013/0602/58/e16299aa2a924442c1d973bbe6831758.jpg Скачать фильм Оз: Великий и Ужасный через торрент бесплантно в хорошем качестве Описание: Когда ураган забрасывает циркового фокусника Оскара Диггса из пыльного Канзаса в волшебную страну Оз, склонный к мошенничеству ... 2013-06-02 13:08 9.4 10 20

    Loading...

    Loading...

    Рекламный пират

    Дорогой пользователь! Огромная просьба, поблагодарите релизера, оцените раздачу и оставьте свои комментарий, если Вы скачали Оз: Великий и Ужасный через торрент бесплатно! Внесите свою лепту в развитие PiratBit!

    Комментировать посты могут только пользователи прошедшие не сложную регистрацию

    Оз: Великий и Ужасный через торрент Скачать бесплатно Оз: Великий и Ужасный Оз: Великий и Ужасный скачать торрент Оз: Великий и Ужасный смотреть онлайн Cкачать фильм Оз: Великий и Ужасный бесплатно Оз: Великий и Ужасный скачать торрент в хорошем качестве Оз: Великий и Ужасный смотреть онлайн бесплатно в хорошем качестве

    Вы не можете начинать темыВы не можете отвечать на сообщенияВы не можете редактировать свои сообщенияВы не можете удалять свои сообщенияВы не можете голосовать в опросахВы не можете прикреплять файлы к сообщениямВы можете скачивать файлы

    piratbit.ru

    Скачать Оз: Великий и Ужасный через торрент

    Категория: Фильмы 1858 0 Торрент добавлен: 15-04-2015 Рейтинг:

    Страна: США Продолжительность: 02:04:13 Жанр: фэнтези, приключения, комедия, семейный Режиссер: Сэм Рэйми В ролях: Джеймс Франко, Мила Кунис, Рейчел Вайс, Мишель Уильямс, Зак Брафф, Билл Коббс, Джои Кинг, Тони Кокс, Стивен Р. Харт, Эбигейл Спенсер

    Фокусник, работающий в цирке, по нелепой случайности или по воле матушки природы, очутился в загадочной стране Оз. Сначала он обрадовался, ведь он оказался в том самом месте где сможет, благодаря своим способностям, показывать трюки и с помощью этого станет очень популярным в этих местах. Однако после встречи с тремя чародейками, нашего героя ждет небольшое удивление, ведь они начинают сомневаться что он именно тот, кого обитатели страны Оз ждали долгие годы.

    Трейлер к фильму Оз: Великий и Ужасный

    Оз: Великий и Ужасный скачать торрент

    Качество: Blu-Ray (1080p)Видео: MPEG-4 AVC, 27.37 Мбит/с, 1920x1080, 23.976 кадр/сАудио: Русский (AC3, 6 ch, 448 Кбит/с), английский (DTS-HD MA, 8 ch, 5511 Кбит/с), (AC3, 6 ch, 640 Кбит/с), (AC3, 2 ch, 320 Кбит/с), французский (AC3, 6 ch, 640 Кбит/с)Дублированный | Чистый звук

    45,53 Gb

    Качество: BDRip (1080p)Видео: MPEG-4 AVC, 8076 Кбит/с, 1920x800Аудио: Русский (AC3, 6 ch, 448 Кбит/с), английский (DTS, 6 ch, 1510 Кбит/с)Дублированный [чистый звук]

    9,15 Gb

    3D

    Качество: BDRip (by Ash61)Контейнер: MKVФормат 3D: Half OverUnder / Вертикальная анаморфная стереопараПорядок ракурсов: левый ракурс первыйВидео кодек: x264Аудио кодек: AC3Дублированное [Чистый звук]

    9,64 Gb

    Формат: AVI (XviD)Качество: HDRip [Рип с BDRip 720p]Видео: 1663 Kb/s, 720x304Аудио: Russian: AC3, 448 kb/s (6 ch) / English: AC3, 128 kb/s (2 ch)Дублированное [Чистый звук] 2,04 Gb

    скачать

    Вы находитесь на странице, где можете совершенно бесплатно скачать фильм Оз: Великий и Ужасный в хорошем качестве через торрент, в любом формате, который больше всего вам на данный момент подходит. Скачивание осуществляется через торрент, что означает максимально высокую скорость загрузки. Желаем Вам приятного просмотра!. Не забудь поделиться своими впечатлениями после того как посмотришь фильм Оз: Великий и Ужасный.

    Информация Посетители, находящиеся в группе Гости, не могут оставлять комментарии к данной публикации.

    psp-gu.ru

    Великий и Ужасный (2013) через торрент фильм в HD качестве

    Название: Оз: Великий и УжасныйОригинальное название: Oz the Great and PowerfulГод выпуска: 2013Выпущено: СШАЖанр: фэнтези, приключения, комедия, магия, волшебство, сказочные мирыПродолжительность: 02:04:12Перевод: Дублированный (лицензия)

    Качество видео: HDRip (Лицензия)Формат видео: aviРазмер: 2180 MB

    Режиссер: Сэм РэймиВ ролях: Рейчел Вайс, Зак Брафф, Джеймс Франко, Мишель Уильямс, Мила Кунис, Билл Коббс и др.

    Описание: История проводится со стороны одного иллюзиониста. Зарабатывая на жизнь в бродячих цирках, он показывается лицом неблаговидных нравственных свойств. Всякий раз, когда он попадает в трудные ситуации ему приходит на помощь его язык и проницательный интеллект. Согласно власти судьбы он угождает в бурю, которая относит его далековато от родного Канзаса. Придя в чувства, он видит, что, он оказался по - настоящему в непонятном местечке, заселенном непонятными созданиями. В этом месте населения практически нет. Поняв, что в этом месте он имеет возможность организовать самое удивительное фокусное шоу, мечту своей жизни. Парень ухитряется доказывать всем без исключений, с кем он сталкивается на пути, будто он является самым всесокрушающим и сильным колдуном, пришедшим из далеких краев. Истории о подобных колдунах издавна пугают и дают надежды местным жителям. Они ему без раздумья доверяют, видят в волшебнике освободителя, поклоняются перед его выдуманным могуществом. Как бы то ни было, одним днем все внезапно разрушается: три реальные колдуньи — Глинда, Теодора и Эванора — не верят в то, что он самый могущественный волшебник всех времен. Ему придется нелегко в битве с ведьмами, ведь они по - настоящему обладают сверхъестественными силами. Фокуснику потребуется воспользоваться всеми своими навыками иллюзиониста, а совместно с этим — еще и капельку поменяться в хорошем смысле этого слова.

    Рады представить новый фильм Уолт Диснея под названием «Оз, великий и ужасный». Картина показывает нам историю о молодом человеке, который только и знает, что знакомится с местными девушками, используя в своем арсенале музыкальные шкатулки и истории о своих героических подвигах. Естественно, все его приключения - это всего лишь выдумки, но он их так преподносит, что трудно ему не поверить. Его мечта - стать настолько богатым, чтобы даже короли ему завидовали, и получить такую неземную славу, на зависть всем славным рыцарям. Только когда настает момент, что он может получить по лицу за свои прегрешения, он как последний трус, бросает все свое дело, забывает о своем друге и девушке - прыгает в воздушный шар и с хитрой ухмылкой на лице и улетает. Попав в ураган, он чудом остается в живых и попадает в волшебную страну. В этом месте тоже не все так хорошо - господство захватила ужасная колдунья, люди в ожидании освободителя, которого давным-давно напророчили провидцы, и тут на тебе, появляется этот герой-любовник и изображает из себя великого волшебника.

    За качество фильма необходимо отдать должное режиссеру - Сэму Рэйми, ему удалось немножечко разрядить Диснеевскую типичность и добавить в картину несколько своих фишек. Именно это и делает очень хорошее впечатление после просмотра «Оз, великий и ужасный». Естественно, манера Диснеевского кино остается той же самой: предсказуем каждый вздох и продолжительное безмолвие, каждый неожиданный поворот событий. Только это все не портит общий вид картины, мы привыкли к предсказуемости в кино, однако, игрушки которые умеют говорить и чувствовать, кролики которые пляшут под музыку - это первый шаг к положительному результату. Неловко говорить, но это - великолепно. Сказку трудно назвать «совсем детской», посмотреть только на девушку по имени Кунис, одетую в облегающие джинсы из кожи и корсет, открывающий почти все прелести её великолепной груди.Основная часть персонажей, не считая самого Волшебника страны Оз, состоят из обычных стандартов Диснея, однако, это совершенно не препятствует тому, чтобы с наслаждением смотреть фильм. Ведь фильм почти на все сто процентов удерживает зрителя у экрана за счет своей графики и великолепной постановки, даже если есть какие-то недочеты, то они просто расплываются на фоне всего этого. Моментами зрителю дают немного заскучать, а потом - резкий эмоциональный взрыв контрастов, ну конечно, при таком еще бюджете не сделать такое, я даже сказал бы что фильм выглядит даже богаче. Знаменитый Изумрудный город, изображенный во всей красе, ведущая к нему дорога из жёлтого кирпича, город, сделанный из фарфора, дивные существа, безграничные леса с красивейшими растениями, великолепные костюмы у героев - все это добавляет фильму «Оз, великий и ужасный» незабываемого зрелища.

    Фильм «Оз, великий и ужасный» вышел очень интересный, освеженный современными спецэффектами, но оставив в себе самое главное - это сохраненную классическую историю о великом волшебнике, которую все помнят. Фильм для просмотра подойдет, как и взрослым, так и детям. Будем ждать вторую часть этого замечательного фильма, ведь по идее должен появиться Страшила - в поисках ума, Трусливый лев - ищущий смелость, Железный дровосек - мечтающий о человеческом сердце.

    Для того чтобы скачать фильм Оз: Великий и Ужасный (2013) через торрент, Вам необходимо нажать на кнопку скачать торрент, которая находится над постером сверху, или на текстовую ссылку с надписью - Оз: Великий и Ужасный (2013) скачать торрент в хорошем качестве.

    igrhost.ru

    Великий и Ужасный через торрент в хорошем качестве бесплатно HDRip

    Раздают: 2 [ 0 KB/s ]
    Размер: 1.44 GB | Добавлен: 4 года 3 мес. назад | Торрент скачан:3169 раз
    Реклама Дарим 3000 рублей за регистрацию, не упусти свой шанс получить шикарный бонус!!!

    07-07-2013 15:47 Оз: Великий и Ужасный Скачать торрент  

    Оз: Великий и Ужасный / Oz the Great and Powerful«Find yourself in Oz.»
  • Год выпуска
  • :2013
  • Страна: США
  • Жанр:фэнтези, приключения, комедия, семейный
  • Продолжительность: 02:10:29
  • Перевод:Профессиональный (полное дублирование)[Лицензия]
  • Субтитры: Нет
    • Режиссер
    • : Сэм Рэйми / Sam Raimi
    • Продюсер:Джо Рот / Joe Roth, Дэбби Босси / Debbi Bossi, Грант Кертис / Grant Curtis, Джошуа Донен / Joshua Donen, К.С. Ходенфилд / K.C. Hodenfield
    • Сценарий:Митчелл Кэпнер / Mitchell Kapner, Дэвид Линдси-Эбейр / David Lindsay-Abaire, Лаймен Фрэнк Баум / Lyman Frank Baum
  • В ролях
  • :Джеймс Франко (Oz), Мила Кунис (Theodora), Рейчел Вайс (Evanora), Мишель Уильямс (Annie / Glinda), Зак Брафф (Frank / Finley), Билл Коббс (Master Tinker), Джои Кинг (Girl in Wheelchair / China Girl), Тони Кокс (Knuck), Стивен Р. Харт (Winkie General), Эбигейл Спенсер (May), Брюс Кэмпбелл (Winkie Gate Keeper), Тед Рэйми (Skeptic in Audience)
    • Описание
    • :Когда ураган забрасывает циркового фокусника Оскара Диггса из пыльного Канзаса в волшебную страну Оз, склонный к мошенничеству циркач полагает, что он поймал удачу за хвост - ведь с помощью своих трюков он с легкостью может добыть в новых землях и славу и богатство. Однако его ждёт встреча с тремя чародейками, Теодорой, Эванорой и Глиндой, которые сомневаются в том, тот ли это великий волшебник, появления которого ждали легковерные жители страны Оз. Волей-неволей, пришелец оказывается втянутым в противостояние эпического масштаба, и ему приходится использовать весь свой «магический» арсенал, с добавлением толики настоящего волшебства. В ситуации выбора между Добром и Злом, Оскару Диггсу предстоит не только стать Великим и Ужасным Волшебником из Страны Оз, но и немного измениться к лучшему.
  • Рейтингkinopoisk.ru: 6.589 (30 519)imdb.com: 6.60 (85 385)MPAA: PG - Рекомендуется присутствие родителей
    • Качество
    • : HDRip
    • Формат
    : AVI
  • Видео кодек
  • : XviD
  • Аудио кодек
  • : AC3
  • Видео: XviD, 720x304 (2.35:1), 1382 kbps, 23,976 fps, 0,263 bpp
  • Аудио: AC3 / 2.0 / 48 kHz / 192 kbps / 16 bit GeneralComplete name : D:ТорентыOz.velikij.i.ujasniy_HDRip_.aviFormat : AVIFormat/Info : Audio Video InterleaveFile size : 1.44 GiBDuration : 2h 10mnOverall bit rate : 1 584 KbpsWriting application : VirtualDubMod 1.5.10.2 (build 2540/release)Writing library : VirtualDubMod build 2540/release

    VideoID : 0Format : MPEG-4 VisualFormat profile : Advanced [email protected] settings, BVOP : 1Format settings, QPel : NoFormat settings, GMC : No warppointsFormat settings, Matrix : CustomCodec ID : XVIDCodec ID/Hint : XviDDuration : 2h 10mnBit rate : 1 383 KbpsWidth : 720 pixelsHeight : 304 pixelsDisplay aspect ratio : 2.35:1Frame rate : 23.976 fpsColor space : YUVChroma subsampling : 4:2:0Bit depth : 8 bitsScan type : ProgressiveCompression mode : LossyBits/(Pixel*Frame) : 0.263Stream size : 1.26 GiB (87%)Writing library : XviD 73

    AudioID : 1Format : AC-3Format/Info : Audio Coding 3Mode extension : CM (complete main)Codec ID : 2000Duration : 2h 10mnBit rate mode : ConstantBit rate : 192 KbpsChannel(s) : 2 channelsChannel positions : Front: L RSampling rate : 48.0 KHzBit depth : 16 bitsCompression mode : LossyStream size : 179 MiB (12%)Alignment : Aligned on interleavesInterleave, duration : 42 ms (1.00 video frame)Interleave, preload duration : 512 ms

    Сценарий: Митчелл Кэпнер / Mitchell Kapner, Дэвид Линдси-Эбейр / David Lindsay-Abaire, Лаймен Фрэнк Баум / Lyman Frank BaumПродюсер: Джо Рот / Joe Roth, Дэбби Босси / Debbi Bossi, Грант Кертис / Grant Curtis, Джошуа Донен / Joshua Donen, К.С. Ходенфилд / K.C. HodenfieldОператор: Питер Диминг / Peter DemingКомпозитор: Дэнни Элфман / Danny Elfman

    Бюджет: $215 000 000Сборы в США: $234 832 779Сборы в России: $27 474 081Сборы в мире: $491 832 779

    Мировая премьера: 14 февраля 2013Релиз на DVD: 6 августа 2013, «Уолт Дисней Компани СНГ»Релиз на Blu-ray: 6 августа 2013, «Уолт Дисней Компани СНГ»

  • © Оформление by Vetal Скачать Оз: Великий и Ужасный через торрент http://i3.imageban.ru/out/2013/07/07/20a7374fc477063a40e129d44174e396.jpg Скачать фильм Оз: Великий и Ужасный через торрент бесплантно в хорошем качестве Описание:Когда ураган забрасывает циркового фокусника Оскара Диггса из пыльного Канзаса в волшебную страну Оз, склонный к мошенничеству ... 2013-07-07 15:47 9.6 10 72

    Loading...

    Loading...

    Рекламный пират

    Дорогой пользователь! Огромная просьба, поблагодарите релизера, оцените раздачу и оставьте свои комментарий, если Вы скачали Оз: Великий и Ужасный через торрент бесплатно! Внесите свою лепту в развитие PiratBit!

    Комментировать посты могут только пользователи прошедшие не сложную регистрацию

    Оз: Великий и Ужасный через торрент Скачать бесплатно Оз: Великий и Ужасный Оз: Великий и Ужасный скачать торрент Оз: Великий и Ужасный смотреть онлайн Cкачать фильм Оз: Великий и Ужасный бесплатно Оз: Великий и Ужасный скачать торрент в хорошем качестве Оз: Великий и Ужасный смотреть онлайн бесплатно в хорошем качестве

    Вы не можете начинать темыВы не можете отвечать на сообщенияВы не можете редактировать свои сообщенияВы не можете удалять свои сообщенияВы не можете голосовать в опросахВы не можете прикреплять файлы к сообщениямВы можете скачивать файлы

    piratbit.ru

    Великий и Ужасный через торрент в хорошем качестве бесплатно 1080p

    GeneralUnique ID                                : 180417522458215034315695896406629309003 (0x87BB26A1588DF080B634002895E85A4B)Complete name                            : E:\Оз. Великий и Ужасный (2013) BDRip 1080p.mkvFormat                                   : MatroskaFormat version                           : Version 4 / Version 2File size                                : 9.59 GiBDuration                                 : 2h 10mnOverall bit rate                         : 10.5 MbpsEncoded date                             : UTC 2014-09-13 15:56:03Writing application                      : mkvmerge v6.9.1 ('Blue Panther') 64bit built on Apr 18 2014 18:23:38Writing library                          : libebml v1.3.0 + libmatroska v1.4.1Attachment                               : Yes

    VideoID                                       : 1Format                                   : AVCFormat/Info                              : Advanced Video CodecFormat profile                           : [email protected] settings, CABAC                   : YesFormat settings, ReFrames                : 5 framesCodec ID                                 : V_MPEG4/ISO/AVCDuration                                 : 2h 10mnBit rate                                 : 7 500 KbpsWidth                                    : 1 920 pixelsHeight                                   : 800 pixelsDisplay aspect ratio                     : 2.40:1Frame rate                               : 23.976 fpsColor space                              : YUVChroma subsampling                       : 4:2:0Bit depth                                : 8 bitsScan type                                : ProgressiveBits/(Pixel*Frame)                       : 0.204Stream size                              : 6.65 GiB (69%)Writing library                          : x264 core 133 r2334 a3ac64bEncoding settings                        : cabac=1 / ref=5 / deblock=1:-3:-3 / analyse=0x3:0x133 / me=tesa / subme=11 / psy=1 / psy_rd=1.05:0.00 / mixed_ref=1 / me_range=24 / chroma_me=1 / trellis=2 / 8x8dct=1 / cqm=0 / deadzone=21,11 / fast_pskip=1 / chroma_qp_offset=-2 / threads=12 / lookahead_threads=2 / sliced_threads=0 / nr=0 / decimate=1 / interlaced=0 / bluray_compat=0 / constrained_intra=0 / bframes=8 / b_pyramid=2 / b_adapt=2 / b_bias=0 / direct=3 / weightb=1 / open_gop=0 / weightp=2 / keyint=240 / keyint_min=23 / scenecut=40 / intra_refresh=0 / rc_lookahead=40 / rc=2pass / mbtree=0 / bitrate=7500 / ratetol=1.0 / qcomp=0.60 / qpmin=10 / qpmax=69 / qpstep=4 / cplxblur=20.0 / qblur=0.5 / vbv_maxrate=62500 / vbv_bufsize=78125 / nal_hrd=none / ip_ratio=1.40 / pb_ratio=1.30 / aq=2:0.75Language                                 : EnglishDefault                                  : YesForced                                   : No

    Audio #1ID                                       : 2Format                                   : DTSFormat/Info                              : Digital Theater SystemsCodec ID                                 : A_DTSDuration                                 : 2h 10mnBit rate mode                            : ConstantBit rate                                 : 1 510 KbpsChannel(s)                               : 6 channelsChannel positions                        : Front: L C R, Side: L R, LFESampling rate                            : 48.0 KHzBit depth                                : 24 bitsCompression mode                         : LossyStream size                              : 1.38 GiB (14%)Language                                 : RussianDefault                                  : YesForced                                   : Yes

    Audio #2ID                                       : 3Format                                   : DTSFormat/Info                              : Digital Theater SystemsCodec ID                                 : A_DTSDuration                                 : 2h 10mnBit rate mode                            : ConstantBit rate                                 : 1 510 KbpsChannel(s)                               : 6 channelsChannel positions                        : Front: L C R, Side: L R, LFESampling rate                            : 48.0 KHzBit depth                                : 24 bitsCompression mode                         : LossyStream size                              : 1.38 GiB (14%)Language                                 : EnglishDefault                                  : NoForced                                   : No

    Text #1ID                                       : 4Format                                   : UTF-8Codec ID                                 : S_TEXT/UTF8Codec ID/Info                            : UTF-8 Plain TextTitle                                    : ФорсированныеLanguage                                 : RussianDefault                                  : YesForced                                   : Yes

    Text #2ID                                       : 5Format                                   : UTF-8Codec ID                                 : S_TEXT/UTF8Codec ID/Info                            : UTF-8 Plain TextTitle                                    : ПолныеLanguage                                 : RussianDefault                                  : NoForced                                   : No

    Menu #100:00:00.000                             : en:00:00:00.00000:02:37.699                             : en:00:02:37.69900:06:16.960                             : en:00:06:16.96000:09:57.555                             : en:00:09:57.55500:11:32.692                             : en:00:11:32.69200:15:20.753                             : en:00:15:20.75300:17:47.191                             : en:00:17:47.19100:20:29.478                             : en:00:20:29.47800:24:01.982                             : en:00:24:01.98200:24:49.780                             : en:00:24:49.78000:27:01.662                             : en:00:27:01.66200:29:37.359                             : en:00:29:37.35900:32:43.420                             : en:00:32:43.42000:34:30.193                             : en:00:34:30.19300:37:22.657                             : en:00:37:22.65700:38:57.377                             : en:00:38:57.37700:40:39.145                             : en:00:40:39.14500:42:09.944                             : en:00:42:09.94400:42:52.445                             : en:00:42:52.44500:45:33.481                             : en:00:45:33.48100:47:22.840                             : en:00:47:22.84000:48:32.409                             : en:00:48:32.40900:53:29.832                             : en:00:53:29.83200:55:22.653                             : en:00:55:22.65300:57:15.932                             : en:00:57:15.93200:59:10.839                             : en:00:59:10.83901:02:05.263                             : en:01:02:05.26301:05:33.221                             : en:01:05:33.22101:06:21.102                             : en:01:06:21.10201:09:55.775                             : en:01:09:55.77501:12:20.836                             : en:01:12:20.83601:15:37.783                             : en:01:15:37.78301:18:20.321                             : en:01:18:20.32101:19:47.783                             : en:01:19:47.78301:21:27.883                             : en:01:21:27.88301:26:16.171                             : en:01:26:16.17101:28:08.783                             : en:01:28:08.78301:30:33.219                             : en:01:30:33.21901:34:24.117                             : en:01:34:24.11701:36:57.437                             : en:01:36:57.43701:37:35.975                             : en:01:37:35.97501:41:30.876                             : en:01:41:30.87601:42:30.394                             : en:01:42:30.39401:45:51.762                             : en:01:45:51.76201:48:33.424                             : en:01:48:33.42401:51:23.802                             : en:01:51:23.80201:54:26.318                             : en:01:54:26.31801:55:54.072                             : en:01:55:54.07201:57:58.405                             : en:01:57:58.40501:59:34.417                             : en:01:59:34.41702:02:49.571                             : en:02:02:49.57102:04:32.757                             : en:02:04:32.757

    piratbit.ru


    Смотрите также