Скачать торрент страна оз в хорошем качестве


Скачать фильм Страна ОЗ (2015) через торрент

gig-torrent.net

18 августа 2016 10:27 Страна ОЗ (2015) DVDRip-AVC от ExKinoRay | Лицензия .torrent   [Информация о файле (нажмите для просмотра)] Качество: DVDRip (AVC)Видео: MPEG-4 AVC, 2033 Кбит/с, [email protected]Аудио: AC3, 6 ch, 448 Кбит/с 1,66 Gb 15 5
18 августа 2016 10:27 Страна ОЗ (2015) DVDRip от Bathory | Кинотеатральная версия | Лицензия .torrent   [Информация о файле (нажмите для просмотра)] Перевод: Не требуется: оригиналКодек: XviDКачество: DVDRip |ИсходникВидео: 720x384, 1724 kbps, 25 fps, 0,250 Bits/(Pixel*Frame)Звук: AC3, 48 kHz, 6 ch, 448 kbpsСубтитры: Нет 1,46 Gb 81 9
18 августа 2016 10:27 Страна ОЗ (2015) DVD9 | Лицензия .torrent   [Информация о файле (нажмите для просмотра)] Перевод: не требуетсяКодек: MPEG2Качество: DVD9"Парадиз"Видео: PAL 16:9 ([email protected]) VBR 5506 Kbps, 25.000 fpsАудио: Dolby AC3, 6 ch, 48.0 KHz, 448 KbpsСубтитры: отсутствуютВидео: Идентификатор : 224 (0xE0) Формат : MPEG Video Версия формата : Version 2 Профиль формата : [email protected] Параметр BVOP формата : Да Параметр матрицы формата : По умолчанию Параметр GOP формата : Variable Продолжительность : 23 м. Вид битрейта : Переменный Битрейт : 5506 Кбит/сек Максимальный битрейт : 8500 Кбит/сек Ширина : 720 пикселей Высота : 576 пикселей Соотношение сторон : 16:9 Частота кадров : 25,000 кадров/сек Стандарт вещания : PAL Цветовое пространство : YUV Субдискретизация насыщенности : 4:2:0 Битовая глубина : 8 бит Тип развёртки : Прогрессивная Метод сжатия : С потерями Бит/(Пиксели*Кадры) : 0.531 Временной код первого кадра : 00:00:00:00 Оригинал временного кода : Group of pictures header Размер потока : 928 Мбайт (91%)Аудио: Идентификатор : 189 (0xBD)-128 (0x80) Формат : AC-3 Формат/Информация : Audio Coding 3 Расширение режима : CM (complete main) Параметр Endianness формата : Big Режим смешивания : DVD-Video Продолжительность : 23 м. Вид битрейта : Постоянный Битрейт : 448 Кбит/сек Каналы : 6 каналов Расположение каналов : Front: L C R, Side: L R, LFE Частота : 48,0 КГц Частота кадров : 31,250 кадров/сек (1536 spf) Метод сжатия : С потерями Размер потока : 75,5 Мбайт (7%) 7,71 Gb 6 3
18 августа 2016 10:27 Страна ОЗ (2015) WEB-DLRip от New-Team | iTunes .torrent   [Информация о файле (нажмите для просмотра)] Перевод: Не требуется [iTunes]Качество: WEB-DLRipКонтейнер: AVIВидео: XviD, 720x384 (1.875), 1694 kbps, 24 fps, 0,255 bppАудио: AC3 / 5.1 / 48 kHz / 384 kbps / 16 bit 1,46 Gb 47 5
18 августа 2016 10:27 Страна ОЗ (2015) WEB-DLRip-AVC | iTunes .torrent   [Информация о файле (нажмите для просмотра)] Перевод: Оригинальный [iTunes]Качество: WEB-DLRip-AVCФормат: MKVВидео: AVC, 1024x552 (1.855), 1710 kbps, 24 fps, 0,126 bppАудио: AC3 / 5.1 / 48 kHz / 384 kbps / 16 bitВидео: Идентификатор : 1 Формат : AVC Формат/Информация : Advanced Video Codec Профиль формата : [email protected] Параметр CABAC формата : Да Параметр ReFrames формата : 12 кадров Идентификатор кодека : V_MPEG4/ISO/AVC Продолжительность : 1 ч. 39 м. Битрейт : 1710 Кбит/сек Ширина : 1024 пикселя Высота : 552 пикселя Соотношение сторон : 1,85:1 Режим частоты кадров : Постоянный Частота кадров : 24,000 кадра/сек Цветовое пространство : YUV Субдискретизация насыщенности : 4:2:0 Битовая глубина : 8 бит Тип развёртки : Прогрессивная Бит/(Пиксели*Кадры) : 0.126 Размер потока : 1,16 Гбайт (80%) Библиотека кодирования : x264 core 130 r2273 b3065e6 Настройки программы : cabac=1 / ref=12 / deblock=1:-2:-2 / analyse=0x3:0x113 / me=umh / subme=11 / psy=1 / psy_rd=1.00:0.15 / mixed_ref=1 / me_range=32 / chroma_me=1 / trellis=2 / 8x8dct=1 / cqm=0 / deadzone=21,11 / fast_pskip=1 / chroma_qp_offset=-3 / threads=12 / lookahead_threads=3 / sliced_threads=0 / nr=0 / decimate=0 / interlaced=0 / bluray_compat=0 / constrained_intra=0 / bframes=13 / b_pyramid=2 / b_adapt=2 / b_bias=0 / direct=3 / weightb=1 / open_gop=0 / weightp=2 / keyint=240 / keyint_min=23 / scenecut=40 / intra_refresh=0 / rc_lookahead=40 / rc=2pass / mbtree=1 / bitrate=1710 / ratetol=1.0 / qcomp=0.60 / qpmin=0 / qpmax=69 / qpstep=4 / cplxblur=20.0 / qblur=0.5 / vbv_maxrate=17500 / vbv_bufsize=14000 / nal_hrd=none / ip_ratio=1.40 / aq=1:0.80 Default : Да Forced : НетАудио: Идентификатор : 2 Формат : AC-3 Формат/Информация : Audio Coding 3 Расширение режима : CM (complete main) Параметр Endianness формата : Big Идентификатор кодека : A_AC3 Продолжительность : 1 ч. 39 м. Вид битрейта : Постоянный Битрейт : 384 Кбит/сек Каналы : 6 каналов Расположение каналов : Front: L C R, Side: L R, LFE Частота : 48,0 КГц Битовая глубина : 16 бит Метод сжатия : С потерями Размер потока : 274 Мбайт (18%) Default : Да Forced : Нет 1,46 Gb 14 4
18 августа 2016 10:27 Страна ОЗ (2015) WEB-DL 1080p | iTunes .torrent   [Информация о файле (нажмите для просмотра)] Формат: MKV (x264)Качество: WEB-DL 1080pВидео: 5023 kb/s, 1920x1034Звук: AC3, 384 kb/s (6 ch) 3,85 Gb 42 4
18 августа 2016 10:27 Страна ОЗ (2015) WEB-DLRip от MegaPeer | iTunes .torrent   [Информация о файле (нажмите для просмотра)] Качество: WEB-DLRipВидео: XviD, 905 kb/s, 688x368Аудио: MP3, 128 kb/s (2 ch) 743,7 Mb 21 4
18 августа 2016 10:27 Страна ОЗ (2015) WEB-DL 720p | iTunes .torrent   [Информация о файле (нажмите для просмотра)] Формат: MKVКачество: WEB-DL 720pВидео: MPEG-4 AVC, 3941 kb/s, 1280x688Аудио: AC3, 384 kb/s (6 ch) 3,08 Gb 24 4
18 августа 2016 10:27 Страна ОЗ (2015) WEB-DLRip | iTunes .torrent   [Информация о файле (нажмите для просмотра)] Формат: AVI (XviD)Качество: WEB-DLRipВидео: 1703 kb/s, 720x384Аудио: AC3, 384 kb/s (6 ch) 1,46 Gb 161 3

Скачать торрент Страна ОЗ (2015) WEB-DLRip

Файлы для обмена предоставлены пользователями сайта. Администрация не несёт ответственности за их содержание. На сервере хранятся только торрент-файлы. Это значит, что мы не храним никаких нелегальных материалов, а так же материалов охраняемых авторским правом.

krutor.org

AlShoker 11-Июн-2016 17:23 (1 год 4 месяца назад) Оценил на: 10
Не смотря на чернуху, фильм отлично снят и сыгран всеми актерами. Интересная тема, есть о чем подумать, цепляет сильно. Надо смотреть до конца.
 
Team 30-Апр-2016 00:52 (1 год 5 месяцев назад) Оценил на: 10
Отличный фильм,история без преукрас,а не то что втюхивают красивые сюжеты рождество волшебство и всё такое
 
Morphin 1983 17-Мар-2016 13:45 (1 год 7 месяцев назад)
Ох вы и нытики!Не смотрите! -Я скажу от себя,фильм бомба!Юмор необыкновенный(черный) что для рос.кино это первое в своем роде!Папироса на 3-их и мы смеялись тупо истерически с фильма!В фильме реальное повседневное общение!(мат)Любители сериалов про ментов однозначно проходите мимо или те кто хочет посмотреть романт.комедию то это тоже не для вас!
 
mastanigga1 24-Янв-2016 07:20 (1 год 9 месяцев назад)
дрянь
 
Blablabolov 23-Янв-2016 16:50 (1 год 9 месяцев назад)
Кино на троечку. Просто выезжать на мате и чернухе уже не тема. Понравился бард. Очень точный портрет "креативного класса". Отлично с роли Виторган-мл., ну и Собчак в роли жены. Хотя, она также хорошо бы смотрелась в роли тётеньки, желающей покакать на пролетария)
 
c.a.t. 23-Янв-2016 09:30 (1 год 9 месяцев назад)
Да бывает же такое. Бедная баба через что прошла...
 
petr1464587 20-Янв-2016 12:35 (1 год 9 месяцев назад) Оценил на: 1
Исключительная мерзота. После просмотра - желание проблеваться. Актеров отчасти могу понять - им все равно в каком гуано сниматься, главное чтобы деньги платили... А вот сценариста совместно с режиссером, желательно в срочном порядке утопить в изображенной ими выгребной яме. А то не дай Господь еще чего гениального отчебучат... Это ж надо как дурная наследственность на мозг создателей сего "шедевра" повлияла...
 
kbnets 16-Янв-2016 13:00 (1 год 9 месяцев назад) Оценил на: 10
фильм-отражение "лица" России
 
Korvett 13-Янв-2016 13:25 (1 год 9 месяцев назад) Оценил на: 1
Редкостная трешачина, вызывающая уныние. Скачал из-за стадного эффекта. Удивительное количество зеленых отзывов на Кинопоиске..... С чего? Запретить надо таким долбанутым "режиссерам" кино снимать!
 
KOLOVRAT777 13-Янв-2016 13:25 (1 год 9 месяцев назад) Оценил на: 1
Создатели "фильма" и "актёры" ниже плинтуса.....Вот он эталон культуры....АктёроБлевотины, выше вас только "петушары".
 
Dezdechado 10-Янв-2016 15:55 (1 год 9 месяцев назад)
М-да! Чушь да и только.
 
PICASO1981 10-Янв-2016 14:15 (1 год 9 месяцев назад)
Dezdechado, как говорят в таких случаях: телефончик черканите того бесчеловечного садиста, который заставляет Вас читать каждый комментарий, не пользуясь “скроллом”; мы обязательно ему перезвоним и науськаем на путь истинный) А краткость много чему ещё сестра, так что, это совсем не эталонный показатель, на который нужно всегда ориентироваться.
 
PICASO1981 10-Янв-2016 13:10 (1 год 9 месяцев назад)
Труфальдино, как по мне, так это всего лишь яркое демонстрирование повседневного феномена или банальной ситуации, как хотите, в данном случае, когда образ бетонно-стального изваяния критика, созданного чужим воображением и засевшим где-то в сознании, не сочетается с его же человеческими проявлениями живых эмоций и настроений. Как-то так. Samuraisoul, не менее уважаемый, рад, что Вам нравятся мои отзывы, но не стоит делать из меня какой-то бредовый культ: я такой же, как и Вы, я никому ничего не обязан и не должен, никто меня не назначал критиком Рутора и уж точно за это я не получаю денег, которые бы обязывали. И это так.
 
makc1985 08-Янв-2016 16:00 (1 год 9 месяцев назад) Оценил на: 10
Смешной фильм посмеялся от души спасибо
 
1968 07-Янв-2016 23:40 (1 год 9 месяцев назад) Оценил на: 7
Как по мне, так фильм на раз. Много блевотного юмора и мата. Убрать всё это и фильм полностью потеряет свою оригинальность. При всём моём уважении к Сигареву, он снял далеко не лучший свой фильм.
 
viktorovski 07-Янв-2016 02:05 (1 год 9 месяцев назад) Оценил на: 3
Фильм снят после корабля.
 
Scajgo 05-Янв-2016 17:01 (1 год 9 месяцев назад) Оценил на: 1
Очередной высер либерастов... почему я живу в нормальном городе, в нормальной стране с нормальными людьми?! У автора ностальгия по 90-ым?! Сдохли те девяностые, чего и авторам фильма желаю...
 
Logitram 05-Янв-2016 00:25 (1 год 9 месяцев назад) Оценил на: 9
Ну вот и нашлась достойная замена "Иронии судьбы или...." под Новый год, так сказать смена поколений подоспела...
 
mastanigga1 04-Янв-2016 23:30 (1 год 9 месяцев назад) Оценил на: 1
ужас-выключили!!!
 
3a_delo 04-Янв-2016 01:40 (1 год 9 месяцев назад) Оценил на: 10
отличный фильм.новогодняя история для взрослых . не слушайте критиков смотрите сами.
 
Roman-Roman 31-Дек-2015 19:10 (1 год 9 месяцев назад) Оценил на: 1
Плохой фильм. Ничего у киногруппы не получилось. Актеры иногда старались, но нелепость победила всё и всех.
 
PICASO1981 31-Дек-2015 00:10 (1 год 9 месяцев назад)
TuX, так-то оно, конечно, понятно, что меня, включая других таких же недовольных в теме, причислили к непонимающим “бронелобым”, а себя также невольно и без задней мысли к тем же понимающим “придуркам ютуба”. Каждый остаётся при своём мнении. Значит разное у нас понимание стандартов художественного фильма. Для отображения жизненных реалистичных “срезов” общества с “чернушным” содержанием, в моём понимании, вполне достаточно документального жанра. Искусство в таких случаях затрагивать не стоит. Тыкать носом меня и, разделяющих мою точку зрения, людей куда-то и во что-то нет нужды: наши границы нравственности и человечности под охраной полученного воспитания, и мы видим, что действительно за всем этим стоит и прячется. Тыкать же остальных, как котят, в вытряхнутые из башмаков какашки, бессмысленное дело: не видел и не знаком в живую ни с одним человеком, поменявшим своё скотское мировоззрение и образ жизни из-за просмотра какого-то фильмишки из сети интернета… Наоборот, наверное, узнаю из новостей или стану нечаянным свидетелем в канун Нового года исполнения героического подвига, обыгранного в кадре этой “заказухи” Куценко, каким-нибудь дебилом из новых “ярких” поколений России … P.S. Критика сама по себе тяжело воспринимается людьми, тем более если она направлена на таких “аморалов”, и, зачастую, малополезна и без какого-нибудь, кроме отрицательного, эффекта.
 
PICASO1981 30-Дек-2015 21:45 (1 год 9 месяцев назад)
TuX, если Вы являетесь свидетелем такой жизни, или хуже того – сами так живёте, и именно в Вашу честь посвящается это “туалетное заседание”, то не мне одному станет от Вас противно. Противно от Вашего непонимания сути вопроса. Одно дело соткать такую реальность за счёт существующих, не специально, но получилось так, что срежиссированных, подготовленных стараний безмозглого поколения “ютьюб”, в виде роликов темы “А ВАМ СЛАБО”: “я – подставка для салюта”, “я умею лазить по балконам”, “я – аццкий йог” и т.д и т.п. ; а другое дело распознавать это “ткацкое” дело и понимать, к чему, вообще, существует весь этот неоднократный уже, тошнотворный цирк, для чего его созерцание нужно именно сейчас и к чему, в целом, это приводит, когда все границы между отрицательным и положительным подвергаются монотонному и последовательному размыванию. Когда люди, действительно, не понимают, где хорошо, где плохо, принимая какашки за конфеты. Призыва стать “чмом” никакого не требуется, так как задача, в принципе, уже выполнена. Вот и Вы защищаете то, что Ваши бабушка и дедушка, наверняка, даже бы не стали смотреть. Дело не в том, что что-то в кадре выдумано или является реальностью. Речь совсем не об этом. Надо учитывать, что все мы на Земле одинаковые люди, и что подобное, похожее, и совсем не альтернативное, творится в любом другом, в том числе и прежде всего западном государстве. Скорее, “Планета ОЗ”, чем что-то конкретное в ней. И да, главное, понимать в какое время это снято и показано нам. Получился из всего этого такой нестандартный, аморальный, но горячий привет и новогоднее поздравление Клинтон всему российскому народу: да, да, мы срём Вам на голову, и ещё заставляем над этим поржать… тупее только гамадрилы… P.S. Взять камеру, пройтись по общественным, городским уборным, поснимать унитазы крупным планом вместе с несмытым содержимым и засранными корзинами; съездить на местное обветшалое кладбище, с покосившимися крестами, и спящими под ними алкашами, денно и нощно дежурящеми за могилками; обязательно посетить центральную помойку, не забыв при этом навести всех местных бомжей и бичей, поинтересовавшись, как они выживают в этой стране; обойти все обосанные подворотни и колодцы, непременно при этом специально нарваться на стайку “гопарей”, отхватив при этом пару фингалов, два поломанных ребра и выбитый зуб, создав благоприятные условия для посещения городской обшарпанной больницы и т.д. и т.п. И назвать всё это художественным фильмом. Хлеб канала “Дождя”…
 
KasperL 30-Дек-2015 16:10 (1 год 9 месяцев назад)
Непонятна реакция критиков данного фильма. В нем что-то выдумано? Показаны несуществующие представители общества? Лживо очернена действительность? Вот от чего реально тошнит, так это от псевдогероев, у которых только на экране и присутствуют "границы между добром и злом, понятия чести, совести..." Страна Оз - правдивое, качественное кино. Кто этого не понимает, либо живет в мире иллюзий, либо является провокатором.
 
PICASO1981 29-Дек-2015 22:50 (1 год 9 месяцев назад)
Наберите в поисковике “план Даллеса” и бегло, хотя бы, пробегите взглядом по странице Википедии с данной статьёй, знакомя свой воспалённый мозг с теми разрушающими идеями, содержимым которых нас усердно и усиленно пичкают и нашпиговывают наши же режиссёры за “забугорские бабки“. Причём заметьте, “повылуплялась” вся эта российская “чернуха” в больших количествах (я даже уже сбился со счёта их премьер) именно тогда, когда Россия чётко и прямо сказала “нет” Западу. Надо быть полным дебилом, подобным “ларёчным героям” из данного шлака, чтобы не понимать всего происходящего вокруг, не способным сложить 2+2, и восторженно восхищаться увиденному, агитируя всех остальных на вступление в эту “небронелобую” партию шутов и клоунов, умеющих от души посмеяться над собой… P.S. Не смешивайте имя Аркадия Исааковича с представленным ничтожеством: Райкин, Царствие ему Небесное, тысячи раз давно перевернулся уже от такой отечественной “сатиры”…
 
kinohlamunet 29-Дек-2015 21:30 (1 год 9 месяцев назад) Оценил на: 1
Сам училсяв 80-ых в сельской школе и повидал и семилеток с папироской во рту и школьниц — уже ни девочек. Но по просмотру десяти минут этого высера выключил. Неужели не понятно, что вся эта чернуха лепится с одной целью — превратить зрителя в скота, который в фекалиях пытается найти что-то художественное. Нас превращают в быдло у которого уже нет границ между добром и злом, понятия чести, совести, даже элементарного, омерзения расплываются и исчезают. Создатели этого дерьма наносят огромный вред государству и его жителям, вне зависимости от политических взглядов. А всем «кино гурманам», посмотревшим сие « творение» рекомендую, также прочитать план Даллеса, чтобы более глубоко осознать с какой зелью штампуются данные «шедевры».
 
Dark79 28-Дек-2015 20:20 (1 год 9 месяцев назад) Оценил на: 9
Матов можно было бы и чуть меньше, совсем без них не то было б, а так фильму 9 твердая. Правда она такая, не всегда приятная.
 
kelt-by 28-Дек-2015 17:25 (1 год 9 месяцев назад) Оценил на: 6
У великого Балабанова есть подобный фильм под названием "Груз 200". Похож на чернуху, но это только кажется на первый взгляд.
 
Sklif1979 28-Дек-2015 15:55 (1 год 9 месяцев назад)
Ожидалось чонть в духе "Зеро 2" или "Святых из Бундока", помноженное на наши реалии и в жанре "комедия". По факту - рвотный порошок от нездоровых людей, с парой смешных моментов на весь фильм. Оценка фильму - пять ниже нуля.
 
Evgenii71 28-Дек-2015 12:00 (1 год 9 месяцев назад)
Присоединяюсь-фильм редкий отстой,такое однобокое видение пацанов на бентли как живёт страна. Из серии -есть ли жизнь за мкадом. Актёры вродь нормальные вписались но сниматься в такой парнухе-себя не уважать. Самое херовое что уличные малолетки это смотрят и балдеют,практически воссоздан их стереотип поведения, да продамажен на всю страну.Хотя может этот фильм и снят что бы показать народу что алкаголь рано или поздно превращает человека в свинью без облика и морали.
 
Libava 28-Дек-2015 00:15 (1 год 9 месяцев назад)
Грязноватое и озабоченное кинцо, разведённое туалетным юмором, с ненормативной лексикой!
 
KasperL 27-Дек-2015 16:10 (1 год 9 месяцев назад) Оценил на: 10
Гротескно. Смешно. Но больше грустно.
 
DrLost4 27-Дек-2015 12:45 (1 год 9 месяцев назад) Оценил на: 10
Отлично!!!! 10! Наконец наши что-то нормальное сняли
 
Hugo___1 27-Дек-2015 11:10 (1 год 9 месяцев назад) Оценил на: 10
фильм очень чёрный, мозговынос)) Были приколы местами, но в основном черняга
 
vad 40 27-Дек-2015 10:15 (1 год 9 месяцев назад) Оценил на: 10
СУПЕР!!! ЗАЧЕТ!!! В ТОЧКУ!!!
 
KasperL 27-Дек-2015 08:00 (1 год 9 месяцев назад) Оценил на: 10
Кто из дома последние лет 20 не выходил, тому наверное и правда этот фильм будет смотреть несмешно.
 
uriel1977 27-Дек-2015 01:15 (1 год 10 месяцев назад) Оценил на: 10
Я так, давно не ржал (не смеялся, а именно дико ржал)с комедий (комедии вообще не не очень люблю), но тут меня просто рвало на куски. Фильм просто чума. Чурикова - маэстро художественного мата. Да все актеры огонь. От сцены где у парня в WoT танк угнали - просто чуть сердечный приступ от смеха не накрыл. Рекомендую к просмотру всем кроме, детей, высокоморальных людей и тем кто не переносит матерной брани.
 
NOVOROSSIEC 26-Дек-2015 23:45 (1 год 9 месяцев назад) Оценил на: 10
Фильм классный, 10+
 
disaper 26-Дек-2015 21:55 (1 год 9 месяцев назад)
Кто смотрел? Пошлятины много?
 
Muchacha 26-Дек-2015 21:55 (1 год 9 месяцев назад)
Меня одного достала реклама казино на тррекере??? В помойку трекер превращаете.
 
Vokhsam 26-Дек-2015 21:55 (1 год 9 месяцев назад)
Детишки, прежде, чем комментировать, прочитайте сказку Волшебник из Страны Оз.
 
jem33 26-Дек-2015 21:25 (1 год 9 месяцев назад)
Наш кинематограф совсем опустился .URL=http://smayliki.ru/smilie-947134119.html][/URL]
 
Труфальдино 26-Дек-2015 20:45 (1 год 9 месяцев назад) Оценил на: 6
Ребята, сразу предупрежу, этот фильм нужно смотреть 1 января, в качестве дополнения к антиабстенентным средствам и КАТЕГОРИЧЕСКИ ЗАПРЕЩАЕТСЯ созерцать в присутствии ДЕТЕЙ, по причине активного наличия НЕНОРМАТИВНОЙ ЛЕКСИКИ к месту и нет, а также обсуждения тем, относящихся к половым перверсиям...Хотя НАСРАТЬ на ближнего-это у нас в порядке вещей. Я уважаю творчество Василия Сигарева, его фильм "Жить"-реальный стимулятор жизни для тех, кто постоянно ноет о том, "...в КАКОЙ стране мы живем???..."Второй раз такой фильм не посмотришь.А "Страна ОЗ", как уже сказали здесь, очень "качественный" ДЕНАТУРАТ, причем режиссер ловко манипулирут чувствами зрителя-лично мне это очень понравилось.Актеры играют изумительно, без исключения: роль Чуриковой чрезвычайно напомнила её героиню из "Шырли-Мырли", видимо, возраст.Но шутка про ЛДПР была очень ЗВУЧНОЙ!!!Смотреть или нет-решать вам, я не пожалел, хотя думал, что будет а-ля микс "Горько"+"Елки", но о том, чем это оказалось, читайте с ПЕРВЫХ строк. Релизеру поклон и +10, фильму +6.
 
parhom67 26-Дек-2015 20:25 (1 год 9 месяцев назад) Оценил на: 10
Какой-то не урапатриотичный фильм.Не в стиле путиносталинских традициях - всё хорошо прекрасная маркиза...
 
evggen136 26-Дек-2015 20:10 (1 год 9 месяцев назад) Оценил на: 10
Да, фильм очень не плох оказался. Он может и про быдло, но далеко не для быдла...
 
Demitsuri 26-Дек-2015 20:10 (1 год 9 месяцев назад)
Кто-нибудь живой вообще в конце хоть остался в этом очередном бессмысленном и беспощадном сигаревском творении?
 
72_13 26-Дек-2015 19:50 (1 год 9 месяцев назад) Оценил на: 7
прекрасный фильм.
 
zveloga 26-Дек-2015 19:50 (1 год 9 месяцев назад) Оценил на: 1
Ну и бред граждане,ужас!!!! Взрыв мозга!!! Не рекомендую.
 
Александр23 26-Дек-2015 19:35 (1 год 9 месяцев назад) Оценил на: 1
Стремный фильм ....
 
aScolt 26-Дек-2015 18:35 (1 год 9 месяцев назад) Оценил на: 10
Ну и не плохой кин так то... )))) И посмеялся и концовка в принципе нормальная. Культурным людям не рекомендую! )))))
 
Tayas 26-Дек-2015 15:55 (1 год 9 месяцев назад) Оценил на: 3
Отвратительный фильм. Правда, заставляет переживать за героиню-марсианку.
 
Kulaev 26-Дек-2015 15:55 (1 год 9 месяцев назад) Оценил на: 10
Фильм очень понравился. Это Россия !
 
Адмирал 26-Дек-2015 15:40 (1 год 9 месяцев назад)
предупреждать надо что ненормативная лексика присутствует, включили фильм а там матами сыпят колхозники)), спасибо.
 
rozov 26-Дек-2015 15:05 (1 год 9 месяцев назад)
Мерзкий фильм, к Новому Году только мы могли такую "комедию" снять. Все на Родине тупик.
 
vera3 26-Дек-2015 03:10 (1 год 10 месяцев назад)
хороший фильм
 

Скачать фильм Страна ОЗ через торрент в хорошем качестве бесплатно WEB-DLRip-AVC

piratbit.ru

Раздают: 3 [ 0 KB/s ]
Размер: 1.46 GB | Добавлен: 1 год 8 мес. назад | Торрент скачан:2249 раз
Реклама Дарим 3000 рублей за регистрацию, не упусти свой шанс получить шикарный бонус!!!

26-12-2015 05:44 Страна ОЗ Скачать торрент  

Страна ОЗ ««Скоро Новый год! Пора выбрасывать ёлки!»» Год выпуска: 2015 Страна: Россия Жанр: комедия Продолжительность: 01:39:48 Перевод: Оригинальный [iTunes] Режиссер: Василий Сигарев В ролях: Яна Троянова, Гоша Куценко, Андрей Ильенков, Александр Баширов, Евгений Цыганов, Владимир Симонов, Инна Чурикова, Светлана Камынина, Юлия Снигирь, Алиса Хазанова, Дарья Екамасова, Евгений Ройзман✦ Описание: Новый год в России - стихия неуправляемая и беспощадная. Именно в это волшебное время непостижимый колорит русской души проявляет себя во всей красе. Пока жители Екатеринбурга готовятся к главному национальному празднику и шинкуют оливье, Ленка Шабадинова спешит до боя курантов принять смену в киоске на улице Торфорезов. Но она даже не подозревает, что новогодняя ночь приготовила для нее свой безумный сценарий.✦ Мировая премьера: 8 ноября 2015 Качество: WEB-DLRip-AVC Rip by schultz R.G.Resident Формат: MKV Видео: AVC, 1024x552 (1.855), 1710 kbps, 24 fps, 0,126 bpp Аудио: AC3 / 5.1 / 48 kHz / 384 kbps / 16 bit

Код:

ОбщееУникальный идентификатор                 : 192468901716634943781084727345284480500 (0x90CC29808FAE929486AAC39BEBE57DF4)Полное имя                               : D:\download\7tRaNa.0zz.2015.WEB-DLRip-AVC by schultz R.G.Resident.mkvФормат                                   : MatroskaВерсия формата                           : Version 2Размер файла                             : 1,46 ГбайтПродолжительность                        : 1 ч. 39 м.Общий поток                              : 2094 Кбит/секДата кодирования                         : UTC 2015-12-26 05:34:57Программа кодирования                    : mkvmerge v6.1.0 ('Old Devil') built on Mar  4 2013 09:10:42Библиотека кодирования                   : libebml v1.3.0 + libmatroska v1.4.0

ВидеоИдентификатор                            : 1Формат                                   : AVCФормат/Информация                        : Advanced Video CodecПрофиль формата                          : [email protected]Параметр CABAC формата                   : ДаПараметр ReFrames формата                : 12 кадровИдентификатор кодека                     : V_MPEG4/ISO/AVCПродолжительность                        : 1 ч. 39 м.Битрейт                                  : 1710 Кбит/секШирина                                   : 1024 пикселяВысота                                   : 552 пикселяСоотношение сторон                       : 1,85:1Режим частоты кадров                     : ПостоянныйЧастота кадров                           : 24,000 кадра/секЦветовое пространство                    : YUVСубдискретизация насыщенности            : 4:2:0Битовая глубина                          : 8 битТип развёртки                            : ПрогрессивнаяБит/(Пиксели*Кадры)                      : 0.126Размер потока                            : 1,16 Гбайт (80%)Библиотека кодирования                   : x264 core 130 r2273 b3065e6Настройки программы                      : cabac=1 / ref=12 / deblock=1:-2:-2 / analyse=0x3:0x113 / me=umh / subme=11 / psy=1 / psy_rd=1.00:0.15 / mixed_ref=1 / me_range=32 / chroma_me=1 / trellis=2 / 8x8dct=1 / cqm=0 / deadzone=21,11 / fast_pskip=1 / chroma_qp_offset=-3 / threads=12 / lookahead_threads=3 / sliced_threads=0 / nr=0 / decimate=0 / interlaced=0 / bluray_compat=0 / constrained_intra=0 / bframes=13 / b_pyramid=2 / b_adapt=2 / b_bias=0 / direct=3 / weightb=1 / open_gop=0 / weightp=2 / keyint=240 / keyint_min=23 / scenecut=40 / intra_refresh=0 / rc_lookahead=40 / rc=2pass / mbtree=1 / bitrate=1710 / ratetol=1.0 / qcomp=0.60 / qpmin=0 / qpmax=69 / qpstep=4 / cplxblur=20.0 / qblur=0.5 / vbv_maxrate=17500 / vbv_bufsize=14000 / nal_hrd=none / ip_ratio=1.40 / aq=1:0.80Default                                  : ДаForced                                   : Нет

АудиоИдентификатор                            : 2Формат                                   : AC-3Формат/Информация                        : Audio Coding 3Расширение режима                        : CM (complete main)Параметр Endianness формата              : BigИдентификатор кодека                     : A_AC3Продолжительность                        : 1 ч. 39 м.Вид битрейта                             : ПостоянныйБитрейт                                  : 384 Кбит/секКаналы                                   : 6 каналовРасположение каналов                     : Front: L C R, Side: L R, LFEЧастота                                  : 48,0 КГцБитовая глубина                          : 16 битМетод сжатия                             : С потерямиРазмер потока                            : 274 Мбайт (18%)Default                                  : ДаForced                                   : Нет

Скачать Страна ОЗ через торрент http://pic1.pb.wtf/images/10/ejpqs.jpg Скачать фильм Страна ОЗ через торрент бесплантно в хорошем качестве Описание: Новый год в России - стихия неуправляемая и беспощадная. Именно в это волшебное время непостижимый колорит русской души проявляет ... 2016-01-31 16:58 9.1 10 122

Loading...

Loading...

Рекламный пират

26-12-2015 06:02 Страна ОЗ Скачать торрент  

У меня в соседнем дворе снимали сцены с ларьком.

26-12-2015 07:20 Страна ОЗ Скачать торрент  

как фильм?? смотреть можно?

26-12-2015 09:28 Страна ОЗ Скачать торрент  

1080p писал(а):

как фильм?? смотреть можно?

Без детей посмотреть можно, там даже 18+ маловато, 21+ само то... И это не комедия, это суровая реальность...

26-12-2015 09:33 Страна ОЗ Скачать торрент  

Фильм очень смешной! Спасибо!

26-12-2015 10:15 Страна ОЗ Скачать торрент  

Ржака нормальная.

26-12-2015 11:34 Страна ОЗ Скачать торрент  

Матерятся или запикали всё ?

26-12-2015 14:04 Страна ОЗ Скачать торрент  

фильм СУПЕР, реальный разрыв башки... ржака НЕРЕАЛЬНАЯ, 21+ реально - ничо НЕ запикано. СМОТРЕТЬ ВСЕМ

З.Ы.смотреть БЕЗ детей

Последний раз редактировалось: maxhleb (2015-12-26 14:50), всего редактировалось 1 раз

26-12-2015 14:21 Страна ОЗ Скачать торрент  

Bobr751 писал(а):

Матерятся или запикали всё ?

не, все чисто

Pекламный агент PB

26-12-2015 14:45 Страна ОЗ Скачать торрент  

Хоть на шедевр наверное и не тянет, но на отлично с плюсом несомненно.Нет, 3.14 здатый фильм, однозначно в копилку.

Последний раз редактировалось: Bobr751 (2015-12-26 15:19), всего редактировалось 1 раз

26-12-2015 15:05 Страна ОЗ Скачать торрент  

ща скачаем посмотрим и отпишемся

26-12-2015 19:53 Страна ОЗ Скачать торрент  

бредовый фильм про алкашей , нариков и игроманов

26-12-2015 20:43 Страна ОЗ Скачать торрент  

не комедия! грустный, даже тяжелый, слишком много бомжатского.

27-12-2015 05:06 Страна ОЗ Скачать торрент  

weisauge писал(а):

не комедия! грустный, даже тяжелый, слишком много бомжатского.

где там божми? тебе лет-то сколько?

27-12-2015 09:08 Страна ОЗ Скачать торрент  

patozawr писал(а):

бредовый фильм про алкашей , нариков и игроманов а ты розовые очки сними, вокруг посмотри... за МКАД километров за 200 отъехай... всякое общество делится на социальные группы, надо здраво осознавать какая из социальных групп представляет БОЛЬШИНСТВО... если ты далеко от дна, это НЕ значит что его нет... фильм представляет собой острую сатиру на современный Российский социум, вменяемые люди НЕ воспринимают его БУКВАЛЬНО... ежу понятно что всё утрированно...

посмотреть стоит)))

27-12-2015 15:07 Страна ОЗ Скачать торрент  

Мне не понравился

27-12-2015 16:19 Страна ОЗ Скачать торрент  

patozawr писал(а):

бредовый фильм про алкашей , нариков и игроманов Это реальность, оглянись вокруг...

Pекламный агент PB

27-12-2015 16:50 Страна ОЗ Скачать торрент  

наши нормальные фильмы редкость. посмотрим, может этот как раз редкий.спасибо раздающему

27-12-2015 18:42 Страна ОЗ Скачать торрент  

ripper33 писал(а):

У меня в соседнем дворе снимали сцены с ларьком.

какой там адрес?

27-12-2015 18:48 Страна ОЗ Скачать торрент  

Чёрт классный фильм... могут же когда захотят. Давно так не ржал однозначно возьму в коллекцию.

27-12-2015 23:58 Страна ОЗ Скачать торрент  

по-моему его в артхаус надо ибо детей жалко

28-12-2015 07:07 Страна ОЗ Скачать торрент  

Неоднозначная реакция, но досмотрели до конца. Фильм конечно не для семейного просмотра. Про "Бастинду" убило напрочь))

28-12-2015 07:59 Страна ОЗ Скачать торрент  

Этот филь дурдом + только можно смотреть. Не то, что 21+ или 50+

28-12-2015 08:29 Страна ОЗ Скачать торрент  

однозначно стоит посмотреть,такие антиЕлки новогодние

28-12-2015 09:38 Страна ОЗ Скачать торрент  

maxhleb писал(а):

patozawr писал(а):

бредовый фильм про алкашей , нариков и игроманов а ты розовые очки сними, вокруг посмотри... за МКАД километров за 200 отъехай... всякое общество делится на социальные группы, надо здраво осознавать какая из социальных групп представляет БОЛЬШИНСТВО... если ты далеко от дна, это НЕ значит что его нет... фильм представляет собой острую сатиру на современный Российский социум, вменяемые люди НЕ воспринимают его БУКВАЛЬНО... ежу понятно что всё утрированно...

посмотреть стоит)))

Живу в мелком городе за 300 км от МКАД... Вопрос -нафига мне тратить свое время на этот очередной шедевр отечественного синематографа,если мне достаточно выйти на улицу ,что бы все ЭТО увидеть?Шедевр видимо снят для москалей,типа вот она жизнь за МКАД!

Pекламный агент PB

Дорогой пользователь! Огромная просьба, поблагодарите релизера, оцените раздачу и оставьте свои комментарий, если Вы скачали Страна ОЗ через торрент бесплатно! Внесите свою лепту в развитие PiratBit!

Комментировать посты могут только пользователи прошедшие не сложную регистрацию

Страна ОЗ через торрент Скачать бесплатно Страна ОЗ Страна ОЗ скачать торрент Страна ОЗ смотреть онлайн Cкачать фильм Страна ОЗ бесплатно Страна ОЗ скачать торрент в хорошем качестве Страна ОЗ смотреть онлайн бесплатно в хорошем качестве

Вы не можете начинать темыВы не можете отвечать на сообщенияВы не можете редактировать свои сообщенияВы не можете удалять свои сообщенияВы не можете голосовать в опросахВы не можете прикреплять файлы к сообщениямВы можете скачивать файлы

Страна Оз торрент скачать | Скачать торренты в BDRip и HDRip качестве

Страна ОЗ (2015) WEB-DLRip | iTunes1.46 GBСтрана ОЗ (2015) WEB-DL 1080p | iTunes3.85 GBСтрана ОЗ (2015) WEB-DLRip-AVC | iTunes1.46 GBСтрана ОЗ (2015) DVDRip от Bathory | Лицензия1.46 GBСтрана ОЗ (2015) WEB-DL 720p | iTunes3.08 GBСтрана ОЗ (2015) WEB-DLRip от New-Team1.46 GBСтрана ОЗ (2015) WEB-DLRip от MegaPeer | iTunes743.7 MBСтрана ОЗ (2015) WEB-DLRip от Scarabey | iTunes745.37 MBСтрана ОЗ (2015) WEB-DLRip от Scarabey | iTunes745.37 MBСтрана ОЗ (2015) WEB-DL [H.264/1080p-LQ]3.85 GBBridge To Another World 4: Escape From Oz Collector's Edition / Мост в Другой мир 4: Побег из страны Оз. Коллекционное издание [P] [RUS / ENG] (2017)1.09 GBСтрана ОЗ (Василий Сигарев) [2015, Россия, комедия, WEB-DLRip]1.46 GBСтрана ОЗ (Василий Сигарев) [2015 г., комедия, WEB-DLRip]1.46 GBСтрана ОЗ / 2015 / РУ / DVDRip / 1.45 ГБ1.45 GBСтрана ОЗ (2015) DVDRip-AVC от ExKinoRay | Лицензия1.66 GBЗатерянные в стране Оз / Lost in Oz / Сезон: 1 / Серии: 1-7 из 13 (Пол Стодольный / Paul Stodolny) [2017, США, Канада, Великобритания, мультфильм, семейный, приключения WEB-DL 1080p] DVO (NewStation)7.96 GBСтрана ОЗ (2015) WEB-DLRip [H.264]1.46 GBСтрана ОЗ (Василий Сигарев) [2015 г., комедия, WEB-DL 1080p]3.85 GBСтрана ОЗ (Василий Сигарев) [2015, Россия, комедия, WEB-DL 1080p] Original Rus3.85 GBСтрана ОЗ (Василий Сигарев) [2015, Россия, комедия, DVDRip-AVC] [кинотеатральная / режиссёрская]2.18 GBСтрана ОЗ / 2015 / РУ / WEB-DL (1080p) / 3.85 ГБ3.85 GBСтрана ОЗ (Василий Сигарев) [2015, Россия, Комедия, WEB-DLRip-AVC]1.46 GBСтрана ОЗ (2015) HD 1080 | Трейлер135.35 MBЗатерянные в стране Оз (1 сезон: 1-10 серии из 13) / Lost in Oz / 2017 / ЛД (NewStation) / WEB-DL (1080p) / 11.09 ГБ11.09 GBЗатерянные в стране Оз / Lost in Oz / Сезон: 1 / Серии: 1-6 из 13 (Пол Стодольный / Paul Stodolny) [2017, США, Канада, Великобритания, мультфильм, семейный, приключения WEB-DL 1080p] DVO (NewStation)7.1 GBЗатерянные в стране Оз / Lost in Oz / Сезон: 1 / Серии: 1-8 из 13 (Пол Стодольный / Paul Stodolny) [2017, США, Канада, Великобритания, мультфильм, семейный, приключения WEB-DL 1080p] DVO (NewStation)8.9 GBЗатерянные в стране Оз / Lost in Oz / Сезон: 1 / Серии: 1-5 из 13 (Пол Стодольный / Paul Stodolny) [2017, США, Канада, Великобритания, мультфильм, семейный, приключения WEB-DL 1080p] DVO (NewStation)5.94 GB(Адаптированная аудиокнига) Baum F. - The Wizard of Oz /Волшебник страны Оз(Stage 4, 1400 headwords) [2007, MP3+PDF, ENG]123.7 MBЗатерянные в стране Оз (1 сезон: 1-5 серии из 13) / Lost in Oz / 2017 / ЛД (NewStation) / WEB-DL (1080p) / 5.94 ГБ5.94 GBЗатерянные в стране Оз / Lost in Oz / Сезон: 1 / Серии: 1-4 из 13 (Пол Стодольный / Paul Stodolny) [2017, США, Канада, Великобритания, мультфильм, семейный, приключения WEB-DL 1080p] DVO (NewStation)4.86 GBЗатерянные в стране Оз / Lost in Oz / Сезон: 1 / Серии: 1-9 из 13 (Пол Стодольный / Paul Stodolny) [2017, США, Канада, Великобритания, мультфильм, семейный, приключения WEB-DL 1080p] DVO (NewStation)10.01 GBСтрана ОЗ / 2015 / РУ / WEB-DL (720p) / 3.08 ГБ3.08 GBЗатерянные в стране Оз (1 сезон: 1-8 серии из 13) / Lost in Oz / 2017 / ЛД (NewStation) / WEB-DL (1080p) / 8.9 ГБ8.9 GBЗатерянные в стране Оз (1 сезон: 1-3 серии из 13) / Lost in Oz / 2017 / ЛД (NewStation) / WEB-DL (1080p) / 3.51 ГБ3.51 GBСтрана ОЗ (Василий Сигарев) [2015, Россия, комедия, WEB-DL 720p] + Original Rus3.08 GBВолшебник страны Оз / The Wizard of Oz (Виктор Флеминг / Victor Fleming, Мервин ЛеРой / Mervyn LeRoy, Ричард Торп / Richard Thorpe, Кинг Видор / King Vidor) [1939, США, фэнтези, мюзикл, приключения, семейный, HDRip] Dub1.46 GBЗатерянные в стране Оз (1 сезон: 1-7 серии из 13) / Lost in Oz / 2017 / ЛД (NewStation) / WEB-DL (1080p) / 7.96 ГБ7.96 GBВолшебник страны Оз / The Wizard of Oz (Виктор Флеминг / Victor Fleming, Джордж Кьюкор / George Cukor) [1939, США, мюзикл, фэнтези, приключения, семейный, BDRip 1080p] Dub + Original Eng + Sub Rus, Eng8.22 GBЗатерянные в стране Оз (1 сезон: 1-6 серии из 13) / Lost in Oz / 2017 / ЛД (NewStation) / WEB-DL (1080p) / 7.1 ГБ7.1 GB[испанский](адаптированная аудиокнига) Baum L. F. - El Maravilloso Mago de Oz (Nivel A1) / Удивительный Волшебник из Страны Оз [2011, PDF, WMA, ESP]57.1 MBЗатерянные в стране Оз (1 сезон: 1-9 серии из 13) / Lost in Oz / 2017 / ЛД (NewStation) / WEB-DL (1080p) / 10.01 ГБ10.01 GBЗатерянные в стране Оз (1 сезон: 1 серии из 13) / Lost in Oz / 2017 / ЛД (NewStation) / WEB-DL (1080p) / 1.13 ГБ1.13 GB(Адаптированная аудиокнига) Baum F. - The Wizard of Oz / Волшебник страны Оз (Stage-1) [2000, MP3 + PDF, ENG]76.1 MBСтрана ОЗ / 2015 / РУ / DVDRip (AVC) / 1.66 ГБ1.66 GBСтрана ОЗ (Василий Сигарев) [2015 г., комедия, DVDRip-AVC] Original1.66 GBТом и Джерри: Возвращение в страну Оз / Tom & Jerry. Back to Oz (Спайк Брандт / Spike Brandt, Тони Червоне / Tony Cervone) [2016, США, мультфильм, мюзикл, фэнтези, комедия, приключения, семейный, WEB-DL 1080p] MVO + Original (Eng) + SUB (eng)3.27 GBВолшебник страны Оз / The Wizard of Oz (Виктор Флеминг / Victor Fleming, Мервин ЛеРой / Mervyn LeRoy, Ричард Торп / Richard Thorpe, Кинг Видор / King Vidor) [1939, фэнтези, мюзикл, приключения, семейный, BDRip-AVC] Dub + English + Subs (Rus, Eng)2.32 GBЛаймен Фрэнк Баум - Страна Оз (15 книг) / Детская / 2014 / FB2 / 9 МБ9 MBFrank Baum L. / Фрэнк Баум Л. - OZ books / Цикл книг о стране ОЗ (14 шт.) [1900-1920, PDF, ENG]4.55 GBСтрана ОЗ (Василий Сигарев) [2015 г., комедия, DVDRip] Original1.46 GB tparser.org – торрент поисковик по популярным торрент трекерам. Находить и скачивать новинки кино в HDRip и BDRip качестве через tparser намного проще! Добро пожаловать на крупный торрент архив фильмов и игр tparser.org. Вам больше не придется искать торренты на основных торрент трекерах в поисках нужной раздачи – мы предлагаем найти и скачать фильмы в хорошем качестве прямо на нашем сайте. Наш сервис поиска торрентов в реальном времени собирает информацию с крупных торрент трекеров и сортирует полученные результаты в удобную таблицу. Скачивайте торренты без ограничений и без всяких регистраций на трекерах. Начните скачивать торрент Страна Оз прямо сейчас!

tparser.org


Смотрите также