Скачать торрент гравитация в хорошем качестве


Скачать фильм Гравитация через торрент в хорошем качестве бесплатно 720p

ОбщееУникальный идентификатор : 241467240054333802181122750430930210345 (0xB5A8E61920B0D06695EC26A3FF930E29)Полное имя : C:\закачки\Gravity [BDRip-720p 60 FPS] By EXCLUSIF.mkvФормат : MatroskaВерсия формата : Version 4 / Version 2Размер файла : 4,81 ГбайтПродолжительность : 1 ч. 30 м.Общий поток : 7562 Кбит/секНазвание фильма : Gravity [BDRip-720p 60 FPS] By EXCLUSIFДата кодирования : UTC 2014-02-20 00:08:24Программа кодирования : mkvmerge v6.5.0 ('Isn't she lovely') built on Oct 20 2013 12:50:05Библиотека кодирования : libebml v1.3.0 + libmatroska v1.4.1

ВидеоИдентификатор : 1Формат : AVCФормат/Информация : Advanced Video CodecПрофиль формата : [email protected]Параметр CABAC формата : ДаПараметр ReFrames формата : 8 кадровИдентификатор кодека : V_MPEG4/ISO/AVCПродолжительность : 1 ч. 30 м.Битрейт : 6323 Кбит/секШирина : 1280 пикселейВысота : 534 пикселяСоотношение сторон : 2,40:1Режим частоты кадров : ПостоянныйЧастота кадров : 59,880 кадров/секЧастота кадров в оригинале : 59,940 кадров/секЦветовое пространство : YUVСубдискретизация насыщенности : 4:2:0Битовая глубина : 8 битТип развёртки : ПрогрессивнаяБит/(Пиксели*Кадры) : 0.154Размер потока : 4,02 Гбайт (84%)Заголовок : Release by EXCLUSIFБиблиотека кодирования : x264 core 138 r2358 9e941d1Настройки программы : cabac=1 / ref=8 / deblock=1:-3:-2 / analyse=0x3:0x133 / me=umh / subme=9 / psy=1 / psy_rd=1.00:0.00 / mixed_ref=1 / me_range=24 / chroma_me=1 / trellis=2 / 8x8dct=1 / cqm=0 / deadzone=21,11 / fast_pskip=0 / chroma_qp_offset=-2 / threads=6 / lookahead_threads=1 / sliced_threads=0 / nr=0 / decimate=0 / interlaced=0 / bluray_compat=0 / constrained_intra=0 / bframes=5 / b_pyramid=2 / b_adapt=2 / b_bias=0 / direct=3 / weightb=1 / open_gop=0 / weightp=2 / keyint=599 / keyint_min=59 / scenecut=40 / intra_refresh=0 / rc_lookahead=60 / rc=crf / mbtree=1 / crf=18.0 / qcomp=0.60 / qpmin=0 / qpmax=69 / qpstep=4 / ip_ratio=1.40 / aq=1:1.00Язык : EnglishDefault : ДаForced : Нет

Аудио #1Идентификатор : 2Формат : AC-3Формат/Информация : Audio Coding 3Расширение режима : CM (complete main)Параметр Endianness формата : BigИдентификатор кодека : A_AC3Продолжительность : 1 ч. 30 м.Вид битрейта : ПостоянныйБитрейт : 448 Кбит/секКаналы : 6 каналовРасположение каналов : Front: L C R, Side: L R, LFEЧастота : 48,0 КГцБитовая глубина : 16 битМетод сжатия : С потерямиРазмер потока : 292 Мбайт (6%)Заголовок : RusЯзык : RussianDefault : ДаForced : Нет

Аудио #2Идентификатор : 3Формат : AC-3Формат/Информация : Audio Coding 3Расширение режима : CM (complete main)Параметр Endianness формата : BigИдентификатор кодека : A_AC3Продолжительность : 1 ч. 30 м.Вид битрейта : ПостоянныйБитрейт : 640 Кбит/секКаналы : 6 каналовРасположение каналов : Front: L C R, Side: L R, LFEЧастота : 48,0 КГцБитовая глубина : 16 битМетод сжатия : С потерямиРазмер потока : 416 Мбайт (8%)Заголовок : EngЯзык : EnglishDefault : НетForced : Нет

Текст #1Идентификатор : 4Формат : UTF-8Идентификатор кодека : S_TEXT/UTF8Идентификатор кодека/Информация : UTF-8 Plain TextЗаголовок : Rus ForcedЯзык : RussianDefault : ДаForced : Да

Текст #2Идентификатор : 5Формат : UTF-8Идентификатор кодека : S_TEXT/UTF8Идентификатор кодека/Информация : UTF-8 Plain TextЗаголовок : RusЯзык : RussianDefault : НетForced : Нет

Текст #3Идентификатор : 6Формат : UTF-8Идентификатор кодека : S_TEXT/UTF8Идентификатор кодека/Информация : UTF-8 Plain TextЗаголовок : EngЯзык : EnglishDefault : НетForced : Нет

piratbit.ru

Гравитация / Gravity (2013/BDRip) 720p от Hot-Film, Лицензия

* Имя героини Сандры Буллок — Ryan Stone — звучит как «rhinestone», что переводится как «фальшивый бриллиант».

* Джеймс Кэмерон назвал «Гравитацию» лучшей кинолентой о космосе в истории кино.

* Сандра Буллок перед съемками в фильме потратила шесть месяцев на физическую подготовку. Вместе с Альфонсо Куароном они прорабатывали сценарий в мельчайших подробностях. Они обсуждали каждую сцену с ее участием. Куарон и Буллок сошлись во мнении, что важнейшим аспектом ее игры является дыхание Стоун и то, как оно будет передавать ее эмоции. Джеймс Кэмерон, лучший друг Куарона, отметил, что та работа, которую проделала Буллок, впечатлила его больше, чем технологии, использовавшиеся во время съемок фильма.

* На главную женскую роль рассматривались Анджелина Джоли, Марион Котийяр, Скарлетт Йоханссон, Блейк Лайвли, Эбби Корниш, Кэри Маллиган, Сиенна Миллер, Ребекка Холл, Оливия Уайлд, Рэйчел Вайс, Наоми Уоттс и Натали Портман.

* Съемки фильма проходили с мая по июль 2011 года в Shepperton Studios, графство Суррей, Англия, и на территории водохранилища Пауэлл, штат Аризона, США.

* Британская компания Framestore ruen, занимавшаяся разработкой спецэффектов для картины, заявила на своем сайте, что фильм по амбициозности будет сравним с фильмом «Аватар» (2009). В частности, около 60 % событий, происходящих на экране, будут создаваться с помощью компьютерной графики.

* Исполнительный продюсер Кристофер ДеФариа сообщил, что фильм начинается 17-минутной сценой без единой монтажной склейки.

* Хотя сам фильм является точным в научном плане, и в нем соблюден тот факт, что в космосе звуки не слышны, звуковые эффекты все же были добавлены в трейлерах, чтобы они выглядели более захватывающими.

* Случайная встреча привела к тому, что астронавтка Кэди Коулман (Cady Coleman) устроила телефонный разговор о жизни в космосе между Сандрой Буллок и Международной космической станцией.

* Первоначально сценарием фильма заинтересовалась студия Universal Pictures, с которой Альфонсо Куарон сотрудничал при создании фильма «Дитя человеческое» (2006). Студия Universal надеялась, что главную роль сыграет Анджелина Джоли, но в итоге посчитала, что фильм будет слишком дорогим, и отказалась им заниматься. Проект подхватила студия Warner Bros. Pictures, и Куарон взял Буллок и Роберта Дауни-мл. на главные роли в конце 2010 года. Дауни впоследствии покинул проект, и вместо него роль досталась Джорджу Клуни.

* Натали Портман была первой в списке претендентов на главную роль, после того как Анджелина Джоли дважды отказалась от этой роли. Позже Портман отказалась от роли незадолго до того момента, как объявила о своей беременности.

* Фильм находился на стадии разработки в течение четырех лет, потому что амбиции фильма с точки зрения кинематографии, визуальных эффектов и реалистичного ощущения космоса было слишком сложно реализовать. Куарон был вынужден ждать, пока технологии станут более продвинутыми, чтобы полноценно воплотить свое видение этого фильма. И только после выхода фильма «Аватар» (2009) он понял, что время пришло.

* Альфонсо Куарон, оператор Эммануэль Любецки и супервайзер визуальных эффектов Тим Уэббер (Tim Webber) решили, что они не могли снимать фильм с помощью традиционных методов. Таким образом, для сцен выхода в открытый космос было решено снимать только лица актеров, а все остальное создавать при помощи компьютерных технологий. Для этого приходилось освещать лица в полном соответствии с цифровой средой, в которую их помещали. Поскольку персонажи перемещались в космосе, то и освещение лиц должно было идеально соответствовать Земле, Солнцу или звездам на фоне. Вся эта идея могла провалиться, если бы освещение не менялось с нужной скоростью, если было бы неправильно выбрано положение источника света, если контраст или концентрация освещения на лицах были бы неправильно подобраны. Любецки предложил поместить светодиодный экран в коробку, и в нее же поместить актера. Таким образом, вместо того чтобы перемещать Сандру Буллок или Джорджа Клуни при статично установленных осветителях, проецируемое изображение могло двигаться, в то время как они оставались на месте. Эта световая коробка стала ключом к сценам с выходом в открытый космос. Единственным минусом было то, что это был всего лишь трехметровый куб, достаточно большой для одного актера, но маленький для того, чтобы поместить туда еще и съемочную группу.

* В фильме «Аполлон 13» (1995) Эд Харрис сыграл Джина Кранца, ведущего руководителя полетом во время миссии «Аполлон-13». В «Гравитации» Харрис озвучил руководителя миссии в Хьюстоне.

* Для визуализации сцен с графикой программисты студии написали 71 000 строк кода.

* Практически все сцены фильма были подготовлены с помощью компьютера, затем в них были интегрированы лица актеров. Рендеринг производился с помощью программы Arnold.

* Герой Джорджа Клуни шутит о том, что стремится побить рекорд по суммарной продолжительности работ в открытом космосе, который принадлежит реальному космонавту Анатолию Яковлевичу Соловьёву.

n-torrents.ru

Скачать фильм Гравитация через торрент в хорошем качестве бесплатно WEB-DLRip

piratbit.ru

Размер: 1.34 GB | Добавлен: 3 года 8 мес. назад | Торрент скачан:3600 раз
Реклама Дарим 3000 рублей за регистрацию, не упусти свой шанс получить шикарный бонус!!!

06-02-2014 20:38 Гравитация Скачать торрент  

Гравитация / Gravity

Год выпуска: 2013 Страна: США, ВеликобританияЖанр: фантастика, триллер, драма,Продолжительность: 01:30:56Перевод: Дубляж, Лицензия iTunes

Режиссер: Альфонсо КуаронПродюссер: Альфонсо Куарон, Дэвид Хейман, Стивен ДжонсСценарий: Альфонсо Куарон, Хонас Куарон, Джордж Клуни

Бюджет: $100 000 000Премьера в мире: 28 августа 2013

В ролях: Сандра Буллок, Джордж Клуни, Эд Харрис, Орто Игнатиуссен, Пол Шарма, Эми Уоррен, Башер Саваж,

Описание: Доктор Райан Стоун, блестящий специалист в области медицинского инжиниринга, отправляется в свою первую космическую миссию под командованием ветерана астронавтики Мэтта Ковальски, для которого этот полет — последний перед отставкой. Но во время, казалось бы, рутинной работы за бортом случается катастрофа. Шаттл уничтожен, а Стоун и Ковальски остаются совершенно одни; они находятся в связке друг с другом, и все, что они могут, — это двигаться по орбите в абсолютно черном пространстве без всякой связи с Землей и какой-либо надежды на спасение.

Качество: WEB-DLRipФормат: AVIВидео кодек: XviDАудио кодек: AC3Видео: 720x304 (2.37:1), 23.976 fps, XviD build 50 ~1714 kbps avg, 0.33 bit/pixelАудио#1: 48 kHz, AC3 Dolby Digital, 3/2 (L,C,R,l,r) + LFE ch, ~384 kbpsСэмплРелиз: Шмель

Гравитация скачать торрент

Скачать Гравитация через торрент http://pic.pb.wtf/images/6/z9sb3.jpg Скачать фильм Гравитация через торрент бесплантно в хорошем качестве Описание: Доктор Райан Стоун, блестящий специалист в области медицинского инжиниринга, отправляется в свою первую космическую миссию под ... 2014-02-06 20:38 9.5 10 74

Loading...

Loading...

Рекламный пират

08-02-2014 18:10 Гравитация Скачать торрент  

фильм на любителя по мне полный отстой

10-02-2014 23:38 Гравитация Скачать торрент  

Стоит посмотреть

12-02-2014 15:11 Гравитация Скачать торрент  

Фильм хороший. Стоит посмотреть

16-02-2014 07:56 Гравитация Скачать торрент  

фильм стоящий!!! БЛАГОДАРЮ!!!

16-02-2014 10:47 Гравитация Скачать торрент  

его нужно смотреть в БЛюрее в 3D а не так... иначе нет смысла никакого.

03-03-2014 08:51 Гравитация Скачать торрент  

7 оскаров из 10 получил этот фильм!!

05-03-2014 06:56 Гравитация Скачать торрент  

Vad_IM писал(а):

7 оскаров из 10 получил этот фильм!!

:rofle: от оскаров фильм лучше не станет хоть 10 из 10 , оскар тока художественым фильмам дают,от которых

14-03-2014 12:21 Гравитация Скачать торрент  

фильм ГОВНО 2013

Pекламный агент PB

14-03-2014 12:24 Гравитация Скачать торрент  

гуд фильм смотрел и радовался жизнью;)

15-03-2014 10:35 Гравитация Скачать торрент  

рвотный порошок. полное дерьмище. не смотреть!

17-03-2014 05:06 Гравитация Скачать торрент  

фильм стоящий!!! БЛАГОДАРЮ!!!

08-01-2015 16:28 Гравитация Скачать торрент  

Пересматриваю второй раз - оно того стоит! Достойно,душевно!

Дорогой пользователь! Огромная просьба, поблагодарите релизера, оцените раздачу и оставьте свои комментарий, если Вы скачали Гравитация через торрент бесплатно! Внесите свою лепту в развитие PiratBit!

Комментировать посты могут только пользователи прошедшие не сложную регистрацию

Гравитация через торрент Скачать бесплатно Гравитация Гравитация скачать торрент Гравитация смотреть онлайн Cкачать фильм Гравитация бесплатно Гравитация скачать торрент в хорошем качестве Гравитация смотреть онлайн бесплатно в хорошем качестве

Вы не можете начинать темыВы не можете отвечать на сообщенияВы не можете редактировать свои сообщенияВы не можете удалять свои сообщенияВы не можете голосовать в опросахВы не можете прикреплять файлы к сообщениямВы можете скачивать файлы

Скачать фильм Гравитация через торрент в хорошем качестве бесплатно 1080p

piratbit.ru

Размер: 9.08 GB | Добавлен: 3 года 7 мес. назад | Торрент скачан:618 раз
Реклама Дарим 3000 рублей за регистрацию, не упусти свой шанс получить шикарный бонус!!!

09-02-2014 12:33 Гравитация Скачать торрент  

Гравитация 3Д / Gravity 3D

Год выпуска: 2013 Страна: США / Heyday Films, Reality Media, Warner Bros. PicturesЖанр: фантастика, триллер, драма,Продолжительность: 01:30:58Перевод: Дублированный (Цифровая лицензия iTunes)

Режиссер: Альфонсо Куарон

http://www.imdb.com/title/tt1454468/http://www.kinopoisk.ru/film/468466/

В ролях: Сандра Буллок, Джордж Клуни, Эд Харрис, Орто Игнатиуссен, Фалдут Шарма, Эми Уоррен, Башер Саваж, Дженис Ахерн,

Описание: Доктор Райан Стоун, блестящий специалист в области медицинского инжиниринга, отправляется в свою первую космическую миссию под командованием ветерана астронавтики Мэтта Ковальски, для которого этот полет — последний перед отставкой. Но во время, казалось бы, рутинной работы за бортом случается катастрофа.Шаттл уничтожен, а Стоун и Ковальски остаются совершенно одни; они находятся в связке друг с другом, и все, что они могут, — это двигаться по орбите в абсолютно черном пространстве без всякой связи с Землей и какой-либо надежды на спасение.

Доп. информация: Anamorph SideBySide / Горизонтальная анаморфная стереопара Порядок ракурсов: левый ракурс первый

Качество: BDRip 1080pФормат: MKVВидео кодек: AVCАудио кодек: AC3 / DTSВидео: MPEG-4 AVC,12.1 Мбит/с, 1920x1080, 23.976 кадр/сАудио#1: Русский (AC3, 6 ch, 384 Кбит/с, 48.0 KHz) Аудио#2: Английский (DTS, 6 ch, 1510 Кбит/с, 48.0 KHz)

Format : MatroskaFile size : 9.08 GiBDuration : 1h 30mnOverall bit rate : 14.3 MbpsMovie name : -Encoded date : UTC 2014-02-07 15:08:06Writing application : mkvmerge v4.0.0 ('The Stars were mine') сборка от Jun 6 2010 16:18:42Writing library : libebml v1.0.0 + libmatroska v1.0.0

VideoID : 1Format : AVCFormat/Info : Advanced Video CodecFormat profile : [email protected] settings, CABAC : YesFormat settings, ReFrames : 2 framesMuxing mode : Container [email protected] ID : V_MPEG4/ISO/AVCDuration : 1h 30mnBit rate : 12.1 MbpsWidth : 1 920 pixelsHeight : 1 080 pixelsDisplay aspect ratio : 16:9Frame rate : 23.976 fpsColor space : YUVChroma subsampling : 4:2:0Bit depth : 8 bitsScan type : ProgressiveBits/(Pixel*Frame) : 0.244Stream size : 7.70 GiB (85%)Writing library : x264 coreColor primaries : BT.709-5, BT.1361, IEC 61966-2-4, SMPTE RP177Transfer characteristics : BT.709-5, BT.1361Matrix coefficients : BT.709-5, BT.1361, IEC 61966-2-4 709, SMPTE RP177

Audio #1ID : 2Format : AC-3Format/Info : Audio Coding 3Mode extension : CM (complete main)Codec ID : A_AC3Duration : 1h 30mnBit rate mode : ConstantBit rate : 384 KbpsChannel(s) : 6 channelsChannel positions : Front: L C R, Side: L R, LFESampling rate : 48.0 KHzStream size : 250 MiB (3%)Language : Russian

Audio #2ID : 3Format : DTSFormat/Info : Digital Theater SystemsCodec ID : A_DTSDuration : 1h 30mnBit rate mode : ConstantBit rate : 1 510 KbpsChannel(s) : 6 channelsChannel positions : Front: L C R, Side: L R, LFESampling rate : 48.0 KHzBit depth : 16 bitsVideo delay : 11msStream size : 982 MiB (11%)

Menu00:00:00.000 : en:00:00:00.00000:13:08.830 : en:00:13:08.83000:21:33.542 : en:00:21:33.54200:29:12.668 : en:00:29:12.66800:39:59.856 : en:00:39:59.85600:48:49.051 : en:00:48:49.05100:57:00.667 : en:00:57:00.66701:08:08.418 : en:01:08:08.41801:15:27.148 : en:01:15:27.14801:23:50.567 : en:01:23:50.567

Скачать Гравитация через торрент http://i57.fastpic.ru/big/2014/0107/b5/30eab9c0a00e38a86bbf140db4d930b5.jpg Скачать фильм Гравитация через торрент бесплантно в хорошем качестве Описание: Доктор Райан Стоун, блестящий специалист в области медицинского инжиниринга, отправляется в свою первую космическую миссию под ... 2014-03-08 07:02 9.2 10 22

Loading...

Loading...

Последний раз редактировалось: solovey2 (2014-02-09 13:14), всего редактировалось 1 раз

Рекламный пират

09-02-2014 12:52 Гравитация Скачать торрент  

Цитата:

Качество: BDRip 1080p Видео: MPEG-4 AVC, 12.1 Мбит/с, 1920x1080, 23.976 кадр/с

Приведите пожалуйста в соотвествие с шаблоном:

Код:

Качество: [u][b]Формат: [/b][b]Видео кодек: [/b][b]Аудио кодек:[/b][/u]Видео:

Цитата:

+ Оригинал отдельно

не вижу, в раздаче один файл

Цитата:

Доп. информация: Anamorph SideBySide / Горизонтальная анаморфная стереопара Порядок ракурсов: левый ракурс первый

Обозначение типа 3D нужно добавить в название раздачи

Цитата:

Перевод: Дубляж

Код:

Профессиональный (Дубляж) iTunes

Об исправлении или если есть вопросы сообщите в лс со ссылкой на раздачу.

11-02-2014 03:51 Гравитация Скачать торрент  

А почему в другой раздаче Вертикальная анаморфная стереопара?

11-02-2014 06:47 Гравитация Скачать торрент  

Сравните скриншоты раздач и все поймете

11-02-2014 15:36 Гравитация Скачать торрент  

solovey2 писал(а):

Сравните скриншоты раздач и все поймете

Вопрос не об этом, а в том, что один фильм, но с "разным" 3д. На блюрее например, оба варианта есть? и вертикальная и горизонтальная или как?

11-02-2014 16:09 Гравитация Скачать торрент  

На блюреях нет не горизонтальных не вертикальных , там одна основная видео дорожка и вторая это разница ракурсов , а при риповании рипер сам делает вертикалку или горизонталку.

14-02-2014 02:28 Гравитация Скачать торрент  

serega768 писал(а):

На блюреях нет не горизонтальных не вертикальных , там одна основная видео дорожка и вторая это разница ракурсов , а при риповании рипер сам делает вертикалку или горизонталку.

Спасибо большое за ответ

Дорогой пользователь! Огромная просьба, поблагодарите релизера, оцените раздачу и оставьте свои комментарий, если Вы скачали Гравитация через торрент бесплатно! Внесите свою лепту в развитие PiratBit!

Комментировать посты могут только пользователи прошедшие не сложную регистрацию

Гравитация через торрент Скачать бесплатно Гравитация Гравитация скачать торрент Гравитация смотреть онлайн Cкачать фильм Гравитация бесплатно Гравитация скачать торрент в хорошем качестве Гравитация смотреть онлайн бесплатно в хорошем качестве

Вы не можете начинать темыВы не можете отвечать на сообщенияВы не можете редактировать свои сообщенияВы не можете удалять свои сообщенияВы не можете голосовать в опросахВы не можете прикреплять файлы к сообщениямВы можете скачивать файлы

Скачать фильм Гравитация через торрент в хорошем качестве бесплатно 720p

GeneralUnique ID : 201023089483245646321536555764932333616 (0x973BA38570F53AAFAAD5AD6FD41ED030)Complete name : D:\Гравитация BDRip 720p 60fps R.G. HD-Films\Гравитация BDRip 720p 60fps R.G. HD-Films.mkvFormat : MatroskaFormat version : Version 4 / Version 2File size : 4.08 GiBDuration : 1h 30mnOverall bit rate : 6 424 KbpsMovie name : TIberiumsun69Encoded date : UTC 2016-03-11 03:14:55Writing application : mkvmerge v8.3.0 ('Over the Horizon') 64bitWriting library : libebml v1.3.1 + libmatroska v1.4.2DURATION : 01:29:50.093000000NUMBER_OF_FRAMES : 1000NUMBER_OF_BYTES : 43643_STATISTICS_WRITING_APP : mkvmerge v8.3.0 ('Over the Horizon') 64bit_STATISTICS_WRITING_DATE_UTC : 2016-03-11 03:14:55_STATISTICS_TAGS : BPS DURATION NUMBER_OF_FRAMES NUMBER_OF_BYTESAttachment : Yes

VideoID : 1Format : AVCFormat/Info : Advanced Video CodecFormat profile : [email protected] settings, CABAC : YesFormat settings, ReFrames : 9 framesCodec ID : V_MPEG4/ISO/AVCDuration : 1h 30mnBit rate : 6 000 KbpsWidth : 1 280 pixelsHeight : 528 pixelsDisplay aspect ratio : 2.40:1Frame rate : 60.000 fpsColor space : YUVChroma subsampling : 4:2:0Bit depth : 8 bitsScan type : ProgressiveBits/(Pixel*Frame) : 0.148Stream size : 3.72 GiB (91%)Title : Tiberiumsun69Writing library : x264 core 146 r2538 121396cEncoding settings : cabac=1 / ref=9 / deblock=1:0:0 / analyse=0x3:0x113 / me=umh / subme=9 / psy=1 / psy_rd=1.00:0.10 / mixed_ref=1 / me_range=32 / chroma_me=1 / trellis=2 / 8x8dct=1 / cqm=0 / deadzone=21,11 / fast_pskip=0 / chroma_qp_offset=-3 / threads=12 / lookahead_threads=3 / sliced_threads=0 / nr=0 / decimate=1 / interlaced=0 / bluray_compat=0 / constrained_intra=0 / bframes=16 / b_pyramid=2 / b_adapt=2 / b_bias=0 / direct=3 / weightb=1 / open_gop=0 / weightp=2 / keyint=250 / keyint_min=25 / scenecut=40 / intra_refresh=0 / rc_lookahead=40 / rc=2pass / mbtree=0 / bitrate=6000 / ratetol=1.0 / qcomp=0.60 / qpmin=0 / qpmax=69 / qpstep=4 / cplxblur=20.0 / qblur=0.5 / vbv_maxrate=14000 / vbv_bufsize=14000 / nal_hrd=none / filler=0 / ip_ratio=1.40 / pb_ratio=1.30 / aq=1:1.00Language : EnglishDefault : YesForced : NoDURATION : 01:30:58.828000000NUMBER_OF_FRAMES : 327529NUMBER_OF_BYTES : 4074677453_STATISTICS_WRITING_APP : mkvmerge v8.3.0 ('Over the Horizon') 64bit_STATISTICS_WRITING_DATE_UTC : 2016-03-11 03:14:55_STATISTICS_TAGS : BPS DURATION NUMBER_OF_FRAMES NUMBER_OF_BYTES

AudioID : 2Format : AC-3Format/Info : Audio Coding 3Mode extension : CM (complete main)Codec ID : A_AC3Duration : 1h 30mnBit rate mode : ConstantBit rate : 448 KbpsChannel(s) : 6 channelsChannel positions : Front: L C R, Side: L R, LFESampling rate : 48.0 KHzBit depth : 16 bitsCompression mode : LossyStream size : 292 MiB (7%)Title : ДубляжLanguage : RussianDefault : YesForced : No

Text #1ID : 3Format : UTF-8Codec ID : S_TEXT/UTF8Codec ID/Info : UTF-8 Plain TextTitle : ФорсированныеLanguage : RussianDefault : YesForced : No

Text #2ID : 4Format : UTF-8Codec ID : S_TEXT/UTF8Codec ID/Info : UTF-8 Plain TextTitle : ПолныеLanguage : RussianDefault : NoForced : No

Text #3ID : 5Format : UTF-8Codec ID : S_TEXT/UTF8Codec ID/Info : UTF-8 Plain TextTitle : ПолныеLanguage : UkrainianDefault : NoForced : No

Text #4ID : 6Format : UTF-8Codec ID : S_TEXT/UTF8Codec ID/Info : UTF-8 Plain TextTitle : ПолныеLanguage : EnglishDefault : NoForced : No

Text #5ID : 7Format : UTF-8Codec ID : S_TEXT/UTF8Codec ID/Info : UTF-8 Plain TextTitle : Полные SDHLanguage : EnglishDefault : NoForced : No

Text #6ID : 8Format : UTF-8Codec ID : S_TEXT/UTF8Codec ID/Info : UTF-8 Plain TextTitle : Полные SDH-COLOREDLanguage : EnglishDefault : NoForced : No

Menu00:00:00.000 : en:Chapter 100:13:08.830 : en:Chapter 200:21:33.542 : en:Chapter 300:29:12.668 : en:Chapter 400:39:59.856 : en:Chapter 500:48:49.051 : en:Chapter 600:57:00.667 : en:Chapter 701:08:08.418 : en:Chapter 801:15:27.148 : en:Chapter 901:23:50.567 : en:Chapter 10

piratbit.ru

Гравитация / Gravity (2013) BDRip 1080p

Информация о фильме Название: Гравитация Оригинальное название: Gravity Год выхода: 2013 Жанр: фантастика, триллер, драма Страна/Студия: Heyday Films, Reality Media, Warner Bros. Pictures Режиссер: Альфонсо Куарон / Alfonso Cuaron В ролях: Сандра Буллок, Джордж Клуни, Эд Харрис, Орто Игнатиуссен, Фалдут Шарма, Эми Уоррен, Башер Саваж, Дженис Ахерн Длительность: 01:30:58 Перевод/язык: дублированный перевод (дубляж) [Лицензия] ..........................................................................

О фильме: Доктор Райан Стоун, блестящий специалист в области медицинского инжиниринга, отправляется в свою первую космическую миссию под командованием ветерана астронавтики Мэтта Ковальски, для которого этот полет — последний перед отставкой. Но во время, казалось бы, рутинной работы за бортом случается катастрофа.

Шаттл уничтожен, а Стоун и Ковальски остаются совершенно одни; они находятся в связке друг с другом, и все, что они могут, — это двигаться по орбите в абсолютно черном пространстве без всякой связи с Землей и какой-либо надежды на спасение.

«Не отпускай»

[kinopoisk]468466[/kinopoisk]

Натали Портман была первой в списке претендентов на главную роль, после того как Анджелина Джоли дважды отказалась от этой роли. Позже Портман отказалась от роли незадолго до того момента, как объявила о своей беременности. Случайная встреча привела к тому, что астронавтка Кэди Коулман (Cady Coleman) устроила телефонный разговор о жизни в космосе между Сандрой Буллок и Международной космической станцией. Британская компания Framestore ruen, занимавшаяся разработкой спецэффектов для картины, заявила на своем сайте, что фильм по амбициозности будет сравним с фильмом «Аватар» (2009). В частности, около 60 % событий, происходящих на экране, будут создаваться с помощью компьютерной графики. На главную женскую роль рассматривались Анджелина Джоли, Марион Котийяр, Скарлетт Йоханссон, Блейк Лайвли, Эбби Корниш, Кэри Маллиган, Сиенна Миллер, Ребекка Холл, Оливия Уайлд, Рэйчел Вайс, Наоми Уоттс и Натали Портман. Съемки фильма проходили с мая по июль 2011 года в Shepperton Studios, графство Суррей, Англия, и на территории водохранилища Пауэлл, штат Аризона, США. Исполнительный продюсер Кристофер ДеФариа сообщил, что фильм начинается 17-минутной сценой без единой монтажной склейки. Хотя сам фильм является точным в научном плане, и в нем соблюден тот факт, что в космосе звуки не слышны, звуковые эффекты все же были добавлены в трейлерах, чтобы они выглядели более захватывающими. Сандра Буллок перед съемками в фильме потратила шесть месяцев на физическую подготовку. Вместе с Альфонсо Куароном они прорабатывали сценарий в мельчайших подробностях. Они обсуждали каждую сцену с ее участием. Куарон и Буллок сошлись во мнении, что важнейшим аспектом ее игры является дыхание Стоун и то, как оно будет передавать ее эмоции. Джеймс Кэмерон, лучший друг Куарона, отметил, что та работа, которую проделала Буллок, впечатлила его больше, чем технологии, использовавшиеся во время съемок фильма. Первоначально сценарием фильма заинтересовалась студия Universal Pictures, с которой Альфонсо Куарон сотрудничал при создании фильма «Дитя человеческое» (2006). Студия Universal надеялась, что главную роль сыграет Анджелина Джоли, но в итоге посчитала, что фильм будет слишком дорогим, и отказалась им заниматься. Проект подхватила студия Warner Bros. Pictures, и Куарон взял Буллок и Роберта Дауни-мл. на главные роли в конце 2010 года. Дауни впоследствии покинул проект, и вместо него роль досталась Джорджу Клуни. Фильм находился на стадии разработки в течение четырех лет, потому что амбиции фильма с точки зрения кинематографии, визуальных эффектов и реалистичного ощущения космоса было слишком сложно реализовать. Куарон был вынужден ждать, пока технологии станут более продвинутыми, чтобы полноценно воплотить свое видение этого фильма. И только после выхода фильма «Аватар» (2009) он понял, что время пришло. Альфонсо Куарон, оператор Эммануэль Любецки и супервайзер визуальных эффектов Тим Уэббер (Tim Webber) решили, что они не могли снимать фильм с помощью традиционных методов. Таким образом, для сцен выхода в открытый космос было решено снимать только лица актеров, а все остальное создавать при помощи компьютерных технологий. Для этого приходилось освещать лица в полном соответствии с цифровой средой, в которую их помещали. Поскольку персонажи перемещались в космосе, то и освещение лиц должно было идеально соответствовать Земле, Солнцу или звездам на фоне. Вся эта идея могла провалиться, если бы освещение не менялось с нужной скоростью, если было бы неправильно выбрано положение источника света, если контраст или концентрация освещения на лицах были бы неправильно подобраны. Любецки предложил поместить светодиодный экран в коробку, и в нее же поместить актера. Таким образом, вместо того чтобы перемещать Сандру Буллок или Джорджа Клуни при статично установленных осветителях, проецируемое изображение могло двигаться, в то время как они оставались на месте. Эта световая коробка стала ключом к сценам с выходом в открытый космос. Единственным минусом было то, что это был всего лишь трехметровый куб, достаточно большой для одного актера, но маленький для того, чтобы поместить туда еще и съемочную группу. Джеймс Кэмерон назвал «Гравитацию» лучшей кинолентой о космосе в истории кино. В фильме «Аполлон 13» (1995) Эд Харрис сыграл Джина Кранца, ведущего руководителя полетом во время миссии «Аполлон-13». В «Гравитации» Харрис озвучил руководителя миссии в Хьюстоне. Имя героини Сандры Буллок — Ryan Stone — звучит как «rhinestone», что переводится как «фальшивый бриллиант». Для визуализации сцен с графикой программисты студии написали 71 000 строк кода. Практически все сцены фильма были подготовлены с помощью компьютера, затем в них были интегрированы лица актеров. Рендеринг производился с помощью программы Arnold. Герой Джорджа Клуни шутит о том, что стремится побить рекорд по суммарной продолжительности работ в открытом космосе, который принадлежит реальному космонавту Анатолию Яковлевичу Соловьёву.

Вес использующихся сейчас скафандров для космонавтов составляет 120 кг. Скафандр, в котором приземляется Стоун, весит отнюдь не 120 кг. Это скафандр серии «Сокол», он не предназначен для выхода в открытый космос, его задача — спасение экипажа в случае разгерметизации, и его вес составляет порядка 10 кг. Космонавты надевают его еще на Земле и без труда ходят. Стекла скафандров астронавтов для выхода в открытый космос имеют ультрафиолетовые фильтры, отчего выглядят зеркальными. В фильме все стекла абсолютно прозрачные, что в реальности привело бы к ожогам роговицы и мгновенной слепоте. Слезы у Стоун ведут себя как питьевая вода, вытекающая из трубочки емкости в условиях невесомости. Плакать в космическом пространстве физически невозможно. Слезы не польются из глаз в буквальном смысле, а останутся внутри в виде жидких шариков, жгущих глаза и мешающих видеть. Высота орбиты «Хаббла» — 559 км, а расположение вблизи экватора. Высота орбиты МКС — 418,3 км, располагается над Россией. Чтобы добраться от одного объекта до другого понадобится очень много энергии, но даже у космических челноков не будет достаточно топлива, чтобы сделать это. А герои фильма делают это с одним только реактивным ранцем. Волосы Райан Стоун не парят свободно как это должно быть при невесомости, а аккуратно уложены. Почти все спутники на околоземной орбите перемещаются с запада на восток. Однако в фильме осколки спутников движутся с востока на запад. Во время старта с космодрома, посадки и выхода в открытый космос космонавты надевают специальные подгузники. Стоун, снимая свой скафандр, оказывается в обычных шортах. В фильме есть кадры, когда зажигается северное сияние в области экватора. В реальности северное сияние появляется только около полюсов, так как там самое слабое магнитное поле Земли. В тех кадрах, когда Стоун и Ковальски подлетели к МКС и запутались в стропах парашюта, персонажа Джорджа почему-то с большой силой отталкивает от персонажа Сандры, хотя он не мог создавать на нее давления без использования реактивной тяги. Когда Райан Стоун добралась до МКС, там начинался пожар. В фильме языки пламени лишь немного видоизменили, но в большей степени они похожи на земной огонь. В условиях невесомости огонь распространяется сферически от центра горения. То есть огонек свечки выглядел бы как маленький светящийся шарик.

..........................................................................

Тех. данные: Качество: BDRip 1080p Контейнер: MKV Формат 3D: Half OverUnder / Вертикальная анаморфная стереопара Видео: AVC / 23,976 fps / 1920х1080p / 17.1 Mbps Аудио: Русский / AC3 / 48 KHz / 5.1 ch / 448 Kbps (Дубляж - BD 3D CEE) Аудио 2: Украинский / AC3 / 48 KHz / 5.1 ch / 448 Kbps (Дубляж - BD 3D CEE) Аудио 3: Английский / AC3 / 48 KHz / 5.1 ch / 640 Kbps (Original - BD 3D)

Субтитры: (SRT) Внешние (UTF-8): #1 - Русские Форсированные (включены по умолчанию) #2 - Русские Полные #3 - Украинские Форсированные #4 - Украинские Полные #5 - English SDH

Вшитые (softsub): #1 - Русские Форсированные (включены по умолчанию) #3 - Украинские Форсированные

[screens]http://i58.fastpic.ru/big/2014/0209/40/f24fb6ca05f8a254e205e381bfc77d40.png[/screens]

General Unique ID : 235940222129550821348248943117689081676 (0xB1806F13508B439EBCDF97012432CF4C) Complete name : E:Gravity(2013)3D-halfOU(Ash61)Audio-iTunesGravity(2013)3D-halfOU(Ash61).mkv Format : Matroska Format version : Version 2 File size : 12.1 GiB Duration : 1h 30mn Overall bit rate : 19.0 Mbps Movie name : Гравитация / Gravity (2013) 3D Encoded date : UTC 2014-02-13 21:10:47 Writing application : mkvmerge v5.8.0 ('No Sleep / Pillow') built on Sep 2 2012 15:37:04 Writing library : libebml v1.2.3 + libmatroska v1.3.0

Video ID : 1 Format : AVC Format/Info : Advanced Video Codec Format profile : [email protected] Format settings, CABAC : Yes Format settings, ReFrames : 4 frames Codec ID : V_MPEG4/ISO/AVC Duration : 1h 30mn Bit rate : 17.1 Mbps Width : 1 920 pixels Height : 1 080 pixels Display aspect ratio : 16:9 Frame rate mode : Constant Frame rate : 23.976 fps Color space : YUV Chroma subsampling : 4:2:0 Bit depth : 8 bits Scan type : Progressive Bits/(Pixel*Frame) : 0.344 Stream size : 10.9 GiB (90%) Title : BDRip by Ash61 Writing library : x264 core 129 r2245 bc13772 Encoding settings : cabac=1 / ref=4 / deblock=1:-3:-3 / analyse=0x3:0x113 / me=umh / subme=10 / psy=1 / psy_rd=1.00:0.15 / mixed_ref=1 / me_range=32 / chroma_me=1 / trellis=2 / 8x8dct=1 / cqm=0 / deadzone=21,11 / fast_pskip=1 / chroma_qp_offset=-3 / threads=12 / lookahead_threads=2 / sliced_threads=0 / nr=0 / decimate=1 / interlaced=0 / bluray_compat=0 / constrained_intra=0 / bframes=10 / b_pyramid=2 / b_adapt=2 / b_bias=0 / direct=3 / weightb=1 / open_gop=0 / weightp=2 / keyint=250 / keyint_min=23 / scenecut=40 / intra_refresh=0 / rc_lookahead=60 / rc=crf / mbtree=1 / crf=17.0 / qcomp=0.70 / qpmin=0 / qpmax=69 / qpstep=4 / vbv_maxrate=40000 / vbv_bufsize=30000 / crf_max=0.0 / nal_hrd=none / frame-packing=4 / ip_ratio=1.40 / aq=1:0.70 Language : English Default : Yes Forced : No

Audio #1 ID : 2 Format : AC-3 Format/Info : Audio Coding 3 Mode extension : CM (complete main) Format settings, Endianness : Big Codec ID : A_AC3 Duration : 1h 30mn Bit rate mode : Constant Bit rate : 448 Kbps Channel(s) : 6 channels Channel positions : Front: L C R, Side: L R, LFE Sampling rate : 48.0 KHz Bit depth : 16 bits Compression mode : Lossy Stream size : 292 MiB (2%) Title : Дубляж - BD 3D Eur Language : Russian Default : Yes Forced : No

Audio #2 ID : 3 Format : AC-3 Format/Info : Audio Coding 3 Mode extension : CM (complete main) Format settings, Endianness : Big Codec ID : A_AC3 Duration : 1h 30mn Bit rate mode : Constant Bit rate : 448 Kbps Channel(s) : 6 channels Channel positions : Front: L C R, Side: L R, LFE Sampling rate : 48.0 KHz Bit depth : 16 bits Compression mode : Lossy Stream size : 292 MiB (2%) Title : Дубляж - BD 3D Eur Language : Ukrainian Default : No Forced : No

Audio #3 ID : 4 Format : AC-3 Format/Info : Audio Coding 3 Mode extension : CM (complete main) Format settings, Endianness : Big Codec ID : A_AC3 Duration : 1h 30mn Bit rate mode : Constant Bit rate : 640 Kbps Channel(s) : 6 channels Channel positions : Front: L C R, Side: L R, LFE Sampling rate : 48.0 KHz Bit depth : 16 bits Compression mode : Lossy Stream size : 416 MiB (3%) Title : Original - BD 3D Language : English Default : No Forced : No

Text #1 ID : 5 Format : UTF-8 Codec ID : S_TEXT/UTF8 Codec ID/Info : UTF-8 Plain Text Title : Форсированные Language : Russian Default : Yes Forced : No

Text #2 ID : 6 Format : UTF-8 Codec ID : S_TEXT/UTF8 Codec ID/Info : UTF-8 Plain Text Title : Форсированные Language : Ukrainian Default : No Forced : No

Menu 00:00:00.000 : :1 00:13:08.830 : :2 00:21:33.542 : :3 00:29:12.668 : :4 00:39:59.856 : :5 00:48:49.051 : :6 00:57:00.667 : :7 01:08:08.418 : :8 01:15:27.148 : :9 01:23:50.567 : :10

bigtracker.org


Смотрите также