Скачать торрент голгофа в хорошем качестве


Голгофа / Calvary (фильм, 2014) скачать торрент - Фильм Голгофа

hotkit.ru

Коротко о фильме "Голгофа" - Давно не было такой недельки у отца Джеймса: исповедь, начинающая со слов «я собираюсь вас убить», поджог церкви и драка в пабе. Быть священником и направлять свою паству непросто. Без чувства юмора, иронии и прощения не обойтись.

Голгофа

Оригинальное название Calvary
Фильм выпущен: 2014
Страна (кинокомпания): Ирландия, Великобритания
Pежиссер: Джон Майкл МакДона
Сценарий фильма: Джон Майкл МакДона
Продюсер фильма: Крис Кларк, Флора Фернандес-Маренго, Джеймс Флинн
Оператор: Ларри Смит
Композитор: Патрик Кэссиди
Художники: Марк Джерати, Имер Ни Мэлдауни
Монтаж: Крис Гилл
Жанр фильма: драма, комедия
Премьера (мир): 19 января 2014
премьера (Pоссия): 17 апреля 2014, Премиум Фильм
продолжительность100 мин
В главных ролях:
Донал Глисон
Мари-Жозе Кроз
М. Эммет Уолш
Исаак Де Банколе
Дилан Моран
Эйден Гиллен
Келли Райлли
Крис О'Дауд
Брендан Глисон
и другие ...

Трейлер фильма:

 

Скачать фильм Голгофа / Calvary - новинка кино 2014

В фильме "Голгофа" - после угроз во время исповеди добродушный священник продолжил борьбу против окружающих его темных сил

Скачать файлы .torrent Calvary (фильм)

на сайте Вы можете получить ссылку на торрент файлы или скачать сами торрент файлы, в которых находится информация о местонахождении фильмов, сериалов у пользователей.

--> Всего 10

Параметры: 10.03.2016 BDRip 1080p от NNNB | P, P2, A, 6,67 Гб

Формат: BDRip 1080p, MKV, AVC, AC3, размер файла: 6,67 ГбВидео: 1920x816, AVC - 6845 Кбит/сАудио: Русский: AC3, 6 каналов, 640 Кбит/с::Русский: AC3, 6 каналов, 640 Кбит/с::Русский: AC3, 6 каналов, 640 Кбит/сПеревод (озвучивание): Профессиональный многоголосый, Профессиональный (двухголосый), Авторский (одноголосый)

Параметры: 22.10.2015 BDRip от HQCLUB | GER Transfer | Лицензия, 2236 Мб

Формат: BDRip (источник: BLUEBIRD / Blu-Ray [GER Transfer] / 1080р), AVI, XviD, AC3, размер файла: 2236 МбВидео: 720x304, XviD - build 65 ~1744 Кбит/сАудио: AC3, 6 каналов, 448 Кбит/с::AC3, 6 каналов, 448 Кбит/с::English: AC3, 6 каналов, 448 Кбит/сПеревод (озвучивание): Профессиональный (многоголосый, закадровый) BD RUS + Профессиональный (двухголосый, закадровый) П. Гланц, И. Королева + Оригинал (английский)

Параметры: 31.01.2015 BDRip от HQ-ViDEO, 2,18 Гб

Формат: BDRip (источник: HDCLUB / BDRemux / 1080p), AVI, XviD, AC3, размер файла: 2,18 ГбВидео: 720x304, XviD - ; 2164 Кбит/сАудио: AC3, 6 каналов, 448 Кбит/сПеревод (озвучивание): Профессиональный (многоголосый, закадровый) |BD RUS| + Оригинал (Английский)

Параметры: 15.07.2014 BDRip-AVC от New-Team | Лицензия, 745 Мб

Формат: BDRip-AVC [Исходник Blu-Ray Disc 1080p], MKV, AAC, размер файла: 745 МбВидео: 752x320, H.264 - H ~ 960 Кбит/сАудио: AAC, 2 канала, ~64 Кбит/сПеревод (озвучивание): Профессиональный (многоголосый, закадровый) Лицензия

Параметры: 12.07.2014 BDRip 720p от Leonardo and Scarabey | Лицензия, 1,72 Гб

Формат: BDRip 720p Исходник: Blu-ray, MKV, AVC, AC3, размер файла: 1,72 ГбВидео: 1280x544, AVC - AVC at 1933 Кбит/сАудио: Русский: AC3, 6 каналов, 448 Кбит/сПеревод (озвучивание): Профессиональный (многоголосый закадровый) Лицензия

Параметры: 28.06.2014 HDRip от Scarabey | Лицензия, 1,46 Гб

Формат: HDRip, AVI, XviD, AC3, размер файла: 1,46 ГбВидео: 720x304, XviD - build 73 ~1595 Кбит/сАудио: AC3, 6 каналов, 448 Кбит/сПеревод (озвучивание): Профессиональный (многоголосый, закадровый)

Параметры: 25.06.2014 3,99 Гб -

Формат: BDRip (720p), MKV, AVC, AC3, размер файла: 3,99 ГбВидео: 1280x544, AVC - 4208 Кбит/сАудио: Русский: AC3, 6 каналов, 640 Кбит/с / Английский: AC3, 6 каналов, 640 Кбит/сПеревод (озвучивание): Профессиональный многоголосый [лицензия]

Параметры: 25.06.2014 BDRip 720p от HDCLUB, 5,23 Гб

Формат: MKV, 16-bit, DTS, размер файла: 5,23 ГбВидео: 1280x544, H.264 - ~4208 Кбит/сАудио: Русский: 16-bit, DTS, 6 каналов, ~1536 Кбит/с / English: 16-bit, DTS, 6 каналов, ~1536 Кбит/сПеревод (озвучивание): Профессиональный (многоголосый, закадровый) Blu-Ray RUS

Параметры: 25.06.2014 HDRip, 1,37 Гб -

Формат: HDRip, XviD, AC3, размер файла: 1,37 ГбВидео: 720x304, XviD - 1470 Кбит/сАудио: AC3, 6 каналов, 448 Кбит/сПеревод (озвучивание): Профессиональный многоголосый [лицензия]

Параметры: 25.06.2014 HDRip, 700 Мб -

Формат: HDRip, XviD, AC3, размер файла: 700 МбВидео: 640x272, XviD - 827 Кбит/сАудио: AC3, 2 канала, 128 Кбит/сПеревод (озвучивание): Профессиональный многоголосый [лицензия]

 

Скачать фильм Голгофа (2013) через торрент

gig-torrent.net

16 февраля 2016 08:00 Голгофа / Calvary (2014) BDRip от HQCLUB | GER Transfer | Лицензия .torrent   [Информация о файле (нажмите для просмотра)] Перевод: Профессиональный (многоголосый, закадровый) BD RUS + Профессиональный (двухголосый, закадровый) П. Гланц, И. Королева + Оригинал (английский)Субтитры: русские (2 вида), английские, украинскиеФормат: AVIКачество: BDRip (источник:Видео: 720x304 (2.37:1), 24 fps, XviD build 65 ~1744 kbps avg, 0.33 bit/pixelАудио #1: 48 kHz, AC3 Dolby Digital, 3/2 (L,C,R,l,r) + LFE ch, ~448 kbps avg (MVO) BDАудио #2: 48 kHz, AC3 Dolby Digital, 3/2 (L,C,R,l,r) + LFE ch, ~448 kbps avg (DVO) П. ГланцАудио #3: 48 kHz, AC3 Dolby Digital, 3/2 (L,C,R,l,r) + LFE ch, ~448 kbps avg (ENG)Аудио #4: 48 kHz, AC3 Dolby Digital, 3/2 (L,C,R,l,r) + LFE ch, ~448 kbps avg (VO.ESAREV)(отдельно) 2,18 Gb 36 3
16 февраля 2016 08:00 Голгофа / Calvary (2013) BDRip от HQ-ViDEO .torrent   [Информация о файле (нажмите для просмотра)] Перевод: Профессиональный (многоголосый, закадровый)|BD RUS| + Оригинал (Английский)Субтитры: Русские (полные (2 вида)), Английские.Формат: AVIКачество: BDRip (источник: HDCLUB /BDRemux / 1080p)Кодек: XviD, build 65 codecВидео: 720 x 304; 24.000 fps; 2164 kbps; 0.412 bit/pixelАудио: AC3 Dolby Digital; 448 Kbps; 6 channels; 48 KHz|все дорожки| 2,18 Gb 104 11
16 февраля 2016 07:59 Голгофа / Calvary (2013) HDRip от MediaClub | КПК .torrent   [Информация о файле (нажмите для просмотра)] Перевод: Профессиональный многоголосыйКодек: MPEG-4Качество: HDRipВидео: 500 Кбит/с, 320x128, 24.000 кадр/сЗвук: Русский (AAC, 2 ch, 128 Кбит/с) 281,28 Mb 4 4
16 февраля 2016 07:59 Голгофа / Calvary (2014) DVD5 от New-Team | P | Сжатый .torrent   [Информация о файле (нажмите для просмотра)] Перевод: Профессиональный (многоголосый закадровый)Кодек: MPEG2Качество: DVD5 (сжатый)Видео: PAL 16:9 (720x576) VBR ~ 6488.64 kbps avgЗвук: Русский, Английский DD 5.1 (448Kbps)Субтитры: Русские 4,37 Gb 6 2
16 февраля 2016 07:59 Голгофа / Calvary (2014) DVD9 от New-Team | P | Лицензия .torrent   [Информация о файле (нажмите для просмотра)] Перевод: Профессиональный (многоголосый закадровый)Кодек: MPEG2Качество: DVD9Видео: PAL 16:9 (720x576) VBR ~ 6488.64 kbps avgЗвук: Русский, Английский DD 5.1 (448Kbps)Субтитры: Русские 4,85 Gb 7 1
16 февраля 2016 07:59 Голгофа / Calvary (2014) HDRip | A .torrent   [Информация о файле (нажмите для просмотра)] Перевод: Авторский (одноголосый закадровый)Дмитрий Есарев за него спасибо mihey10, dikii, farivan, igrok2012, Kruj0k, guinness, Dezertir168, Гость, Roy 33, Loki1982, Skirnir, mihaildns и Дмитрию ЕсаревуКодек: XviDКачество: HDRipВидео: 640x272 (2.35:1), 24 fps, XviD build 50 ~826 kbps avg, 0.20 bit/pixelАудио: 48 kHz, AC3 Dolby Digital, 2/0 (L,R) ch, ~192 kbpsСубтитры: нет 746,35 Mb 4 1
16 февраля 2016 07:59 Голгофа / Calvary (2014) BDRip-AVC от New-Team | Лицензия .torrent   [Информация о файле (нажмите для просмотра)] Перевод: Профессиональный (многоголосый, закадровый) ЛицензияКачество: BDRip-AVC [Исходник Blu-Ray Disc 1080p]Формат: MKVВидео: 752x320 (2.35:1), 24.000 fps, h364 ~ 960 Kbps, 0.166 bit/pixelАудио: 48 KHz / 24 KHz, AAC HE-AAC / LC, 2/0 (L,R) ch, ~64 kbps 744,69 Mb 31 5
16 февраля 2016 07:59 Голгофа / Calvary (2014) BDRip 720p от Leonardo and Scarabey | Лицензия .torrent   [Информация о файле (нажмите для просмотра)] Перевод: Профессиональный (многоголосый закадровый) ЛицензияФормат: MKVВидео кодек: MPEG-4 AVC Аудио кодек: AC3Видео: AVC, 1280x544 (2.35:1) at 24.000 fps, AVC at 1933 kbps avg, 0.116 bit/pixelАудио: Russian: 48 kHz; AC3 5.1; 448.00 kbps avg; профессиональный, многоголосый закадровыйСубтитры: Русские 1,72 Gb 43 4
16 февраля 2016 07:59 Голгофа / Calvary (2014) HDRip от Scarabey | Лицензия .torrent   [Информация о файле (нажмите для просмотра)] Перевод: Профессиональный (многоголосый, закадровый)Качество: HDRipФормат: AVIВидео: 688x288 (2.39:1), 24 fps, XviD build 73 ~887 kbps avg, 0.19 bit/pixelАудио: 48 kHz, MPEG Layer 3, 2 ch, ~128.00 kbps avg 744,46 Mb 25 2
16 февраля 2016 07:59 Голгофа / Calvary (2014) HDRip от Scarabey | Лицензия .torrent   [Информация о файле (нажмите для просмотра)] Перевод: Профессиональный (многоголосый, закадровый)Качество: HDRipФормат: AVIВидео: 720x304 (2.37:1), 24 fps, XviD build 73 ~1595 kbps avg, 0.30 bit/pixelАудио: 48 kHz, AC3 Dolby Digital, 3/2 (L,C,R,l,r) + LFE ch, ~448.00 kbps avg 1,46 Gb 105 2
16 февраля 2016 07:59 Голгофа / Calvary (2014) BDRip-AVC от E76 .torrent   [Информация о файле (нажмите для просмотра)] Перевод: Профессиональный (многоголосый закадровый) | BD RUSВидео: AVC 1120x476 (2.35:1), 23.976 fps, ~2100 Kbps, 0.16 bit/pixelАудио #1: Russian AC3 6ch 48kHz 448Kbps | MVOАудио #2: English AC3 6ch 48kHz 448Kbps | Original 2,12 Gb 35 2
16 февраля 2016 07:59 Голгофа / Calvary (2014) BDRip 1080p от NNNB .torrent   [Информация о файле (нажмите для просмотра)] Перевод: Профессиональный многоголосый, Профессиональный (двухголосый), Авторский (одноголосый)Качество: BDRip 1080pФормат: AVC (библиотека кодирования x.264)Видео: 1920x816, 6845 Кбит/сек, 24 кадр/сек, 0,182 Бит/[Пиксели*Кадры]Аудио №1: русский / AC3 / 5.1 / 48 kHz / 640 kbps / 16 bit|Профессиональный многоголосый [лицензия]| Аудио №2: русский / AC3 / 5.1 / 48 kHz / 640 kbps / 16 bit|Профессиональный (двухголосый) [П.Гланц и И.Королева]| Аудио №3: русский / AC3 / 5.1 / 48 kHz / 640 kbps / 16 bit|Авторский (одноголосый)[Д. Есарев]| Аудио №4: английский / AC3 / 5.1 / 48 kHz / 640 kbps / 16 bitСубтитры: русские, русские (Гланц и Королёва), английские 5,76 Gb 75 3
16 февраля 2016 07:59 Голгофа / Calvary (2014) BDRemux 1080р от ExKinoRay | Лицензия .torrent   [Информация о файле (нажмите для просмотра)] Качество: Blu-Ray Remux (1080p)Видео: MPEG-4 AVC, 15934 Кбит/с, 1920x1080, 24 кадр/сАудио: Русский (AC3, 6 ch, 640 Кбит/с), (DTS-HD MA, 6 ch, 2326 Кбит/с), английский (DTS-HD MA, 6 ch, 2213 Кбит/с)Перевод: Профессиональный многоголосыйСубтитры: РусскиеВидео: Идентификатор : 1 Формат : AVC Формат/Информация : Advanced Video Codec Профиль формата : [email protected] Параметр CABAC формата : Да Параметр ReFrames формата : 3 кадра Идентификатор кодека : V_MPEG4/ISO/AVC Продолжительность : 1 ч. 41 м. Вид битрейта : Переменный Максимальный битрейт : 25,0 Мбит/сек Ширина : 1920 пикселей Высота : 1080 пикселей Соотношение сторон : 16:9 Режим частоты кадров : Постоянный Частота кадров : 24,000 кадра/сек Стандарт вещания : NTSC Цветовое пространство : YUV Субдискретизация насыщенности : 4:2:0 Битовая глубина : 8 бит Тип развёртки : Прогрессивная Default : Да Forced : НетАудио #1: Идентификатор : 2 Формат : AC-3 Формат/Информация : Audio Coding 3 Расширение режима : CM (complete main) Параметр Endianness формата : Big Идентификатор кодека : A_AC3 Продолжительность : 1 ч. 41 м. Вид битрейта : Постоянный Битрейт : 640 Кбит/сек Каналы : 6 каналов Расположение каналов : Front: L C R, Side: L R, LFE Частота : 48,0 КГц Битовая глубина : 16 бит Метод сжатия : С потерями Размер потока : 465 Мбайт (3%) Заголовок : Профессиональный многоголосый Язык : Russian Default : Да Forced : НетАудио #2: Идентификатор : 3 Формат : DTS Формат/Информация : Digital Theater Systems Профиль формата : MA / Core Режим : 16 Параметр Endianness формата : Big Идентификатор кодека : A_DTS Продолжительность : 1 ч. 41 м. Вид битрейта : Переменный Битрейт : Неизвестно / 1509 Кбит/сек Каналы : 6 каналов Расположение каналов : Front: L C R, Side: L R, LFE Частота : 48,0 КГц Битовая глубина : 16 бит Метод сжатия : Без потерь / Lossy Заголовок : Профессиональный многоголосый Язык : Russian Default : Нет Forced : НетАудио #3: Идентификатор : 4 Формат : DTS Формат/Информация : Digital Theater Systems Профиль формата : MA / Core Режим : 16 Параметр Endianness формата : Big Идентификатор кодека : A_DTS Продолжительность : 1 ч. 41 м. Вид битрейта : Переменный Битрейт : Неизвестно / 1509 Кбит/сек Каналы : 6 каналов Расположение каналов : Front: L C R, Side: L R, LFE Частота : 48,0 КГц Битовая глубина : 16 бит Метод сжатия : Без потерь / Lossy Язык : English Default : Нет Forced : Нет 14,97 Gb 5 2
16 февраля 2016 07:59 Голгофа / Calvary (2014) Blu-ray .torrent   17,12 Gb 3 5
16 февраля 2016 07:59 Голгофа / Calvary (2014) Blu-Ray 1080p | Лицензия .torrent   [Информация о файле (нажмите для просмотра)] Перевод: Профессиональный многоголосый | ЛицензияСубтитры: РусскиеКачество: Blu-Ray 1080pВидео: MPEG-4 AVC, 15934 Кбит/с, 1920x1080, 23.976 кадр/сАудио: Русский (DTS-HD MA, 6 ch, 2326 Кбит/с), английский (DTS-HD MA, 6 ch, 2213 Кбит/с) 17,12 Gb 9 2
16 февраля 2016 07:59 Голгофа / Calvary (2014) BDRip-AVC | Лицензия .torrent   [Информация о файле (нажмите для просмотра)] Перевод: Профессиональный многоголосый | ЛицензияКачество: BDRip-AVCВидео: AVC, 960x408, 24.000 fps, 1673 KbpsЗвук: 48 kHz, AC3 Dolby Digital, 3/2 (L,C,R,l,r) + LFE ch, ~384 kbps 1,46 Gb 90 2
16 февраля 2016 07:59 Голгофа / Calvary (2014) BDRip 720p от HDCLUB .torrent   [Информация о файле (нажмите для просмотра)] Перевод: Профессиональный (многоголосый, закадровый) Blu-Ray RUSСубтитры: RussianФормат: MatroskaВидео: 1280x544 at 24.000 fps (True24p), [email protected], crf, ~4208 kbps avgАудио #1: Russian: 48 kHz/16-bit, DTS, 3/2 (L,C,R,l,r) + LFE ch, ~1536.00 kbps avg |Многоголосый закадровый, Blu-Ray RUS|Аудио #2: English: 48 kHz/16-bit, DTS, 3/2 (L,C,R,l,r) + LFE ch, ~1536.00 kbps avg 5,23 Gb 11 3
16 февраля 2016 07:59 Голгофа / Calvary (2014) BDRip 720p | Лицензия .torrent   [Информация о файле (нажмите для просмотра)] Перевод: Профессиональный многоголосый | ЛицензияФормат: AVI (XviD)Качество: BDRip 720pВидео: MPEG-4 AVC, 4208 Кбит/с, 1280x544Аудио: Русский, английский (AC3, 6 ch, 640 Кбит/с)Субтитры: Русские 3,99 Gb 12 2
16 февраля 2016 07:59 Голгофа / Calvary (2014) HDRip | Лицензия .torrent   [Информация о файле (нажмите для просмотра)] Перевод: Профессиональный многоголосый | ЛицензияФормат: AVI (XviD)Качество: HDRipВидео: XviD , 1980 Кбит/с, 720x304Аудио: Русский, английский (AC3, 6 ch, 448 Кбит/с) 2,05 Gb 32 1

Скачать торрент Голгофа / Calvary (2014) BDRip 1080p от NNNB

Файлы для обмена предоставлены пользователями сайта. Администрация не несёт ответственности за их содержание. На сервере хранятся только торрент-файлы. Это значит, что мы не храним никаких нелегальных материалов, а так же материалов охраняемых авторским правом.

krutor.org

Голгофа / Calvary«Убить священника в воскресенье - хорошая идея»Русское название: ГолгофаОригинальное название: CalvaryГод выпуска: 2014Жанр: драмаВыпущено: Ирландия, ВеликобританияРежиссер: Джон Майкл МакДона В ролях: Брендан Глисон , Крис О’Дауд , Келли Райлли , Эйдан Гиллен , Дилан Моран , Исаак Де Банколе , М. Эммет Уолш , Мари-Жозе Кроз , Донал Глисон , Дэвид Уилмот , Пэт Шорт , Гари Лайдон Перевод: Профессиональный многоголосый, Профессиональный (двухголосый), Авторский (одноголосый)Сюжет фильма: Отец Джеймс - католический священник в небольшом провинциальном городке - слушает покаяние, на котором прихожанин сообщает ему, что в течение многих лет подвергался сексуальному насилию со стороны ныне покойного священнослужителя. Прихожанин делится с Джеймсом своими размышлениями о том, что на гибель плохого священника никто и не обратит внимания, тогда как убийство хорошего может заставить общество задуматься. С этими словами он даёт святому отцу неделю на то, чтобы привести в порядок дела, после чего Джеймс будет убит. Однако вместо того, чтобы начинать готовиться к смерти или обратиться в полицию, в отпущенный срок священник занимается обычными повседневными делами, стараясь изменить жизнь своих прихожан к лучшему.

Качество: BDRip 1080pФормат: AVC \(библиотека кодирования x.264\)Контейнер (Расширение): MKVВидео: 1920x816, 6845 Кбит/сек, 24 кадр/сек, 0,182 Бит/[Пиксели*Кадры]Аудио №1: русский / AC3 / 5.1 / 48 kHz / 640 kbps / 16 bit |Профессиональный многоголосый [лицензия]| Аудио №2: русский / AC3 / 5.1 / 48 kHz / 640 kbps / 16 bit |Профессиональный (двухголосый) [П.Гланц и И.Королева]| Аудио №3: русский / AC3 / 5.1 / 48 kHz / 640 kbps / 16 bit |Авторский (одноголосый)[Д. Есарев]| Аудио №4: английский / AC3 / 5.1 / 48 kHz / 640 kbps / 16 bitСубтитры: русские, русские (Гланц и Королёва), английскиеНавигация по главам(Чаптеры): естьПродолжительность: 01:41:30

Автор рипа: Сообщество:

MediaInfo

Format : Matroska Format version : Version 2 File size : 6.67 GiB Duration : 1h 41mn Overall bit rate : 9 404 Kbps Movie name : Golgofa.(2014).BDRip.1080p.[denis100] Encoded date : UTC 2016-03-10 15:36:38 Writing application : mkvmerge v5.8.0 ('No Sleep / Pillow') built on Sep 2 2012 15:37:04 Writing library : libebml v1.2.3 + libmatroska v1.3.0

Video ID : 1 Format : AVC Format/Info : Advanced Video Codec Format profile : [email protected] Format settings, CABAC : Yes Format settings, ReFrames : 5 frames Codec ID : V_MPEG4/ISO/AVC Duration : 1h 41mn Bit rate : 6 845 Kbps Width : 1 920 pixels Height : 816 pixels Display aspect ratio : 2.35:1 Frame rate : 24.000 fps Color space : YUV Chroma subsampling : 4:2:0 Bit depth : 8 bits Scan type : Progressive Bits/(Pixel*Frame) : 0.182 Stream size : 4.72 GiB (71%) Title : Golgofa.(2014).BDRip.1080p.[denis100] Writing library : x264 core 138 r2358 9e941d1 Encoding settings : cabac=1 / ref=5 / deblock=1:-3:-3 / analyse=0x3:0x133 / me=umh / subme=11 / psy=1 / psy_rd=1.00:0.15 / mixed_ref=1 / me_range=32 / chroma_me=1 / trellis=2 / 8x8dct=1 / cqm=0 / deadzone=21,11 / fast_pskip=0 / chroma_qp_offset=-3 / threads=6 / lookahead_threads=1 / sliced_threads=0 / nr=0 / decimate=1 / interlaced=0 / bluray_compat=0 / constrained_intra=0 / bframes=8 / b_pyramid=2 / b_adapt=2 / b_bias=0 / direct=3 / weightb=1 / open_gop=0 / weightp=2 / keyint=240 / keyint_min=23 / scenecut=40 / intra_refresh=0 / rc=2pass / mbtree=0 / bitrate=6845 / ratetol=1.0 / qcomp=0.60 / qpmin=0 / qpmax=69 / qpstep=4 / cplxblur=20.0 / qblur=0.5 / ip_ratio=1.40 / pb_ratio=1.30 / aq=2:0.90 Language : English Default : Yes Forced : No

Audio #1 ID : 2 Format : AC-3 Format/Info : Audio Coding 3 Mode extension : CM (complete main) Codec ID : A_AC3 Duration : 1h 41mn Bit rate mode : Constant Bit rate : 640 Kbps Channel(s) : 6 channels Channel positions : Front: L C R, Side: L R, LFE Sampling rate : 48.0 KHz Bit depth : 16 bits Compression mode : Lossy Stream size : 465 MiB (7%) Title : Многоголосый закадровый [лицензия] Language : Russian Default : Yes Forced : No

Audio #2 ID : 3 Format : AC-3 Format/Info : Audio Coding 3 Mode extension : CM (complete main) Codec ID : A_AC3 Duration : 1h 41mn Bit rate mode : Constant Bit rate : 640 Kbps Channel(s) : 6 channels Channel positions : Front: L C R, Side: L R, LFE Sampling rate : 48.0 KHz Bit depth : 16 bits Compression mode : Lossy Stream size : 465 MiB (7%) Title : DVO, Гланц и Королёва Language : Russian Default : No Forced : No

Audio #3 ID : 4 Format : AC-3 Format/Info : Audio Coding 3 Mode extension : CM (complete main) Codec ID : A_AC3 Duration : 1h 41mn Bit rate mode : Constant Bit rate : 640 Kbps Channel(s) : 6 channels Channel positions : Front: L C R, Side: L R, LFE Sampling rate : 48.0 KHz Bit depth : 16 bits Compression mode : Lossy Stream size : 465 MiB (7%) Title : AVO, Есарев Language : Russian Default : No Forced : No

Audio #4 ID : 5 Format : AC-3 Format/Info : Audio Coding 3 Mode extension : CM (complete main) Codec ID : A_AC3 Duration : 1h 41mn Bit rate mode : Constant Bit rate : 640 Kbps Channel(s) : 6 channels Channel positions : Front: L C R, Side: L R, LFE Sampling rate : 48.0 KHz Bit depth : 16 bits Compression mode : Lossy Stream size : 465 MiB (7%) Title : English Language : English Default : No Forced : No

Text #1 ID : 6 Format : UTF-8 Codec ID : S_TEXT/UTF8 Codec ID/Info : UTF-8 Plain Text Language : Russian Default : No Forced : No

Text #2 ID : 7 Format : UTF-8 Codec ID : S_TEXT/UTF8 Codec ID/Info : UTF-8 Plain Text Title : Гланц и Королёва Language : Russian Default : No Forced : No

Text #3 ID : 8 Format : UTF-8 Codec ID : S_TEXT/UTF8 Codec ID/Info : UTF-8 Plain Text Language : English Default : No Forced : No

Menu 00:00:00.000 : en:00:00:00.000 00:09:51.125 : en:00:09:51.125 00:19:20.167 : en:00:19:20.167 00:28:08.208 : en:00:28:08.208 00:38:09.625 : en:00:38:09.625 00:47:33.042 : en:00:47:33.042 00:58:09.500 : en:00:58:09.500 01:04:43.292 : en:01:04:43.292 01:10:57.000 : en:01:10:57.000 01:19:39.167 : en:01:19:39.167 01:24:27.333 : en:01:24:27.333 01:29:28.500 : en:01:29:28.500 01:36:53.167 : en:01:36:53.167

x264

x264 [info]: frame I:1138 Avg QP:14.64 size:218246 x264 [info]: frame P:27829 Avg QP:17.03 size: 66193 x264 [info]: frame B:117193 Avg QP:18.96 size: 26600
demon51085 10-Мар-2016 23:35 (1 год 7 месяцев назад)
И при чем тут Голгофа? В фильме скорее Содом и Гоморра. Сплошные моральные уроды. Отвратительный фильм от первых секунд и до конца. И как в большинстве фильмов последних лет не обошлось без гомосеков.
 
Lite_an 10-Мар-2016 23:35 (1 год 7 месяцев назад) Оценил на: 4
Думал когда-нибудь дочитаю Моби Дика, а эти гады рассказали чем он закончится...
 
smile-cry 10-Мар-2016 23:35 (1 год 7 месяцев назад) Оценил на: 10
Шик!
 
theGreat 10-Мар-2016 23:35 (1 год 7 месяцев назад)
Странно, что священник обратился к алкоголю, а не к Богу после пережитых им несчастий. Неужели накопленного жизненного опыта и веры было мало, чтобы осознать греховность своего поступка? На фоне горя женщины, потерявшей любимого, его переживания кажутся незначительными. Конец вполне логичный. Главный герой просто прятался за верой и за Богом как за стеной, но к истине так и не прикоснулся.
 
razers3618 10-Мар-2016 23:35 (1 год 7 месяцев назад)
Фильм показывает всю мразотность мира ....
 
Genri1972 10-Мар-2016 23:35 (1 год 7 месяцев назад)
БРЕД ПОЛНЕЙШИЙ!!!
 
pilden 10-Мар-2016 23:35 (1 год 7 месяцев назад) Оценил на: 1
лучше бы я час сорок в окно смотрел, чем этот бред..... всем кто писал положительные отзывы желаю что бы вас голубь обкакал, из-за вас до конца досмотрел....надо было через 5 минут удалять!!!
 
Truba 10-Мар-2016 23:35 (1 год 7 месяцев назад) Оценил на: 9
Хороший и глубокий фильм, я бы примировал оскаром, смотреть стоит.
 
Dreamkeeper 85 10-Мар-2016 23:35 (1 год 7 месяцев назад) Оценил на: 10
 
Soroka1989 10-Мар-2016 23:35 (1 год 7 месяцев назад) Оценил на: 10
_denis_100 Большое Спасибо за релиз!
 
Mil2 10-Мар-2016 23:35 (1 год 7 месяцев назад) Оценил на: 1
Уснул на пол фильме.Нудный и монотонный.
 
GoDfri 10-Мар-2016 23:35 (1 год 7 месяцев назад) Оценил на: 10
Отличнейший фильм. Глубокий и с прекрасно поставленными диалогами. Актерская игра Глиссона на высочайшем уровне. Природа заслуживает отдельной похвалы, просто радует глаза и душу. Рекомендую.
 
nail_jack 10-Мар-2016 23:35 (1 год 7 месяцев назад)
ApolloOne, вот я, например, обожаю вселенную трансформеров(я имею в виду фильмы, комиксы и прочее)и при этом получаю море эстетического удовольствия от просмотра фильмов подобных Голгофе, Однажды в Ирландии и иже с ними. Чё делать?
 
Stars588 10-Мар-2016 23:35 (1 год 7 месяцев назад) Оценил на: 10
Обожаю Брендаа Глисона, и Английско-Ирландские фильмы, диалоги на высшем уровне! Любителям экшена не советую. Кому понравилось посоветую фильм "Однажды в Ирландии". Твердая 10!
 
ApolloOne 10-Мар-2016 23:35 (1 год 7 месяцев назад) Оценил на: 9
Хороший фильм, актуальный. Не для любителей "Трансформеров" и прочего подобного. 9/10.
 
prorector2011 10-Мар-2016 23:35 (1 год 7 месяцев назад) Оценил на: 10
Мда, комедией тут и не пахло. Думаю, даже Гоблин бы не вытянул этот фильм. Однажды в Ирландии ещё можно с ним посмотреть, но не "это". Слишком "глубокий" фильмец, грузной. За себя скажу, что ничего нового не узнал. Фильм не заставил задуматься над чем-то. Советовать ничего не буду. За качество спасибо. Раздающему десятка.
 
Foreigner 10-Мар-2016 23:35 (1 год 7 месяцев назад) Оценил на: 10
За труд!
 
turbokoteg 10-Мар-2016 23:35 (1 год 7 месяцев назад) Оценил на: 8
фильм для взрослой аудитории, 8/10
 
Dori36961 10-Мар-2016 23:35 (1 год 7 месяцев назад) Оценил на: 10
 
kindza7 10-Мар-2016 23:35 (1 год 7 месяцев назад) Оценил на: 10
Отличный фильм, спасибо.
 
nope 10-Мар-2016 23:35 (1 год 7 месяцев назад) Оценил на: 10
Отличный фильм, спасибо.
 
Карающий_тапок 10-Мар-2016 23:35 (1 год 7 месяцев назад) Оценил на: 10
_denis_100, утолите мое любопытство, в чем преимущество рипа в 2 прохода?
 
Ku100 10-Мар-2016 23:35 (1 год 7 месяцев назад)
Ничего себе комедия!!! Где же тут смеяться? Фильм не понравился. Актер классный, но фильм ерунда.
 

Голгофа / Calvary скачать фильм торрент 2014 -

hokit.ru

Коротко о фильме "Голгофа" - Давно не было такой недельки у отца Джеймса: исповедь, начинающая со слов «я собираюсь вас убить», поджог церкви и драка в пабе. Быть священником и направлять свою паству непросто. Без чувства юмора, иронии и прощения не обойтись.

Голгофа

Оригинальное название Calvary
Фильм выпущен: 2014
Страна (кинокомпания): Ирландия, Великобритания
Pежиссер: Джон Майкл МакДона
Сценарий фильма: Джон Майкл МакДона
Продюсер фильма: Крис Кларк, Флора Фернандес-Маренго, Джеймс Флинн
Оператор: Ларри Смит
Композитор: Патрик Кэссиди
Художники: Марк Джерати, Имер Ни Мэлдауни
Монтаж: Крис Гилл
Жанр фильма: драма, комедия
Премьера (мир): 19 января 2014
премьера (Pоссия): 17 апреля 2014, Премиум Фильм
продолжительность100 мин
В главных ролях:
Донал Глисон
Мари-Жозе Кроз
М. Эммет Уолш
Исаак Де Банколе
Дилан Моран
Эйден Гиллен
Келли Райлли
Крис О'Дауд
Брендан Глисон
и другие ...

Трейлер фильма:

 

Фильм Голгофа / Calvary скачать торрент - новинка кино 2014

Скачать файлы .torrent Голгофа (фильм)

на сайте Вы можете получить ссылку на торрент файлы или скачать сами торрент файлы, в которых находится информация о местонахождении фильмов, сериалов у пользователей.

В фильме "Голгофа" - после угроз во время исповеди добродушный священник продолжил борьбу против окружающих его темных сил



Параметры: 10.03.2016 BDRip 1080p от NNNB | P, P2, A, 6,67 Гб

Формат: BDRip 1080p, MKV, AVC, AC3, размер файла: 6,67 ГбВидео: 1920x816, AVC - 6845 Кбит/сАудио: Русский: AC3, 6 каналов, 640 Кбит/с::Русский: AC3, 6 каналов, 640 Кбит/с::Русский: AC3, 6 каналов, 640 Кбит/сПеревод (озвучивание): Профессиональный многоголосый, Профессиональный (двухголосый), Авторский (одноголосый)

Параметры: 22.10.2015 BDRip от HQCLUB | GER Transfer | Лицензия, 2236 Мб

Формат: BDRip (источник: BLUEBIRD / Blu-Ray [GER Transfer] / 1080р), AVI, XviD, AC3, размер файла: 2236 МбВидео: 720x304, XviD - build 65 ~1744 Кбит/сАудио: AC3, 6 каналов, 448 Кбит/с::AC3, 6 каналов, 448 Кбит/с::English: AC3, 6 каналов, 448 Кбит/сПеревод (озвучивание): Профессиональный (многоголосый, закадровый) BD RUS + Профессиональный (двухголосый, закадровый) П. Гланц, И. Королева + Оригинал (английский)

Параметры: 31.01.2015 BDRip от HQ-ViDEO, 2,18 Гб

Формат: BDRip (источник: HDCLUB / BDRemux / 1080p), AVI, XviD, AC3, размер файла: 2,18 ГбВидео: 720x304, XviD - ; 2164 Кбит/сАудио: AC3, 6 каналов, 448 Кбит/сПеревод (озвучивание): Профессиональный (многоголосый, закадровый) |BD RUS| + Оригинал (Английский)

Параметры: 15.07.2014 BDRip-AVC от New-Team | Лицензия, 745 Мб

Формат: BDRip-AVC [Исходник Blu-Ray Disc 1080p], MKV, AAC, размер файла: 745 МбВидео: 752x320, H.264 - H ~ 960 Кбит/сАудио: AAC, 2 канала, ~64 Кбит/сПеревод (озвучивание): Профессиональный (многоголосый, закадровый) Лицензия

Параметры: 12.07.2014 BDRip 720p от Leonardo and Scarabey | Лицензия, 1,72 Гб

Формат: BDRip 720p Исходник: Blu-ray, MKV, AVC, AC3, размер файла: 1,72 ГбВидео: 1280x544, AVC - AVC at 1933 Кбит/сАудио: Русский: AC3, 6 каналов, 448 Кбит/сПеревод (озвучивание): Профессиональный (многоголосый закадровый) Лицензия

Параметры: 28.06.2014 HDRip от Scarabey | Лицензия, 1,46 Гб

Формат: HDRip, AVI, XviD, AC3, размер файла: 1,46 ГбВидео: 720x304, XviD - build 73 ~1595 Кбит/сАудио: AC3, 6 каналов, 448 Кбит/сПеревод (озвучивание): Профессиональный (многоголосый, закадровый)

Параметры: 25.06.2014 3,99 Гб -

Формат: BDRip (720p), MKV, AVC, AC3, размер файла: 3,99 ГбВидео: 1280x544, AVC - 4208 Кбит/сАудио: Русский: AC3, 6 каналов, 640 Кбит/с / Английский: AC3, 6 каналов, 640 Кбит/сПеревод (озвучивание): Профессиональный многоголосый [лицензия]

Параметры: 25.06.2014 BDRip 720p от HDCLUB, 5,23 Гб

Формат: MKV, 16-bit, DTS, размер файла: 5,23 ГбВидео: 1280x544, H.264 - ~4208 Кбит/сАудио: Русский: 16-bit, DTS, 6 каналов, ~1536 Кбит/с / English: 16-bit, DTS, 6 каналов, ~1536 Кбит/сПеревод (озвучивание): Профессиональный (многоголосый, закадровый) Blu-Ray RUS

Параметры: 25.06.2014 HDRip, 1,37 Гб -

Формат: HDRip, XviD, AC3, размер файла: 1,37 ГбВидео: 720x304, XviD - 1470 Кбит/сАудио: AC3, 6 каналов, 448 Кбит/сПеревод (озвучивание): Профессиональный многоголосый [лицензия]

Параметры: 25.06.2014 HDRip, 700 Мб -

Формат: HDRip, XviD, AC3, размер файла: 700 МбВидео: 640x272, XviD - 827 Кбит/сАудио: AC3, 2 канала, 128 Кбит/сПеревод (озвучивание): Профессиональный многоголосый [лицензия]

Скачать Голгофа, Calvary, фильм бесплатно скачать торрент, драма, комедия, новинка кино

 

Скачать фильм Голгофа через торрент в хорошем качестве бесплатно 720p by msltel] MVO

ОбщееУникальный идентификатор : 234254602569408977939780272712541988119 (0xB03BCB9D5C89C4DFA2B53E823F6AE517)Полное имя : D:\Video\Голгофа.2014.BDRip.720p.mkvФормат : MatroskaВерсия формата : Version 4 / Version 2Размер файла : 4,08 ГбайтПродолжительность : 1 ч. 41 м.Общий поток : 5787 Кбит/секДата кодирования : UTC 2015-12-06 03:13:56Программа кодирования : mkvmerge v8.2.0 ('World of Adventure') 64bitБиблиотека кодирования : libebml v1.3.1 + libmatroska v1.4.2DURATION : 01:32:37.460000000NUMBER_OF_FRAMES : 1170NUMBER_OF_BYTES : 45463_STATISTICS_WRITING_APP : mkvmerge v8.2.0 ('World of Adventure') 64bit_STATISTICS_WRITING_DATE_UTC : 2015-12-06 03:13:56_STATISTICS_TAGS : BPS DURATION NUMBER_OF_FRAMES NUMBER_OF_BYTES

ВидеоИдентификатор : 1Формат : AVCФормат/Информация : Advanced Video CodecПрофиль формата : [email protected]Параметр CABAC формата : ДаПараметр ReFrames формата : 9 кадровИдентификатор кодека : V_MPEG4/ISO/AVCПродолжительность : 1 ч. 41 м.Битрейт : 3880 Кбит/секШирина : 1280 пикселейВысота : 536 пикселейСоотношение сторон : 2,40:1Режим частоты кадров : ПостоянныйЧастота кадров : 24,000 кадра/секЦветовое пространство : YUVСубдискретизация насыщенности : 4:2:0Битовая глубина : 8 битТип развёртки : ПрогрессивнаяБит/(Пиксели*Кадры) : 0.236Размер потока : 2,74 Гбайт (67%)Библиотека кодирования : x264 core 146 r2538 121396cНастройки программы : cabac=1 / ref=9 / deblock=1:-1:-1 / analyse=0x3:0x113 / me=umh / subme=10 / psy=1 / psy_rd=1.00:0.15 / mixed_ref=1 / me_range=32 / chroma_me=1 / trellis=2 / 8x8dct=1 / cqm=0 / deadzone=21,11 / fast_pskip=1 / chroma_qp_offset=-3 / threads=6 / lookahead_threads=1 / sliced_threads=0 / nr=0 / decimate=1 / interlaced=0 / bluray_compat=0 / constrained_intra=0 / bframes=12 / b_pyramid=2 / b_adapt=2 / b_bias=0 / direct=1 / weightb=1 / open_gop=0 / weightp=2 / keyint=230 / keyint_min=23 / scenecut=40 / intra_refresh=0 / rc_lookahead=40 / rc=crf / mbtree=0 / crf=18.3 / qcomp=0.60 / qpmin=0 / qpmax=69 / qpstep=4 / vbv_maxrate=40000 / vbv_bufsize=50000 / crf_max=0.0 / nal_hrd=none / filler=0 / ip_ratio=1.40 / pb_ratio=1.30 / aq=1:1.00Язык : EnglishDefault : ДаForced : НетDURATION : 01:40:59.917000000NUMBER_OF_FRAMES : 145438NUMBER_OF_BYTES : 3024144529_STATISTICS_WRITING_APP : mkvmerge v8.2.0 ('World of Adventure') 64bit_STATISTICS_WRITING_DATE_UTC : 2015-12-06 03:13:56_STATISTICS_TAGS : BPS DURATION NUMBER_OF_FRAMES NUMBER_OF_BYTES

Аудио #1Идентификатор : 2Формат : AC-3Формат/Информация : Audio Coding 3Расширение режима : CM (complete main)Параметр Endianness формата : BigИдентификатор кодека : A_AC3Продолжительность : 1 ч. 41 м.Вид битрейта : ПостоянныйБитрейт : 448 Кбит/секКаналы : 6 каналовРасположение каналов : Front: L C R, Side: L R, LFEЧастота : 48,0 КГцМетод сжатия : С потерямиРазмер потока : 324 Мбайт (8%)Заголовок : MVO (BD RUS)Язык : RussianDefault : ДаForced : Нет

Аудио #2Идентификатор : 3Формат : AC-3Формат/Информация : Audio Coding 3Расширение режима : CM (complete main)Параметр Endianness формата : BigИдентификатор кодека : A_AC3Продолжительность : 1 ч. 41 м.Вид битрейта : ПостоянныйБитрейт : 448 Кбит/секКаналы : 6 каналовРасположение каналов : Front: L C R, Side: L R, LFEЧастота : 48,0 КГцМетод сжатия : С потерямиРазмер потока : 324 Мбайт (8%)Заголовок : DVO (Пётр Гланц и Инна Корлёва)Язык : RussianDefault : НетForced : Нет

Аудио #3Идентификатор : 4Формат : AC-3Формат/Информация : Audio Coding 3Расширение режима : CM (complete main)Параметр Endianness формата : BigИдентификатор кодека : A_AC3Продолжительность : 1 ч. 41 м.Вид битрейта : ПостоянныйБитрейт : 448 Кбит/секКаналы : 6 каналовРасположение каналов : Front: L C R, Side: L R, LFEЧастота : 48,0 КГцМетод сжатия : С потерямиРазмер потока : 324 Мбайт (8%)Заголовок : AVO (Дмитрий Есарев)Язык : RussianDefault : НетForced : Нет

Аудио #4Идентификатор : 5Формат : AC-3Формат/Информация : Audio Coding 3Расширение режима : CM (complete main)Параметр Endianness формата : BigИдентификатор кодека : A_AC3Продолжительность : 1 ч. 41 м.Вид битрейта : ПостоянныйБитрейт : 448 Кбит/секКаналы : 6 каналовРасположение каналов : Front: L C R, Side: L R, LFEЧастота : 48,0 КГцМетод сжатия : С потерямиРазмер потока : 324 Мбайт (8%)Заголовок : OriginalЯзык : EnglishDefault : НетForced : Нет

Текст #1Идентификатор : 6Формат : UTF-8Идентификатор кодека : S_TEXT/UTF8Идентификатор кодека/Информация : UTF-8 Plain TextЗаголовок : русский (Blu-Ray)Язык : RussianDefault : НетForced : Нет

Текст #2Идентификатор : 7Формат : UTF-8Идентификатор кодека : S_TEXT/UTF8Идентификатор кодека/Информация : UTF-8 Plain TextЗаголовок : русский (Пётр Гланц)Язык : RussianDefault : НетForced : Нет

Текст #3Идентификатор : 8Формат : UTF-8Идентификатор кодека : S_TEXT/UTF8Идентификатор кодека/Информация : UTF-8 Plain TextЗаголовок : английскийDefault : НетForced : Нет

piratbit.ru

Скачать фильм Голгофа через торрент в хорошем качестве бесплатно 1080p от _denis_100 / NNNB] MVO

Format                                   : MatroskaFormat version                           : Version 2File size                                : 6.67 GiBDuration                                 : 1h 41mnOverall bit rate                         : 9 404 KbpsMovie name                               : Golgofa.(2014).BDRip.1080p.[denis100]Encoded date                             : UTC 2016-03-10 15:36:38Writing application                      : mkvmerge v5.8.0 ('No Sleep / Pillow') built on Sep  2 2012 15:37:04Writing library                          : libebml v1.2.3 + libmatroska v1.3.0

VideoID                                       : 1Format                                   : AVCFormat/Info                              : Advanced Video CodecFormat profile                           : [email protected] settings, CABAC                   : YesFormat settings, ReFrames                : 5 framesCodec ID                                 : V_MPEG4/ISO/AVCDuration                                 : 1h 41mnBit rate                                 : 6 845 KbpsWidth                                    : 1 920 pixelsHeight                                   : 816 pixelsDisplay aspect ratio                     : 2.35:1Frame rate                               : 24.000 fpsColor space                              : YUVChroma subsampling                       : 4:2:0Bit depth                                : 8 bitsScan type                                : ProgressiveBits/(Pixel*Frame)                       : 0.182Stream size                              : 4.72 GiB (71%)Title                                    : Golgofa.(2014).BDRip.1080p.[denis100]Writing library                          : x264 core 138 r2358 9e941d1Encoding settings                        : cabac=1 / ref=5 / deblock=1:-3:-3 / analyse=0x3:0x133 / me=umh / subme=11 / psy=1 / psy_rd=1.00:0.15 / mixed_ref=1 / me_range=32 / chroma_me=1 / trellis=2 / 8x8dct=1 / cqm=0 / deadzone=21,11 / fast_pskip=0 / chroma_qp_offset=-3 / threads=6 / lookahead_threads=1 / sliced_threads=0 / nr=0 / decimate=1 / interlaced=0 / bluray_compat=0 / constrained_intra=0 / bframes=8 / b_pyramid=2 / b_adapt=2 / b_bias=0 / direct=3 / weightb=1 / open_gop=0 / weightp=2 / keyint=240 / keyint_min=23 / scenecut=40 / intra_refresh=0 / rc=2pass / mbtree=0 / bitrate=6845 / ratetol=1.0 / qcomp=0.60 / qpmin=0 / qpmax=69 / qpstep=4 / cplxblur=20.0 / qblur=0.5 / ip_ratio=1.40 / pb_ratio=1.30 / aq=2:0.90Language                                 : EnglishDefault                                  : YesForced                                   : No

Audio #1ID                                       : 2Format                                   : AC-3Format/Info                              : Audio Coding 3Mode extension                           : CM (complete main)Codec ID                                 : A_AC3Duration                                 : 1h 41mnBit rate mode                            : ConstantBit rate                                 : 640 KbpsChannel(s)                               : 6 channelsChannel positions                        : Front: L C R, Side: L R, LFESampling rate                            : 48.0 KHzBit depth                                : 16 bitsCompression mode                         : LossyStream size                              : 465 MiB (7%)Title                                    : Многоголосый закадровый [лицензия]Language                                 : RussianDefault                                  : YesForced                                   : No

Audio #2ID                                       : 3Format                                   : AC-3Format/Info                              : Audio Coding 3Mode extension                           : CM (complete main)Codec ID                                 : A_AC3Duration                                 : 1h 41mnBit rate mode                            : ConstantBit rate                                 : 640 KbpsChannel(s)                               : 6 channelsChannel positions                        : Front: L C R, Side: L R, LFESampling rate                            : 48.0 KHzBit depth                                : 16 bitsCompression mode                         : LossyStream size                              : 465 MiB (7%)Title                                    : DVO, Гланц и КоролёваLanguage                                 : RussianDefault                                  : NoForced                                   : No

Audio #3ID                                       : 4Format                                   : AC-3Format/Info                              : Audio Coding 3Mode extension                           : CM (complete main)Codec ID                                 : A_AC3Duration                                 : 1h 41mnBit rate mode                            : ConstantBit rate                                 : 640 KbpsChannel(s)                               : 6 channelsChannel positions                        : Front: L C R, Side: L R, LFESampling rate                            : 48.0 KHzBit depth                                : 16 bitsCompression mode                         : LossyStream size                              : 465 MiB (7%)Title                                    : AVO, ЕсаревLanguage                                 : RussianDefault                                  : NoForced                                   : No

Audio #4ID                                       : 5Format                                   : AC-3Format/Info                              : Audio Coding 3Mode extension                           : CM (complete main)Codec ID                                 : A_AC3Duration                                 : 1h 41mnBit rate mode                            : ConstantBit rate                                 : 640 KbpsChannel(s)                               : 6 channelsChannel positions                        : Front: L C R, Side: L R, LFESampling rate                            : 48.0 KHzBit depth                                : 16 bitsCompression mode                         : LossyStream size                              : 465 MiB (7%)Title                                    : EnglishLanguage                                 : EnglishDefault                                  : NoForced                                   : No

Text #1ID                                       : 6Format                                   : UTF-8Codec ID                                 : S_TEXT/UTF8Codec ID/Info                            : UTF-8 Plain TextLanguage                                 : RussianDefault                                  : NoForced                                   : No

Text #2ID                                       : 7Format                                   : UTF-8Codec ID                                 : S_TEXT/UTF8Codec ID/Info                            : UTF-8 Plain TextTitle                                    : Гланц и КоролёваLanguage                                 : RussianDefault                                  : NoForced                                   : No

Text #3ID                                       : 8Format                                   : UTF-8Codec ID                                 : S_TEXT/UTF8Codec ID/Info                            : UTF-8 Plain TextLanguage                                 : EnglishDefault                                  : NoForced                                   : No

Menu00:00:00.000                             : en:00:00:00.00000:09:51.125                             : en:00:09:51.12500:19:20.167                             : en:00:19:20.16700:28:08.208                             : en:00:28:08.20800:38:09.625                             : en:00:38:09.62500:47:33.042                             : en:00:47:33.04200:58:09.500                             : en:00:58:09.50001:04:43.292                             : en:01:04:43.29201:10:57.000                             : en:01:10:57.00001:19:39.167                             : en:01:19:39.16701:24:27.333                             : en:01:24:27.33301:29:28.500                             : en:01:29:28.50001:36:53.167                             : en:01:36:53.167

piratbit.ru


Смотрите также