Скачать стартрек 1 через торрент в хорошем качестве


Возмездие через торрент в хорошем качестве бесплатно BDRip

Раздают: 1 [ 66 KB/s ]
Размер: 2.18 GB | Добавлен: 4 года 1 мес. назад | Торрент скачан:2228 раз
Реклама Дарим 3000 рублей за регистрацию, не упусти свой шанс получить шикарный бонус!!!

18-09-2013 10:44 Стартрек: Возмездие Скачать торрент  

Стартрек: Возмездие / Star Trek Into Darkness«Beyond the darkness, lies greatness.»
  • Год выпуска:2013
  • Страна:США
  • Жанр:фантастика, боевик, приключения
  • Продолжительность: 02:12:05
  • Перевод:Профессиональный (полное дублирование) [лицензия]
  • Субтитры: русские (полные, форсированные), английские (полные, SDH, SDH-Colored), украинские (полные, форсированные) -отдельно
    • Режиссер:Джей Джей Абрамс / J.J. Abrams
    • Сценарий: Роберто Орси / Roberto Orci, Алекс Куртцман / Alex Kurtzman, Дэймон Линделоф / Damon Lindelof, Джин Родденберри / Gene Roddenberry
    • Продюсер: Джей Джей Абрамс / J.J. Abrams, Роберто Орси / Roberto Orci, Брайан Берк / Bryan Burk, Алекс Куртцман / Alex Kurtzman, Дэймон Линделоф / Damon Lindelof
  • В ролях:Крис Пайн (Kirk), Закари Куинто (Spock), Бенедикт Камбербэтч (John Harrison), Саймон Пегг (Scotty), Карл Урбан (Bones), Зои Салдана (Uhura), Элис Ив (Carol), Джон Чо (Sulu), Антон Ельчин (Chekov), Питер Уэллер (Marcus), Брюс Гринвуд (Pike), Леонард Нимой (Spock Prime, в титрах не указан)
    • Описание:Вернувшись на Землю, команда корабля «Энтерпрайз» обнаруживает, что деятельность и принципы их организации подорваны изнутри. Флот скован необъяснимым ужасом и бездействует, пока мир все глубже погружается в бездну.Капитан Кирк берет на себя руководство операцией по поимке злодея, ответственного за этот хаос и способного уничтожить все человечество.В запутанной игре не на жизнь, а на смерть, любовь и дружба будут принесены в жертву ради единственного, что осталось у Кирка - его команды.
  • Рейтингkinopoisk.ru: 7.926 (38 383)imdb.com: 8.00 (180 299)MPAA: PG-13 - Детям до 13 лет просмотр не желателен
      Автор рипа: : yaroslaigor
    • Качество:BDRip (источник:Blu-Ray Remux / 1080р)
    • Формат:AVI
    • Видео кодек: XviD
    • Аудио кодек:AC3
    • Видео: XviD, 720x304 (2.35:1), 1904 kbps, 23,976 fps, 0,363 bpp
    • Аудио: AC3 / 5.1 / 48 kHz / 448 kbps / 16 bit (полное дублирование)
    • Аудио #2: 48 kHz, AC3 Dolby Digital, 3/2 (L,C,R,l,r) + LFE ch, ~448 kbps avg Профессиональный (полное дублирование) украинский -отдельно
    • Аудио #3: 48 kHz, AC3 Dolby Digital, 3/2 (L,C,R,l,r) + LFE ch, ~448 kbps avg Оригинал (английский) -отдельно
    GeneralComplete name : D:ТорентыStartrek.Vozmezdie.2013.RUS.BDRip.XviD.AC3.-HQCLUB.aviFormat : AVIFormat/Info : Audio Video InterleaveFormat profile : OpenDMLFile size : 2.18 GiBDuration : 2h 12mnOverall bit rate : 2 364 KbpsMovie name : Стартрек: Возмездие / Star Trek Into Darkness (2013) BDRipDirector : yaroslaigorGenre : фантастика, боевикWriting application : VirtualDubMod 1.5.10.2 (build 2542/release)

    Comment : 17.09.2013

    VideoID : 0Format : MPEG-4 VisualFormat profile : Advanced [email protected] settings, BVOP : 1Format settings, QPel : NoFormat settings, GMC : No warppointsFormat settings, Matrix : CustomCodec ID : XVIDCodec ID/Hint : XviDDuration : 2h 12mnBit rate : 1 904 KbpsWidth : 720 pixelsHeight : 304 pixelsDisplay aspect ratio : 2.35:1Frame rate : 23.976 fpsColor space : YUVChroma subsampling : 4:2:0Bit depth : 8 bitsScan type : ProgressiveCompression mode : LossyBits/(Pixel*Frame) : 0.363Stream size : 1.76 GiB (81%)Writing library : XviD 65

    AudioID : 1Format : AC-3Format/Info : Audio Coding 3Mode extension : CM (complete main)Codec ID : 2000Duration : 2h 12mnBit rate mode : ConstantBit rate : 448 KbpsChannel(s) : 6 channelsChannel positions : Front: L C R, Side: L R, LFESampling rate : 48.0 KHzBit depth : 16 bitsCompression mode : LossyStream size : 423 MiB (19%)Alignment : Split accross interleavesInterleave, duration : 42 ms (1.00 video frame)Interleave, preload duration : 500 ms

    • Подбитый корабль Маркуса на своем пути снес знаменитую тюрьму Алькатрас. Что интересно, Джей Джей Абрамс был исполнительным продюсером сериала «Алькатрас» (2011).
    • Бенедикта Камбербэтча Джей Джей Абрамсу рекомендовал его сопродюсер по фильму «Супер 8» (2011) - Стивен Спилберг, который работал вместе с Камбербэтчем в фильме «Боевой конь» (2011).
    • Бенисио Дель Торо предлагали роль Джона Харрисона, но в итоге отказался из-за денежных вопросов. Затем на эту роль рассматривались Демиан Бишир, Эдгар Рамирес и Хорди Молья, но в итоге она досталась Бенедикту Камбербэтчу.
    • Сценаристы Роберто Орси и Алекс Куртцман объяснили, что дилеммой для сиквела был выбор - столкнуть экипаж с новым злодеем или же сделать «исследовательский научно-фантастический сюжет», как в сериале «Звездный путь» (1966-1969).
    • По словам Джей Джей Абрамса понятие путешествия во времени, которое было в предыдущем фильме, использовалось преднамеренно, для того чтобы иметь больший простор для работы над новыми фильмами: «То, что теперь мы не зависим от временного периода, позволяет нам использовать любые моменты прошлого, либо же придумывать совершенно новые для создания сюжета».
    • Хейли Этвелл и Тереза Палмер пробовались на роль Кэрол Маркус.
    • Студия Paramount Pictures попросила режиссера Джей Джей Абрамса снять фильм в 3D. Однако Абрамс хотел снимать в 2D на пленку, используя камеры IMAX. В итоге они пришли к компромиссу, и результатом стало то, что этот фильм стал первым в истории кино снятым в IMAX-формате, а затем преобразованным в 3D на стадии пост-продакшна.
    • Это второе появление Питера Уэллера в фильмах серии «Звездный путь». Он ранее снимался в качестве приглашенной звезды в сериале «Звездный путь: Энтерпрайз» (2001-2005).
    • Питер Уэллер ранее снимался в фильме «Приключения Бакару Банзая в восьмом измерении» (1984) вместе с бывшим злодеем из «Звездного пути» - Кристофером Ллойдом, а также в фильме «Робокоп» (1987) вместе с другими «ветеранами» серии - Ронни Коксом, Кертвудом Смитом и Мигелем Феррером.
    • Бенедикт Камбербэтч стал широко известен благодаря своей роли в сериале «Шерлок» (2010). Леонард Нимой играл Шерлока Холмса в сценических постановках в 1970-х, и даже упоминает этот факт в фильме «Звездный путь 6: Неоткрытая страна» (1991), ссылаясь на логику Холмса, говоря: «когда вы исключаете невозможное, то, что остается, обычно маловероятно, но должно быть правдой». Так же Кристофер Пламмер исполнял роль Холмса и произносил его фирменную фразу: «Ставки сделаны» (The game`s afoot). Еще Нимой записывал песню в 1970-х - «The Ballad of Bilbo Baggins» (Баллада о Бильбо Бэггинсе), а Камбербэтч озвучивал дракона Смога в фильме «Хоббит: Пустошь Смауга» (2013), в котором его коллега по сериалу «Шерлок» (2010) - Мартин Фриман - сыграл Бильбо Бэггинса.
    • Бенедикт Камбербэтч записал видео ролик для кинопроб на кухне своего лучшего друга при помощи iPhone.
    • Из всех предлагаемых названий для фильма, включая и шуточные, сценаристу Дэймону Линделофу больше всего понравилось: «Звездный путь: Трансформеры 4». Он сказал: «Технически мы без проблем можем исполнить и это».
    • Майкл Дорн, который ранее играл клингонского лейтенанта Ворфа, на момент начала съемок приглашался на роль офицера. Но в конечном итоге создатели фильма решили не смешивать старый и новый актерский состав из серии фильмов «Звездный путь».
    • Сценаристы для вдохновения изучали научно-фантастические романы Артура Ч. Кларка и Ларри Найвена.
    • Это первый раз, когда фильм серии «Звездный путь» снимался за пределами США. Были съемки для сцен со спецэффектами в Исландии.
    • В фильме Джон Харрисон дает Джеймсу Т. Кирку пространственные координаты 23174611. Это координаты орбиты одной из лун Юпитера.
    • Брюс Гринвуд и Питер Уэллер озвучивали героев DC Comics - Брюса Уэйна / Бэтмана: Гринвуд в мультфильме «Бэтмен: Под колпаком» (2010) и сериале «Юная Лига Справедливости» (2010), а Уэллер в «Темный рыцарь: Возрождение легенды. Часть 1» (2012).
    • Коллекция моделей на столе адмирала Маркуса напоминает галерею старых кораблей «Энтерпрайз» из «Звездный путь: Фильм» (1979). В обеих коллекциях есть шаттл НАСА и «XCV 330 USS Энтерпрайз» (корабль с кольцами вокруг его корпуса). Также среди моделей присутствует «NX-01 Энтерпрайз» из сериала «Звездный путь: Энтерпрайз» (2001-2005).
    • Эпизодическую роль транспортного сотрудника в фильме сыграл Кристофер Дуэн - сын «ветерана» серии - Джеймса Дуэна.
    • еще 16 фактов
    • Когда Кирк лежит и умирает у двери с окном, Спок прикладывает свою руку к окну, и делает жест - «Вулканский салют», в следующем кадре его рука уже не показывает этот жест.
    • Когда старый Спок появляется на экране Энтерпрайза, изображение зеркально отображено. Это можно заметить потому, что у актера Нимоя вытянута мочка правого уха, а не левого.
    • Ремень безопасности Сулу то появляется, то исчезает во время сцены финальной битвы.
    • В фильме на 57 минуте, когда Спок целует Ухуру, меняется расположение лица. То её голова к правому плечу, то в следующем кадре голова уже к левому плечу.
    • еще 1 ошибка
    © Оформление by Vetal
  • Скачать Стартрек: Возмездие через торрент http://i2.imageban.ru/out/2013/09/18/05e789f3e36d30edd9423d6bcb778a4e.jpg Скачать фильм Стартрек: Возмездие через торрент бесплантно в хорошем качестве Описание:Вернувшись на Землю, команда корабля «Энтерпрайз» обнаруживает, что деятельность и принципы их организации подорваны изнутри. Флот ... 2013-09-18 10:44 9.7 10 26

    Loading...

    Loading...

    % Раздел Тема Автор DL S | L
    Фильмы [HD 720p, 1080p] (Хороший звук DUB, MVO) [ 15.13 GB ] Стартрек: Возмездие / Star Trek Into Darkness [2013 BDRip 1080p DUB] лисяра Скачать
    Фильмы [HD 720p, 1080p] (Хороший звук DUB, MVO) [ 9.44 GB ] Стартрек: Возмездие / Star Trek Into Darkness [IMAX Edition] [2013 BDRip 720p] DUB + AVO [Ю. Немахов] + UKR + Subs от R.G. PiratFilms Messa-fan Скачать
    Фильмы (Blu-ray, BD-Remux, HDDVD) [ 29.11 GB ] Стартрек: Возмездие / Star Trek Into Darkness [2013 BDRemux] | Russia / лицензия| Ворон Скачать
    Фильмы [HD 720p, 1080p] (Хороший звук DUB, MVO) [ 21.82 GB ] Стартрек: Возмездие / Star Trek Into Darkness [2013 BDRip 1080p DUB] [] лисяра Скачать
    3D Фильмы [ 18.41 GB ] Стартрек: Возмездие 3D / Star Trek Into Darkness 3D [2013 BDRip 1080p DUB] [] Half OverUnder / Вертикальная анаморфная стереопара лисяра Скачать
    Фильмы 2013 [DVDrip, WEB-DLRip, HDrip] [ 1.37 GB ] Стартрек: Возмездие / Star Trek Into Darkness [2013 HDRip] | Russia / лицензия| Ворон Скачать
    Фильмы (DVD фильмы) [ 6.83 GB ] Стартрек: Возмездие / Star Trek Into Darkness [2013 DVD9] R5 voovaz Скачать

    Рекламный пират

    18-09-2013 10:57 Стартрек: Возмездие Скачать торрент  

    23-11-2013 15:35 Стартрек: Возмездие Скачать торрент  

    Vetаlбредишь ,чтоле ? Сюжетом вообще не связаны 2 фильма.

    23-01-2016 12:10 Стартрек: Возмездие Скачать торрент  

    Briga писал(а):

    Vetаlбредишь ,чтоле ? Сюжетом вообще не связаны 2 фильма.

    да ты что??? как раз наоборот!!!

    Дорогой пользователь! Огромная просьба, поблагодарите релизера, оцените раздачу и оставьте свои комментарий, если Вы скачали Стартрек: Возмездие через торрент бесплатно! Внесите свою лепту в развитие PiratBit!

    Комментировать посты могут только пользователи прошедшие не сложную регистрацию

    Стартрек: Возмездие через торрент Скачать бесплатно Стартрек: Возмездие Стартрек: Возмездие скачать торрент Стартрек: Возмездие смотреть онлайн Cкачать фильм Стартрек: Возмездие бесплатно Стартрек: Возмездие скачать торрент в хорошем качестве Стартрек: Возмездие смотреть онлайн бесплатно в хорошем качестве

    Вы не можете начинать темыВы не можете отвечать на сообщенияВы не можете редактировать свои сообщенияВы не можете удалять свои сообщенияВы не можете голосовать в опросахВы не можете прикреплять файлы к сообщениямВы можете скачивать файлы

    piratbit.ru

    Возмездие через торрент в хорошем качестве бесплатно 720p

    GeneralUnique ID : 182280260348739969357569850646783154167 (0x8921E6B2EC0C16FF9A123DA11D9D57F7)Complete name : I:Star.Trek.Into.Darkness.2013.BluRay.720p.x264.mkvFormat : MatroskaFormat version : Version 2File size : 7.68 GiBDuration : 2h 12mnOverall bit rate : 8 327 KbpsEncoded date : UTC 2013-09-09 19:18:33Writing application : mkvmerge v6.3.0 ('You can't stop me!') built on Jun 28 2013 20:09:41Writing library : libebml v1.3.0 + libmatroska v1.4.0

    VideoID : 1Format : AVCFormat/Info : Advanced Video CodecFormat profile : [email protected] settings, CABAC : YesFormat settings, ReFrames : 11 framesCodec ID : V_MPEG4/ISO/AVCDuration : 2h 12mnBit rate : 6 438 KbpsWidth : 1 280 pixelsHeight : 534 pixelsDisplay aspect ratio : 2.40:1Frame rate : 23.976 fpsColor space : YUVChroma subsampling : 4:2:0Bit depth : 8 bitsScan type : ProgressiveBits/(Pixel*Frame) : 0.393Stream size : 5.78 GiB (75%)Title : Star.Trek.Into.Darkness.2013.BluRay.720p.AC3.x264-CHDWriting library : x264 core 135 r2345 f0c1c53Encoding settings : cabac=1 / ref=11 / deblock=1:-3:-3 / analyse=0x3:0x113 / me=umh / subme=10 / psy=1 / psy_rd=1.00:0.05 / mixed_ref=1 / me_range=32 / chroma_me=1 / trellis=2 / 8x8dct=1 / cqm=0 / deadzone=21,11 / fast_pskip=0 / chroma_qp_offset=-2 / threads=12 / lookahead_threads=1 / sliced_threads=0 / nr=0 / decimate=1 / interlaced=0 / bluray_compat=0 / constrained_intra=0 / bframes=5 / b_pyramid=2 / b_adapt=2 / b_bias=0 / direct=3 / weightb=1 / open_gop=0 / weightp=2 / keyint=250 / keyint_min=23 / scenecut=40 / intra_refresh=0 / rc=2pass / mbtree=0 / bitrate=6438 / ratetol=1.0 / qcomp=0.70 / qpmin=0 / qpmax=69 / qpstep=4 / cplxblur=20.0 / qblur=0.5 / ip_ratio=1.40 / pb_ratio=1.30 / aq=2:0.90Language : EnglishDefault : NoForced : No

    Audio #1ID : 2Format : AC-3Format/Info : Audio Coding 3Mode extension : CM (complete main)Codec ID : A_AC3Duration : 2h 12mnBit rate mode : ConstantBit rate : 384 KbpsChannel(s) : 6 channelsChannel positions : Front: L C R, Side: L R, LFESampling rate : 48.0 KHzBit depth : 16 bitsCompression mode : LossyStream size : 363 MiB (5%)Language : RussianDefault : YesForced : No

    Audio #2ID : 3Format : DTSFormat/Info : Digital Theater SystemsCodec ID : A_DTSDuration : 2h 12mnBit rate mode : ConstantBit rate : 1 510 KbpsChannel(s) : 6 channelsChannel positions : Front: L C R, Side: L R, LFESampling rate : 48.0 KHzBit depth : 24 bitsCompression mode : LossyStream size : 1.39 GiB (18%)Language : EnglishDefault : NoForced : No

    Text #1ID : 4Format : UTF-8Codec ID : S_TEXT/UTF8Codec ID/Info : UTF-8 Plain TextLanguage : RussianDefault : NoForced : No

    Text #2ID : 5Format : UTF-8Codec ID : S_TEXT/UTF8Codec ID/Info : UTF-8 Plain TextDefault : NoForced : No

    Text #3ID : 6Format : UTF-8Codec ID : S_TEXT/UTF8Codec ID/Info : UTF-8 Plain TextDefault : NoForced : No

    piratbit.ru

    Возмездие через торрент в хорошем качестве бесплатно 1080p

    GeneralUnique ID : 213070402530460004729922429772182914238 (0xA04BDDE9DB1215AB9485ADA6D77904BE)Complete name : I:Стартрек.Возмездие-Star.Trek.Into.Darkness.(2013).BDRip.[1080p]Стартрек.Возмездие-Star.Trek.Into.Darkness.(2013).BDRip.[1080p].mkvFormat : MatroskaFormat version : Version 2File size : 20.5 GiBDuration : 2h 12mnOverall bit rate : 22.2 MbpsMovie name : Star Trek Into Darkness (2013)Encoded date : UTC 2013-09-11 20:01:05Writing application : mkvmerge v5.7.0 ('The Whirlwind') built on Aug 7 2012 14:11:40Writing library : libebml v1.2.3 + libmatroska v1.3.0

    VideoID : 1Format : AVCFormat/Info : Advanced Video CodecFormat profile : [email protected] settings, CABAC : YesFormat settings, ReFrames : 5 framesCodec ID : V_MPEG4/ISO/AVCDuration : 2h 12mnBit rate : 17.5 MbpsWidth : 1 918 pixelsHeight : 800 pixelsDisplay aspect ratio : 2.40:1Frame rate : 23.976 fpsColor space : YUVChroma subsampling : 4:2:0Bit depth : 8 bitsScan type : ProgressiveBits/(Pixel*Frame) : 0.475Stream size : 16.1 GiB (79%)Writing library : x264 core 135 r2345 f0c1c53Encoding settings : cabac=1 / ref=5 / deblock=1:-3:-3 / analyse=0x3:0x113 / me=tesa / subme=10 / psy=1 / psy_rd=1.05:0.00 / mixed_ref=1 / me_range=16 / chroma_me=1 / trellis=2 / 8x8dct=1 / cqm=0 / deadzone=21,11 / fast_pskip=0 / chroma_qp_offset=-2 / threads=12 / lookahead_threads=2 / sliced_threads=0 / nr=0 / decimate=0 / interlaced=0 / bluray_compat=0 / constrained_intra=0 / bframes=7 / b_pyramid=2 / b_adapt=2 / b_bias=0 / direct=3 / weightb=1 / open_gop=0 / weightp=2 / keyint=250 / keyint_min=23 / scenecut=40 / intra_refresh=0 / rc=crf / mbtree=0 / crf=17.0 / qcomp=0.65 / qpmin=0 / qpmax=69 / qpstep=4 / ip_ratio=1.30 / pb_ratio=1.30 / aq=1:0.80 / zones=180660,190031,crf=30Language : EnglishDefault : YesForced : No

    Audio #1ID : 2Format : DTSFormat/Info : Digital Theater SystemsCodec ID : A_DTSDuration : 2h 12mnBit rate mode : ConstantBit rate : 1 510 KbpsChannel(s) : 6 channelsChannel positions : Front: L C R, Side: L R, LFESampling rate : 48.0 KHzBit depth : 24 bitsCompression mode : LossyStream size : 1.39 GiB (7%)Title : DTS 5.1 / 1536 kbps / Dub (Paramount Pictures)Language : RussianDefault : YesForced : No

    Audio #2ID : 3Format : AC-3Format/Info : Audio Coding 3Mode extension : CM (complete main)Codec ID : A_AC3Duration : 2h 12mnBit rate mode : ConstantBit rate : 640 KbpsChannel(s) : 6 channelsChannel positions : Front: L C R, Side: L R, LFESampling rate : 48.0 KHzBit depth : 16 bitsCompression mode : LossyStream size : 605 MiB (3%)Title : AC3 5.1 / 640 kbps / Dub (Blu-ray CEE)Language : RussianDefault : NoForced : No

    Audio #3ID : 4Format : DTSFormat/Info : Digital Theater SystemsCodec ID : A_DTSDuration : 2h 12mnBit rate mode : ConstantBit rate : 1 510 KbpsChannel(s) : 6 channelsChannel positions : Front: L C R, Side: L R, LFESampling rate : 48.0 KHzBit depth : 24 bitsCompression mode : LossyStream size : 1.39 GiB (7%)Title : DTS 5.1 / 1536 kbps / OriginalLanguage : EnglishDefault : NoForced : No

    Audio #4ID : 5Format : AC-3Format/Info : Audio Coding 3Mode extension : CM (complete main)Codec ID : A_AC3Duration : 2h 12mnBit rate mode : ConstantBit rate : 640 KbpsChannel(s) : 6 channelsChannel positions : Front: L C R, Side: L R, LFESampling rate : 48.0 KHzBit depth : 16 bitsCompression mode : LossyStream size : 605 MiB (3%)Title : AC3 5.1 / 640 kbps / DescriptiveLanguage : EnglishDefault : NoForced : No

    Text #1ID : 6Format : UTF-8Codec ID : S_TEXT/UTF8Codec ID/Info : UTF-8 Plain TextTitle : ForcedLanguage : RussianDefault : YesForced : No

    Text #2ID : 7Format : UTF-8Codec ID : S_TEXT/UTF8Codec ID/Info : UTF-8 Plain TextTitle : FullLanguage : RussianDefault : NoForced : No

    Text #3ID : 8Format : UTF-8Codec ID : S_TEXT/UTF8Codec ID/Info : UTF-8 Plain TextTitle : FullLanguage : UkrainianDefault : NoForced : No

    Text #4ID : 9Format : UTF-8Codec ID : S_TEXT/UTF8Codec ID/Info : UTF-8 Plain TextTitle : FullLanguage : EnglishDefault : NoForced : No

    Text #5ID : 10Format : UTF-8Codec ID : S_TEXT/UTF8Codec ID/Info : UTF-8 Plain TextTitle : SDHLanguage : EnglishDefault : NoForced : No

    Text #6ID : 11Format : UTF-8Codec ID : S_TEXT/UTF8Codec ID/Info : UTF-8 Plain TextTitle : SDH (Colored)Language : EnglishDefault : NoForced : No

    Text #7ID : 12Format : UTF-8Codec ID : S_TEXT/UTF8Codec ID/Info : UTF-8 Plain TextTitle : FullLanguage : FrenchDefault : NoForced : No

    Menu00:00:00.000 : en:Chapter 100:10:20.369 : en:Chapter 200:19:21.493 : en:Chapter 300:30:03.968 : en:Chapter 400:40:09.115 : en:Chapter 500:46:05.262 : en:Chapter 600:56:38.228 : en:Chapter 701:06:35.783 : en:Chapter 801:12:55.662 : en:Chapter 901:22:45.752 : en:Chapter 1001:30:54.740 : en:Chapter 1101:38:36.368 : en:Chapter 1201:47:09.548 : en:Chapter 1301:54:17.141 : en:Chapter 1401:59:20.653 : en:Chapter 1502:03:18.307 : en:Chapter 16

    piratbit.ru

    Возмездие через торрент в хорошем качестве бесплатно 1080p

    GeneralUnique ID : 253807320506900414016199188042117387765 (0xBEF18309B56C81CBAF8799A31EE995F5)Complete name : I:Star.Trek.Into.Darkness.2013.BDRip.1080p.mkvFormat : MatroskaFormat version : Version 4 / Version 2File size : 15.1 GiBDuration : 2h 13mnOverall bit rate : 16.2 MbpsEncoded date : UTC 2013-09-09 20:48:29Writing application : mkvmerge v6.3.0 ('You can't stop me!') built on Jun 28 2013 20:09:41Writing library : libebml v1.3.0 + libmatroska v1.4.0

    VideoID : 1Format : AVCFormat/Info : Advanced Video CodecFormat profile : [email protected] settings, CABAC : YesFormat settings, ReFrames : 5 framesCodec ID : V_MPEG4/ISO/AVCDuration : 2h 13mnBit rate : 14.0 MbpsWidth : 1 918 pixelsHeight : 800 pixelsDisplay aspect ratio : 2.40:1Frame rate : 23.976 fpsColor space : YUVChroma subsampling : 4:2:0Bit depth : 8 bitsScan type : ProgressiveBits/(Pixel*Frame) : 0.381Stream size : 13.1 GiB (86%)Writing library : x264 core 132 r2323+704+51 d571b1c tMod [[email protected]:2:0 X86_64]Encoding settings : cabac=1 / ref=5 / deblock=1:-3:-3 / analyse=0x3:0x113 / me=umh / subme=11 / psy=1 / fade_compensate=0.00 / psy_rd=1.10:0.00 / mixed_ref=1 / me_range=32 / chroma_me=1 / trellis=2 / 8x8dct=1 / cqm=0 / deadzone=21,11 / fast_pskip=0 / chroma_qp_offset=-2 / threads=36 / lookahead_threads=6 / sliced_threads=0 / nr=0 / decimate=0 / interlaced=0 / bluray_compat=0 / constrained_intra=0 / fgo=0 / bframes=9 / b_pyramid=2 / b_adapt=2 / b_bias=0 / direct=3 / weightb=1 / open_gop=0 / weightp=2 / keyint=240 / keyint_min=24 / scenecut=40 / intra_refresh=0 / rc_lookahead=240 / rc=crf / mbtree=1 / crf=17.9000 / qcomp=0.70 / qpmin=0 / qpmax=69 / qpstep=4 / ip_ratio=1.10 / aq=4:0.80 / aq-sensitivity=10.00 / aq-factor=1.00:1.00:1.00 / aq2=0 / aq3=0Language : EnglishDefault : YesForced : Yes

    Audio #1ID : 2Format : AC-3Format/Info : Audio Coding 3Mode extension : CM (complete main)Codec ID : A_AC3Duration : 2h 13mnBit rate mode : ConstantBit rate : 384 KbpsChannel(s) : 6 channelsChannel positions : Front: L C R, Side: L R, LFESampling rate : 48.0 KHzBit depth : 16 bitsCompression mode : LossyStream size : 367 MiB (2%)Title : iTunes Russia 384Language : RussianDefault : NoForced : No

    Audio #2ID : 3Format : DTSFormat/Info : Digital Theater SystemsCodec ID : A_DTSDuration : 2h 13mnBit rate mode : ConstantBit rate : 1 510 KbpsChannel(s) : 6 channelsChannel positions : Front: L C R, Side: L R, LFESampling rate : 48.0 KHzBit depth : 24 bitsCompression mode : LossyStream size : 1.41 GiB (9%)Title : DTS 1536 OriginalLanguage : EnglishDefault : NoForced : No

    Text #1ID : 4Format : UTF-8Codec ID : S_TEXT/UTF8Codec ID/Info : UTF-8 Plain TextLanguage : RussianDefault : NoForced : No

    Text #2ID : 5Format : UTF-8Codec ID : S_TEXT/UTF8Codec ID/Info : UTF-8 Plain TextLanguage : EnglishDefault : NoForced : No

    Text #3ID : 6Format : UTF-8Codec ID : S_TEXT/UTF8Codec ID/Info : UTF-8 Plain TextLanguage : SpanishDefault : NoForced : No

    Text #4ID : 7Format : UTF-8Codec ID : S_TEXT/UTF8Codec ID/Info : UTF-8 Plain TextLanguage : PortugueseDefault : NoForced : No

    piratbit.ru

    Возмездие 3D через торрент в хорошем качестве бесплатно 1080p

    GeneralUnique ID : 204757050660068119494168907300464826921 (0x9A0AC605586A7778AA0CE32A5F851A29)Complete name : I:Star Trek Into Darkness_(CROP)_Rip by Dag13.mkvFormat : MatroskaFormat version : Version 2File size : 18.4 GiBDuration : 2h 12mnOverall bit rate : 20.0 MbpsEncoded date : UTC 2013-09-11 14:13:32Writing application : mkvmerge v3.4.0 ('Rapunzel') сборка от May 15 2010 09:38:20Writing library : libebml v0.8.0 + libmatroska v0.9.0

    VideoID : 1Format : AVCFormat/Info : Advanced Video CodecFormat profile : [email protected] settings, CABAC : YesFormat settings, ReFrames : 4 framesCodec ID : V_MPEG4/ISO/AVCDuration : 2h 12mnBit rate : 18.3 MbpsWidth : 1 920 pixelsHeight : 1 080 pixelsDisplay aspect ratio : 16:9Frame rate : 23.976 fpsColor space : YUVChroma subsampling : 4:2:0Bit depth : 8 bitsScan type : ProgressiveBits/(Pixel*Frame) : 0.368Stream size : 16.9 GiB (92%)Title : Rip by Dag13Writing library : x264 core 120 r2145 748fe16Encoding settings : cabac=1 / ref=4 / deblock=1:-3:-3 / analyse=0x3:0x113 / me=umh / subme=9 / psy=1 / psy_rd=1.00:0.00 / mixed_ref=1 / me_range=16 / chroma_me=1 / trellis=2 / 8x8dct=1 / cqm=0 / deadzone=21,11 / fast_pskip=1 / chroma_qp_offset=-2 / threads=9 / sliced_threads=0 / nr=0 / decimate=1 / interlaced=0 / bluray_compat=0 / constrained_intra=0 / bframes=6 / b_pyramid=2 / b_adapt=2 / b_bias=0 / direct=3 / weightb=1 / open_gop=0 / weightp=2 / keyint=250 / keyint_min=23 / scenecut=40 / intra_refresh=0 / rc_lookahead=60 / rc=crf / mbtree=1 / crf=17.0 / qcomp=0.60 / qpmin=1 / qpmax=69 / qpstep=4 / ip_ratio=1.40 / aq=1:1.00Language : EnglishDefault : NoForced : No

    Audio #1ID : 2Format : AC-3Format/Info : Audio Coding 3Mode extension : CM (complete main)Codec ID : A_AC3Duration : 2h 12mnBit rate mode : ConstantBit rate : 640 KbpsChannel(s) : 6 channelsChannel positions : Front: L C R, Side: L R, LFESampling rate : 48.0 KHzBit depth : 16 bitsCompression mode : LossyStream size : 605 MiB (3%)Language : RussianDefault : YesForced : No

    Audio #2ID : 3Format : AC-3Format/Info : Audio Coding 3Mode extension : CM (complete main)Codec ID : A_AC3Duration : 2h 12mnBit rate mode : ConstantBit rate : 640 KbpsChannel(s) : 6 channelsChannel positions : Front: L C R, Side: L R, LFESampling rate : 48.0 KHzBit depth : 16 bitsCompression mode : LossyStream size : 605 MiB (3%)Language : EnglishDefault : NoForced : No

    piratbit.ru


    Смотрите также