Скачать совокупность лжи через торрент в хорошем качестве


Совокупность лжи 2008 - скачать бесплатно через торрент в хорошем качестве. Без регистрации

Название: Совокупность лжи / Body of Lies (2008) WEB-DL 1080p | D, P, A | Open Matte
Перевод: Профессиональный (дублированный) + Профессиональный (многоголосый закадровый) + Авторский (одноголосый закадровый)
Формат видео: MKV
Видео: 1920x1080 at 23.976 fps, MPEG-4 AVC, ~12800 kbps avg
Аудио: 48 kHz, AC3, 3/2 (L,C,R,l,r) + LFE ch, ~448 kbps avg |Дубляж|48 kHz, AC3, 3/2 (L,C,R,l,r) + LFE ch, ~448 kbps avg |Многоголосый закадровый, R5|48 kHz, DTS, 3/2 (L,C,R,l,r) + LFE ch, ~448 kbps avg |Одноголосый закадровый, Андрей Гаврилов|48 kHz, DTS, 3/2 (L,C,R,l,r) + LFE ch, ~448 kbps avg |Одноголосый закадровый, Андрей Дольский|48 kHz, DTS, 3/2 (L,C,R,l,r) + LFE ch, ~448 kbps avg |Одноголосый закадровый, Юрий Сербин|48 kHz, DTS, 3/2 (L,C,R,l,r) + LFE ch, ~448 kbps avg |Одноголосый закадровый, Михаил Чадов|48 kHz, AC3, 3/2 (L,C,R,l,r) + LFE ch, ~448 kbps avg |Дубляж|48 kHz, AC3, 2/0 (L,R) ch, ~192 kbps avg |Многоголосый закадровый, IHTEP|48 kHz, DTS, 3/2 (L,C,R,l,r) + LFE ch, ~1509 kbps avg48 kHz, AC3, 2/0 (L,R) ch, ~256 kbps avg |Commentary|
Скачать

Загрузка начнется в течение 5 сек.

16.05 GB

Название: Совокупность лжи / Body of Lies (2008) BDRip-AVC от 0ptimus | D, P2, A
Качество видео: BDRip-AVC
Перевод: Дублированный, профессиональный двухголосый, авторский
Видео: h.264 2629 Кбит/с, 1024x426, 23.976 кадр/с
Аудио: • №1: Русский (AC3, 6 ch, 384 Кбит/с) Дублированный
Скачать

Загрузка начнется в течение 5 сек.

4.25 GB

Название: Совокупность лжи / Body of Lies (2008) BDRip-AVC от HELLYWOOD
Перевод: Профессиональный (дублированный) полный перевод
Формат видео: MKV
Видео: x.264, 1032x430 (2,40:1), 23,976 fps, 1898 Кbps, 0.178 bit/pixel
Аудио: 48 kHz, AC3 Dolby Digital, 3/2 (L,C,R,l,r) + LFE ch, 448.00 kbps | DUB48 kHz, AC3 Dolby Digital, 3/2 (L,C,R,l,r) + LFE ch, 448.00 kbps | AVO - Сербин48 kHz, AC3 Dolby Digital, 3/2 (L,C,R,l,r) + LFE ch, 448.00 kbps | ENG
Скачать

Загрузка начнется в течение 5 сек.

2.91 GB

Название: Совокупность лжи / Body of Lies (2008) HDRip от Scarabey
Качество видео: HDRip
Перевод: Профессиональный (полное дублирование)
Формат видео: AVI
Видео: 640x272 (2.35:1), 23.976 fps, XviD build 73 ~716 kbps avg, 0.17 bit/pixel
Аудио: 48 kHz, MPEG Layer 3, 2 ch, ~128.00 kbps avg
Скачать

Загрузка начнется в течение 5 сек.

783.69 MB

Название: Совокупность лжи / Body of Lies (2008) HDRip от Scarabey
Качество видео: HDRip
Перевод: Профессиональный (полное дублирование)
Формат видео: AVI
Видео: 720x304 (2.37:1), 23.976 fps, XviD build 73 ~2031 kbps avg, 0.39 bit/pixel
Аудио: 48 kHz, AC3 Dolby Digital, 3/2 (L,C,R,l,r) + LFE ch, ~384 kbps
Скачать

Загрузка начнется в течение 5 сек.

2.17 GB

Название: Совокупность лжи / Body of Lies (2008) HDRip от Scarabey
Качество видео: HDRip
Перевод: Профессиональный (полное дублирование)
Формат видео: AVI
Видео: 720x304 (2.37:1), 23.976 fps, XviD build 73 ~1420 kbps avg, 0.27 bit/pixel
Аудио: 48 kHz, AC3 Dolby Digital, 2/0 (L,R) ch, ~192 kbps
Скачать

Загрузка начнется в течение 5 сек.

1.45 GB

Название: Совокупность лжи / Body of Lies (2008) BDRip от RealMT
Качество видео: BDRip
Перевод: Профессиональный (полное дублирование)
Видео: XviD 720x304, 23.976 fps, ~1075 kbps
Аудио: AC3, 6ch, 448 kbps
Скачать

Загрузка начнется в течение 5 сек.

1.37 GB

Название: Совокупность лжи / Body of Lies (2008) BDRip 1080р от FREEISLAND
Качество видео: BDRip
Перевод: Дублированный
Видео: AVC, 1920x800 (2.40:1), 7974 kbps, 23,976 fps, 0,217 bpp
Аудио: русский /; AC3 / 5.1 / 48 kHz / 448 kbps / 16 bitанглийский / AC3 / 5.1 / 48 kHz / 448 kbps / 16 bit
Скачать

Загрузка начнется в течение 5 сек.

7.95 GB

Название: Совокупность лжи / Body of Lies (2008) BDRip от ivandubskoj
Качество видео: BDRip
Видео: XviD, 1975 Кбит/с, 720x304, 23.976 кадр/с
Аудио: Dolby AC3, 48000 Гц, 448 Кбит/с, 6 каналов
Скачать

Загрузка начнется в течение 5 сек.

2.18 GB

Название: Совокупность лжи / Body of Lies (2008) DVD9
Качество видео: DVD9
Перевод: дублированный
Видео: MPEG2 PAL 16:9 ([email protected]) VBR, ~7500 Kbps
Скачать

Загрузка начнется в течение 5 сек.

6.06 GB

Название: Совокупность лжи / Body of Lies (2008) BDRip 1080р от Freeisland
Качество видео: BDRip1080р
Перевод: Профессиональный (дублированный)
Формат видео: MKV
Видео: H.264 (AVC) 1920x800 (2.40:1), 23.976 fps, AVC, 4 494 Kbps
Аудио: AC3 AC3, 384 Kbps, 48.0 KHz, 6 ch
Скачать

Загрузка начнется в течение 5 сек.

4.37 GB

www.kinovit.net

Скачать фильм Совокупность лжи через торрент в хорошем качестве бесплатно HDRip

Размер: 1.46 GB | Добавлен: 6 лет 4 мес. назад | Торрент скачан:600 раз
Реклама Дарим 3000 рублей за регистрацию, не упусти свой шанс получить шикарный бонус!!!

09-06-2011 14:10 Совокупность лжи Скачать торрент  

Совокупность лжи / Body of Lies

Год выпуска: 2008Страна: СШАЖанр: боевик, триллер, драмаПродолжительность: 02:08:00Перевод: Профессиональный (полное дублирование)

Режиссер: Ридли СкоттПродюссер: Дональд Де Лайн, Ридли Скотт, Закария АлауиСценарий: Уильям Монахэн, Дэвид Игнатиус

Бюджет: $70 000 000

IMDb: 7.10 (63 230)

В ролях: Леонардо ДиКаприо, Карис ван Хаутен, Рассел Кроу, Майкл Гэстон, Винс Колозимо, Али Сулиман, Алон Абутбул, Шреди Джабарин, Клара Коури, Джамиль Коури, Майкл Штульбарг

Описание: ЦРУ охотится на руководителя серии террористических атак. Роджер Феррис является агентом национальной разведки, он перемещается по всему свету, пытаясь предотвратить любые нежелательные события. Око в небе, спутник, наблюдает за ним. На другом конце этой связи ветеран ЦРУ Эд Хоффман, который отслеживает события издалека.

Чем ближе подбирается Феррис к своей цели, тем явственнее понимает, что доверие — это одновременно и опасная штука, и то единственное, что позволит ему остаться в живых.

«Совокупность лжи» (англ. «Body of Lies») — кинофильм, драматический боевик режиссёра Ридли Скотта. Слоган фильма «Trust no one. Deceive everyone» («Никому не доверяй. Обмани всех»).У Ридли Скотта вышла неплохая по-голливудским меркам картина, о том, что правды на свете нет. Верить нельзя никому, а рассчитывать надо только на себя. Ирак — это всего лишь декорация, не несущая основной нагрузки. Не в нем дело. Неслучайно, действие фильма переносит нас от Голландии до Иордании и обратно.

Качество: HDRipФормат: AVIВидео кодек: XviDАудио кодек: AC3Видео: MPEG4, XviD, 688x288 (2.35:1), 23.976 fps, 1 235 Kbps (0.260 bit/pixel)Аудио: AC-3, 48.0 KHz, 6 ch, 384 Kbps, CBR Скачать Совокупность лжи через торрент http://i23.fastpic.ru/big/2011/0609/5d/b950a2f27ca1111dd3e2c01005da6d5d.png Скачать фильм Совокупность лжи через торрент бесплантно в хорошем качестве Описание: ЦРУ охотится на руководителя серии террористических атак. Роджер Феррис является агентом национальной разведки, он перемещается ... 2011-06-09 14:10 8.5 10 6

Loading...

Loading...

Последний раз редактировалось: BALGOR (2011-06-09 19:49), всего редактировалось 1 раз

Рекламный пират

09-06-2011 15:38 Совокупность лжи Скачать торрент  

BALGORДополнительную информацию прячем в спойлер.

11-01-2012 10:10 Совокупность лжи Скачать торрент  

встаньте на раздачу пжл скорости нету

Дорогой пользователь! Огромная просьба, поблагодарите релизера, оцените раздачу и оставьте свои комментарий, если Вы скачали Совокупность лжи через торрент бесплатно! Внесите свою лепту в развитие PiratBit!

Комментировать посты могут только пользователи прошедшие не сложную регистрацию

Совокупность лжи через торрент Скачать бесплатно Совокупность лжи Совокупность лжи скачать торрент Совокупность лжи смотреть онлайн Cкачать фильм Совокупность лжи бесплатно Совокупность лжи скачать торрент в хорошем качестве Совокупность лжи смотреть онлайн бесплатно в хорошем качестве

Вы не можете начинать темыВы не можете отвечать на сообщенияВы не можете редактировать свои сообщенияВы не можете удалять свои сообщенияВы не можете голосовать в опросахВы не можете прикреплять файлы к сообщениямВы можете скачивать файлы

piratbit.ru

Скачать фильм Совокупность лжи через торрент в хорошем качестве бесплатно 720p от _denis_100 / NNNB] DUB

Format                                   : MatroskaFormat version                           : Version 2File size                                : 7.76 GiBDuration                                 : 2h 8mnOverall bit rate                         : 8 655 KbpsMovie name                               : Body of Lies.(2008).BDRip.720p.[denis100]Encoded date                             : UTC 2016-01-05 09:08:27Writing application                      : mkvmerge v5.8.0 ('No Sleep / Pillow') built on Sep  2 2012 15:37:04Writing library                          : libebml v1.2.3 + libmatroska v1.3.0

VideoID                                       : 1Format                                   : AVCFormat/Info                              : Advanced Video CodecFormat profile                           : [email protected] settings, CABAC                   : YesFormat settings, ReFrames                : 11 framesCodec ID                                 : V_MPEG4/ISO/AVCDuration                                 : 2h 8mnBit rate                                 : 5 454 KbpsWidth                                    : 1 280 pixelsHeight                                   : 534 pixelsDisplay aspect ratio                     : 2.40:1Frame rate                               : 23.976 fpsColor space                              : YUVChroma subsampling                       : 4:2:0Bit depth                                : 8 bitsScan type                                : ProgressiveBits/(Pixel*Frame)                       : 0.333Stream size                              : 4.73 GiB (61%)Title                                    : Body of Lies.(2008).BDRip.720p.[denis100]Writing library                          : x264 core 148 r2638 7599210Encoding settings                        : cabac=1 / ref=11 / deblock=1:-3:-3 / analyse=0x3:0x133 / me=umh / subme=11 / psy=1 / psy_rd=1.00:0.05 / mixed_ref=1 / me_range=32 / chroma_me=1 / trellis=2 / 8x8dct=1 / cqm=0 / deadzone=21,11 / fast_pskip=0 / chroma_qp_offset=-3 / threads=6 / lookahead_threads=1 / sliced_threads=0 / nr=0 / decimate=1 / interlaced=0 / bluray_compat=0 / constrained_intra=0 / bframes=8 / b_pyramid=2 / b_adapt=2 / b_bias=0 / direct=3 / weightb=1 / open_gop=0 / weightp=2 / keyint=240 / keyint_min=23 / scenecut=40 / intra_refresh=0 / rc=2pass / mbtree=0 / bitrate=5454 / ratetol=1.0 / qcomp=0.60 / qpmin=0 / qpmax=69 / qpstep=4 / cplxblur=20.0 / qblur=0.5 / ip_ratio=1.40 / pb_ratio=1.30 / aq=2:0.90Language                                 : EnglishDefault                                  : YesForced                                   : No

Audio #1ID                                       : 2Format                                   : AC-3Format/Info                              : Audio Coding 3Mode extension                           : CM (complete main)Codec ID                                 : A_AC3Duration                                 : 2h 8mnBit rate mode                            : ConstantBit rate                                 : 448 KbpsChannel(s)                               : 6 channelsChannel positions                        : Front: L C R, Side: L R, LFESampling rate                            : 48.0 KHzBit depth                                : 16 bitsCompression mode                         : LossyStream size                              : 411 MiB (5%)Title                                    : DUB, Blu-ray CEELanguage                                 : RussianDefault                                  : YesForced                                   : No

Audio #2ID                                       : 3Format                                   : AC-3Format/Info                              : Audio Coding 3Mode extension                           : CM (complete main)Codec ID                                 : A_AC3Duration                                 : 2h 8mnBit rate mode                            : ConstantBit rate                                 : 384 KbpsChannel(s)                               : 6 channelsChannel positions                        : Front: L C R, Side: L R, LFESampling rate                            : 48.0 KHzBit depth                                : 16 bitsCompression mode                         : LossyStream size                              : 352 MiB (4%)Title                                    : DVOLanguage                                 : RussianDefault                                  : NoForced                                   : No

Audio #3ID                                       : 4Format                                   : AC-3Format/Info                              : Audio Coding 3Mode extension                           : CM (complete main)Codec ID                                 : A_AC3Duration                                 : 2h 8mnBit rate mode                            : ConstantBit rate                                 : 640 KbpsChannel(s)                               : 6 channelsChannel positions                        : Front: L C R, Side: L R, LFESampling rate                            : 48.0 KHzBit depth                                : 16 bitsCompression mode                         : LossyStream size                              : 587 MiB (7%)Title                                    : AVO, Ю. СербинLanguage                                 : RussianDefault                                  : NoForced                                   : No

Audio #4ID                                       : 5Format                                   : AC-3Format/Info                              : Audio Coding 3Mode extension                           : CM (complete main)Codec ID                                 : A_AC3Duration                                 : 2h 8mnBit rate mode                            : ConstantBit rate                                 : 640 KbpsChannel(s)                               : 6 channelsChannel positions                        : Front: L C R, Side: L R, LFESampling rate                            : 48.0 KHzBit depth                                : 16 bitsCompression mode                         : LossyStream size                              : 587 MiB (7%)Title                                    : AVO, А. ГавриловLanguage                                 : RussianDefault                                  : NoForced                                   : No

Audio #5ID                                       : 6Format                                   : AC-3Format/Info                              : Audio Coding 3Mode extension                           : CM (complete main)Codec ID                                 : A_AC3Duration                                 : 2h 8mnBit rate mode                            : ConstantBit rate                                 : 448 KbpsChannel(s)                               : 6 channelsChannel positions                        : Front: L C R, Side: L R, LFESampling rate                            : 48.0 KHzBit depth                                : 16 bitsCompression mode                         : LossyStream size                              : 411 MiB (5%)Title                                    : AVO, А. ДольскийLanguage                                 : RussianDefault                                  : NoForced                                   : No

Audio #6ID                                       : 7Format                                   : AC-3Format/Info                              : Audio Coding 3Mode extension                           : CM (complete main)Codec ID                                 : A_AC3Duration                                 : 2h 8mnBit rate mode                            : ConstantBit rate                                 : 640 KbpsChannel(s)                               : 6 channelsChannel positions                        : Front: L C R, Side: L R, LFESampling rate                            : 48.0 KHzBit depth                                : 16 bitsCompression mode                         : LossyStream size                              : 587 MiB (7%)Language                                 : EnglishDefault                                  : NoForced                                   : No

Text #1ID                                       : 8Format                                   : UTF-8Codec ID                                 : S_TEXT/UTF8Codec ID/Info                            : UTF-8 Plain TextTitle                                    : ForcedLanguage                                 : RussianDefault                                  : YesForced                                   : No

Text #2ID                                       : 9Format                                   : UTF-8Codec ID                                 : S_TEXT/UTF8Codec ID/Info                            : UTF-8 Plain TextTitle                                    : FullLanguage                                 : RussianDefault                                  : NoForced                                   : No

Text #3ID                                       : 10Format                                   : UTF-8Codec ID                                 : S_TEXT/UTF8Codec ID/Info                            : UTF-8 Plain TextTitle                                    : FullLanguage                                 : EnglishDefault                                  : NoForced                                   : No

Text #4ID                                       : 11Format                                   : UTF-8Codec ID                                 : S_TEXT/UTF8Codec ID/Info                            : UTF-8 Plain TextTitle                                    : SDHLanguage                                 : EnglishDefault                                  : NoForced                                   : No

Menu00:00:00.000                             : en:Now They Will Bleed00:03:08.188                             : en:Our Enemy00:06:53.871                             : en:Reluctant Martyr00:12:32.960                             : en:Cut Him Loose00:16:10.719                             : en:You Do Know We're at War00:18:41.578                             : en:High-Value Targets00:26:49.107                             : en:See You on the Way Down00:30:44.634                             : en:Hani's Rule00:34:10.590                             : en:Cover Blown00:39:22.401                             : en:Punishment00:41:48.506                             : en:Amsterdam Strike00:44:08.312                             : en:A Man Inside00:48:10.012                             : en:No Reciprocity00:52:48.957                             : en:Elusive Quarry00:56:01.524                             : en:Apart From His Job01:00:10.690                             : en:Hani's Ultimatum01:03:56.749                             : en:What If?01:07:02.852                             : en:Straw Man01:09:53.814                             : en:Setting up Sadiki01:14:44.229                             : en:Return to Jordan01:17:20.427                             : en:Family Lunch01:22:43.249                             : en:In Business01:24:49.709                             : en:Implementing Fig Orchard01:28:14.914                             : en:Eyes on Sadiki01:31:36.324                             : en:About This American01:35:20.005                             : en:In the Picture01:40:17.803                             : en:Trading for Aisha01:43:22.696                             : en:Sorry, Buddy01:46:48.985                             : en:The Light Is on You01:52:50.430                             : en:In the Name of God01:55:17.535                             : en:First Visitor01:58:11.125                             : en:Nobody's Innocent02:01:50.594                             : en:End Credits

piratbit.ru

Скачать торрент Совокупность лжи / Body of Lies (2008) BDRip 1080p от NNNB

Format : Matroska Format version : Version 2 File size : 12.7 GiB Duration : 2h 8mn Overall bit rate : 14.2 Mbps Movie name : Body of Lies.(2008).BDRip.1080p.[denis100] Encoded date : UTC 2016-01-06 17:16:54 Writing application : mkvmerge v5.8.0 ('No Sleep / Pillow') built on Sep 2 2012 15:37:04 Writing library : libebml v1.2.3 + libmatroska v1.3.0

Video ID : 1 Format : AVC Format/Info : Advanced Video Codec Format profile : [email protected] Format settings, CABAC : Yes Format settings, ReFrames : 5 frames Codec ID : V_MPEG4/ISO/AVC Duration : 2h 8mn Bit rate : 11.0 Mbps Width : 1 920 pixels Height : 800 pixels Display aspect ratio : 2.40:1 Frame rate : 23.976 fps Color space : YUV Chroma subsampling : 4:2:0 Bit depth : 8 bits Scan type : Progressive Bits/(Pixel*Frame) : 0.299 Stream size : 9.60 GiB (75%) Title : Body of Lies.(2008).BDRip.1080p.[denis100] Writing library : x264 core 148 r2638 7599210 Encoding settings : cabac=1 / ref=5 / deblock=1:-3:-3 / analyse=0x3:0x133 / me=umh / subme=11 / psy=1 / psy_rd=1.00:0.05 / mixed_ref=1 / me_range=32 / chroma_me=1 / trellis=2 / 8x8dct=1 / cqm=0 / deadzone=21,11 / fast_pskip=0 / chroma_qp_offset=-3 / threads=6 / lookahead_threads=1 / sliced_threads=0 / nr=0 / decimate=1 / interlaced=0 / bluray_compat=0 / constrained_intra=0 / bframes=8 / b_pyramid=2 / b_adapt=2 / b_bias=0 / direct=3 / weightb=1 / open_gop=0 / weightp=2 / keyint=240 / keyint_min=23 / scenecut=40 / intra_refresh=0 / rc=2pass / mbtree=0 / bitrate=11000 / ratetol=1.0 / qcomp=0.60 / qpmin=0 / qpmax=69 / qpstep=4 / cplxblur=20.0 / qblur=0.5 / ip_ratio=1.40 / pb_ratio=1.30 / aq=2:0.90 Language : English Default : Yes Forced : No

Audio #1 ID : 2 Format : AC-3 Format/Info : Audio Coding 3 Mode extension : CM (complete main) Codec ID : A_AC3 Duration : 2h 8mn Bit rate mode : Constant Bit rate : 448 Kbps Channel(s) : 6 channels Channel positions : Front: L C R, Side: L R, LFE Sampling rate : 48.0 KHz Bit depth : 16 bits Compression mode : Lossy Stream size : 411 MiB (3%) Title : DUB, Blu-ray CEE Language : Russian Default : Yes Forced : No

Audio #2 ID : 3 Format : AC-3 Format/Info : Audio Coding 3 Mode extension : CM (complete main) Codec ID : A_AC3 Duration : 2h 8mn Bit rate mode : Constant Bit rate : 384 Kbps Channel(s) : 6 channels Channel positions : Front: L C R, Side: L R, LFE Sampling rate : 48.0 KHz Bit depth : 16 bits Compression mode : Lossy Stream size : 352 MiB (3%) Title : DVO Language : Russian Default : No Forced : No

Audio #3 ID : 4 Format : AC-3 Format/Info : Audio Coding 3 Mode extension : CM (complete main) Codec ID : A_AC3 Duration : 2h 8mn Bit rate mode : Constant Bit rate : 640 Kbps Channel(s) : 6 channels Channel positions : Front: L C R, Side: L R, LFE Sampling rate : 48.0 KHz Bit depth : 16 bits Compression mode : Lossy Stream size : 587 MiB (5%) Title : AVO, Ю. Сербин Language : Russian Default : No Forced : No

Audio #4 ID : 5 Format : AC-3 Format/Info : Audio Coding 3 Mode extension : CM (complete main) Codec ID : A_AC3 Duration : 2h 8mn Bit rate mode : Constant Bit rate : 640 Kbps Channel(s) : 6 channels Channel positions : Front: L C R, Side: L R, LFE Sampling rate : 48.0 KHz Bit depth : 16 bits Compression mode : Lossy Stream size : 587 MiB (5%) Title : AVO, А. Гаврилов Language : Russian Default : No Forced : No

Audio #5 ID : 6 Format : AC-3 Format/Info : Audio Coding 3 Mode extension : CM (complete main) Codec ID : A_AC3 Duration : 2h 8mn Bit rate mode : Constant Bit rate : 448 Kbps Channel(s) : 6 channels Channel positions : Front: L C R, Side: L R, LFE Sampling rate : 48.0 KHz Bit depth : 16 bits Compression mode : Lossy Stream size : 411 MiB (3%) Title : AVO, А. Дольский Language : Russian Default : No Forced : No

Audio #6 ID : 7 Format : AC-3 Format/Info : Audio Coding 3 Mode extension : CM (complete main) Codec ID : A_AC3 Duration : 2h 8mn Bit rate mode : Constant Bit rate : 640 Kbps Channel(s) : 6 channels Channel positions : Front: L C R, Side: L R, LFE Sampling rate : 48.0 KHz Bit depth : 16 bits Compression mode : Lossy Stream size : 587 MiB (5%) Language : English Default : No Forced : No

Text #1 ID : 8 Format : UTF-8 Codec ID : S_TEXT/UTF8 Codec ID/Info : UTF-8 Plain Text Title : Forced Language : Russian Default : Yes Forced : No

Text #2 ID : 9 Format : UTF-8 Codec ID : S_TEXT/UTF8 Codec ID/Info : UTF-8 Plain Text Title : Full Language : Russian Default : No Forced : No

Text #3 ID : 10 Format : UTF-8 Codec ID : S_TEXT/UTF8 Codec ID/Info : UTF-8 Plain Text Title : Full Language : English Default : No Forced : No

Text #4 ID : 11 Format : UTF-8 Codec ID : S_TEXT/UTF8 Codec ID/Info : UTF-8 Plain Text Title : SDH Language : English Default : No Forced : No

Menu 00:00:00.000 : en:Now They Will Bleed 00:03:08.188 : en:Our Enemy 00:06:53.871 : en:Reluctant Martyr 00:12:32.960 : en:Cut Him Loose 00:16:10.719 : en:You Do Know We're at War 00:18:41.578 : en:High-Value Targets 00:26:49.107 : en:See You on the Way Down 00:30:44.634 : en:Hani's Rule 00:34:10.590 : en:Cover Blown 00:39:22.401 : en:Punishment 00:41:48.506 : en:Amsterdam Strike 00:44:08.312 : en:A Man Inside 00:48:10.012 : en:No Reciprocity 00:52:48.957 : en:Elusive Quarry 00:56:01.524 : en:Apart From His Job 01:00:10.690 : en:Hani's Ultimatum 01:03:56.749 : en:What If? 01:07:02.852 : en:Straw Man 01:09:53.814 : en:Setting up Sadiki 01:14:44.229 : en:Return to Jordan 01:17:20.427 : en:Family Lunch 01:22:43.249 : en:In Business 01:24:49.709 : en:Implementing Fig Orchard 01:28:14.914 : en:Eyes on Sadiki 01:31:36.324 : en:About This American 01:35:20.005 : en:In the Picture 01:40:17.803 : en:Trading for Aisha 01:43:22.696 : en:Sorry, Buddy 01:46:48.985 : en:The Light Is on You 01:52:50.430 : en:In the Name of God 01:55:17.535 : en:First Visitor 01:58:11.125 : en:Nobody's Innocent 02:01:50.594 : en:End Credits

m-torrent.org

Скачать фильм Совокупность лжи через торрент в хорошем качестве бесплатно 1080p

ОбщееУникальный идентификатор : 239569008500340894016013301374827859939 (0xB43B500E89217983836E70CC86A38FE3)Полное имя : D:Body.of.Lies.2008.WEB-DL.1080p.6xRus.2xUkr.2xEng.OpenMatte.mkvФормат : MatroskaВерсия формата : Version 4 / Version 2Размер файла : 16,1 ГбайтПродолжительность : 2 ч. 8 м.Режим общего битрейта : ПеременныйОбщий поток : 17,9 Мбит/секДата кодирования : UTC 2017-09-03 12:02:50Программа кодирования : mkvmerge v15.0.0 ('Duel with the Devil') 64-bitБиблиотека кодирования : libebml v1.3.5 + libmatroska v1.4.5

ВидеоИдентификатор : 1Формат : AVCФормат/Информация : Advanced Video CodecПрофиль формата : [email protected]Параметр CABAC формата : ДаПараметр ReFrames формата : 4 кадраИдентификатор кодека : V_MPEG4/ISO/AVCПродолжительность : 2 ч. 8 м.Вид битрейта : ПеременныйБитрейт : 12,8 Мбит/секМаксимальный битрейт : 15,0 Мбит/секШирина : 1920 пикселейВысота : 1080 пикселейСоотношение сторон : 16:9Режим частоты кадров : ПостоянныйЧастота кадров : 23,976 (24000/1001) кадра/секЦветовое пространство : YUVСубдискретизация насыщенности : 4:2:0Битовая глубина : 8 битТип развёртки : ПрогрессивнаяБит/(Пиксели*Кадры) : 0.257Размер потока : 11,5 Гбайт (71%)Язык : EnglishDefault : ДаForced : НетЦветовой диапазон : LimitedОсновные цвета : BT.709Характеристики трансфера : BT.709Коэффициенты матрицы : BT.709

Аудио #1Идентификатор : 2Формат : AC-3Формат/Информация : Audio Coding 3Расширение режима : CM (complete main)Параметр Endianness формата : BigИдентификатор кодека : A_AC3Продолжительность : 2 ч. 8 м.Вид битрейта : ПостоянныйБитрейт : 448 Кбит/секКаналы : 6 каналовРасположение каналов : Front: L C R, Side: L R, LFEЧастота : 48,0 КГцЧастота кадров : 31,250 кадров/сек (1536 spf)Метод сжатия : С потерямиРазмер потока : 412 Мбайт (3%)Заголовок : ДубляжЯзык : RussianDefault : ДаForced : Нет

Аудио #2Идентификатор : 3Формат : AC-3Формат/Информация : Audio Coding 3Расширение режима : CM (complete main)Параметр Endianness формата : BigИдентификатор кодека : A_AC3Продолжительность : 2 ч. 8 м.Вид битрейта : ПостоянныйБитрейт : 448 Кбит/секКаналы : 6 каналовРасположение каналов : Front: L C R, Side: L R, LFEЧастота : 48,0 КГцЧастота кадров : 31,250 кадров/сек (1536 spf)Метод сжатия : С потерямиРазмер потока : 412 Мбайт (3%)Заголовок : MVOЯзык : RussianDefault : НетForced : Нет

Аудио #3Идентификатор : 4Формат : AC-3Формат/Информация : Audio Coding 3Расширение режима : CM (complete main)Параметр Endianness формата : BigИдентификатор кодека : A_AC3Продолжительность : 2 ч. 8 м.Вид битрейта : ПостоянныйБитрейт : 448 Кбит/секКаналы : 6 каналовРасположение каналов : Front: L C R, Side: L R, LFEЧастота : 48,0 КГцЧастота кадров : 31,250 кадров/сек (1536 spf)Метод сжатия : С потерямиРазмер потока : 412 Мбайт (3%)Заголовок : Андрей ГавриловЯзык : RussianDefault : НетForced : Нет

Аудио #4Идентификатор : 5Формат : AC-3Формат/Информация : Audio Coding 3Расширение режима : CM (complete main)Параметр Endianness формата : BigИдентификатор кодека : A_AC3Продолжительность : 2 ч. 8 м.Вид битрейта : ПостоянныйБитрейт : 448 Кбит/секКаналы : 6 каналовРасположение каналов : Front: L C R, Side: L R, LFEЧастота : 48,0 КГцЧастота кадров : 31,250 кадров/сек (1536 spf)Метод сжатия : С потерямиРазмер потока : 412 Мбайт (3%)Заголовок : Андрей ДольскийЯзык : RussianDefault : НетForced : Нет

Аудио #5Идентификатор : 6Формат : AC-3Формат/Информация : Audio Coding 3Расширение режима : CM (complete main)Параметр Endianness формата : BigИдентификатор кодека : A_AC3Продолжительность : 2 ч. 8 м.Вид битрейта : ПостоянныйБитрейт : 448 Кбит/секКаналы : 6 каналовРасположение каналов : Front: L C R, Side: L R, LFEЧастота : 48,0 КГцЧастота кадров : 31,250 кадров/сек (1536 spf)Метод сжатия : С потерямиРазмер потока : 412 Мбайт (3%)Заголовок : Юрий СербинЯзык : RussianDefault : НетForced : Нет

Аудио #6Идентификатор : 7Формат : AC-3Формат/Информация : Audio Coding 3Расширение режима : CM (complete main)Параметр Endianness формата : BigИдентификатор кодека : A_AC3Продолжительность : 2 ч. 8 м.Вид битрейта : ПостоянныйБитрейт : 448 Кбит/секКаналы : 6 каналовРасположение каналов : Front: L C R, Side: L R, LFEЧастота : 48,0 КГцЧастота кадров : 31,250 кадров/сек (1536 spf)Метод сжатия : С потерямиРазмер потока : 412 Мбайт (3%)Заголовок : ЧадовЯзык : RussianDefault : НетForced : Нет

Аудио #7Идентификатор : 8Формат : AC-3Формат/Информация : Audio Coding 3Расширение режима : CM (complete main)Параметр Endianness формата : BigИдентификатор кодека : A_AC3Продолжительность : 2 ч. 8 м.Вид битрейта : ПостоянныйБитрейт : 448 Кбит/секКаналы : 6 каналовРасположение каналов : Front: L C R, Side: L R, LFEЧастота : 48,0 КГцЧастота кадров : 31,250 кадров/сек (1536 spf)Метод сжатия : С потерямиРазмер потока : 412 Мбайт (3%)Заголовок : ДубляжЯзык : UkrainianDefault : НетForced : Нет

Аудио #8Идентификатор : 9Формат : AC-3Формат/Информация : Audio Coding 3Расширение режима : CM (complete main)Параметр Endianness формата : BigИдентификатор кодека : A_AC3Продолжительность : 2 ч. 8 м.Вид битрейта : ПостоянныйБитрейт : 192 Кбит/секКаналы : 2 каналаРасположение каналов : Front: L RЧастота : 48,0 КГцЧастота кадров : 31,250 кадров/сек (1536 spf)Метод сжатия : С потерямиРазмер потока : 176 Мбайт (1%)Заголовок : IHTEPЯзык : UkrainianDefault : НетForced : Нет

Аудио #9Идентификатор : 10Формат : DTSФормат/Информация : Digital Theater SystemsРежим : 16Параметр Endianness формата : BigИдентификатор кодека : A_DTSПродолжительность : 2 ч. 8 м.Вид битрейта : ПостоянныйБитрейт : 1510 Кбит/секКаналы : 6 каналовРасположение каналов : Front: L C R, Side: L R, LFEЧастота : 48,0 КГцЧастота кадров : 93,750 кадра/сек (512 spf)Битовая глубина : 24 битМетод сжатия : С потерямиРазмер потока : 1,36 Гбайт (8%)Язык : EnglishDefault : НетForced : Нет

Аудио #10Идентификатор : 11Формат : AC-3Формат/Информация : Audio Coding 3Расширение режима : CM (complete main)Параметр Endianness формата : BigИдентификатор кодека : A_AC3Продолжительность : 2 ч. 8 м.Вид битрейта : ПостоянныйБитрейт : 256 Кбит/секКаналы : 2 каналаРасположение каналов : Front: L RЧастота : 48,0 КГцЧастота кадров : 31,250 кадров/сек (1536 spf)Метод сжатия : С потерямиРазмер потока : 235 Мбайт (1%)Заголовок : ComentsЯзык : EnglishDefault : НетForced : Нет

Текст #1Идентификатор : 12Формат : UTF-8Идентификатор кодека : S_TEXT/UTF8Идентификатор кодека/Информация : UTF-8 Plain TextПродолжительность : 2 ч. 1 м.Битрейт : 113 бит/секCount of elements : 1623Размер потока : 101 Кбайт (0%)Язык : RussianDefault : НетForced : Нет

Текст #2Идентификатор : 13Формат : UTF-8Идентификатор кодека : S_TEXT/UTF8Идентификатор кодека/Информация : UTF-8 Plain TextПродолжительность : 1 ч. 54 м.Битрейт : 7 бит/секCount of elements : 130Размер потока : 6,17 Кбайт (0%)Язык : RussianDefault : НетForced : Нет

Текст #3Идентификатор : 14Формат : UTF-8Идентификатор кодека : S_TEXT/UTF8Идентификатор кодека/Информация : UTF-8 Plain TextПродолжительность : 2 ч. 1 м.Битрейт : 6 бит/секCount of elements : 136Размер потока : 6,18 Кбайт (0%)Язык : UkrainianDefault : НетForced : Нет

Текст #4Идентификатор : 15Формат : UTF-8Идентификатор кодека : S_TEXT/UTF8Идентификатор кодека/Информация : UTF-8 Plain TextПродолжительность : 2 ч. 0 м.Битрейт : 67 бит/секCount of elements : 1488Размер потока : 59,3 Кбайт (0%)Язык : EnglishDefault : НетForced : Нет

Текст #5Идентификатор : 16Формат : UTF-8Идентификатор кодека : S_TEXT/UTF8Идентификатор кодека/Информация : UTF-8 Plain TextПродолжительность : 2 ч. 0 м.Битрейт : 71 бит/секCount of elements : 1726Размер потока : 63,3 Кбайт (0%)Язык : EnglishDefault : НетForced : Нет

piratbit.ru


Смотрите также