Скачать смурфики затерянная деревня торрент в хорошем качестве


Затерянная деревня через торрент в хорошем качестве бесплатно 1080p] 2xDUB (rus

GeneralFormat : MatroskaFormat version : Version 4 / Version 2File size : 9.32 GiBDuration : 1 h 29 minOverall bit rate : 14.9 Mb/sMovie name : SMURFS_TLV_BDRip_1080p-BLUEBIRDEncoded date : UTC 2017-06-28 19:03:02Writing application : mkvmerge v6.9.1 ('Blue Panther') 32bit built on Apr 18 2014 18:15:44Writing library : libebml v1.3.0 + libmatroska v1.4.1

VideoID : 1Format : AVCFormat/Info : Advanced Video CodecFormat profile : [email protected] settings, CABAC : YesFormat settings, ReFrames : 4 framesCodec ID : V_MPEG4/ISO/AVCDuration : 1 h 29 minNominal bit rate : 12.0 Mb/sWidth : 1 920 pixelsHeight : 1 036 pixelsDisplay aspect ratio : 1.85:1Frame rate mode : ConstantFrame rate : 23.976 (24000/1001) FPSColor space : YUVChroma subsampling : 4:2:0Bit depth : 8 bitsScan type : ProgressiveBits/(Pixel*Frame) : 0.252Title : SMURFS_TLV_BDRip_1080p-BLUEBIRDWriting library : x264 core 149 r2771+45 509cceb 7mod [[email protected] X86_64]Encoding settings : cabac=1 / ref=4 / deblock=1:-1:-1 / analyse=0x3:0x133 / me=umh / subme=11 / psy=1 / fade_compensate=0.00 / psy_rd=0.95:0.10 / mixed_ref=1 / me_range=48 / chroma_me=1 / trellis=2 / 8x8dct=1 / cqm=0 / deadzone=21,11 / fast_pskip=0 / chroma_qp_offset=-4 / threads=12 / lookahead_threads=2 / sliced_threads=0 / nr=0 / decimate=1 / interlaced=0 / bluray_compat=0 / constrained_intra=0 / fgo=0 / bframes=8 / b_pyramid=2 / b_adapt=2 / b_bias=0 / direct=3 / weightb=1 / open_gop=0 / weightp=2 / keyint=250 / keyint_min=23 / scenecut=40 / intra_refresh=0 / rc_lookahead=30 / rc=2pass / mbtree=0 / bitrate=12000 / ratetol=1.0 / qcomp=0.70 / qpmin=0:0:0 / qpmax=69:69:69 / qpstep=4 / cplxblur=20.0 / qblur=0.5 / vbv_maxrate=35000 / vbv_bufsize=35000 / nal_hrd=none / filler=0 / ip_ratio=1.40 / pb_ratio=1.30 / aq=3:1.00 / aq-sensitivity=10.00 / aq-factor=1.00:1.00:1.00 / aq2=0 / aq3=2:[0.50:0.50]:[0.50:0.50]:[0.50:0.50]:[0.50:0.50] / aq3-sensitivity=10.00 / aq3-factor=[1.00:1.00]:[1.00:1.00]:[1.00:1.00] / aq3-boundary=192:64:24Language : EnglishDefault : YesForced : No

Audio #1ID : 2Format : AC-3Format/Info : Audio Coding 3Format settings, Endianness : BigCodec ID : A_AC3Duration : 1 h 29 minBit rate mode : ConstantBit rate : 384 kb/sChannel(s) : 6 channelsChannel positions : Front: L C R, Side: L R, LFESampling rate : 48.0 kHzFrame rate : 31.250 FPS (1536 spf)Bit depth : 16 bitsCompression mode : LossyStream size : 247 MiB (3%)Title : [DUB] DD 5.1 @ 384 kbps (iTunes)Language : RussianService kind : Complete MainDefault : NoForced : No

Audio #2ID : 3Format : DTSFormat/Info : Digital Theater SystemsFormat profile : MA / CoreMode : 16Format settings, Endianness : BigCodec ID : A_DTSDuration : 1 h 29 minBit rate mode : Variable / ConstantBit rate : Unknown / 1 509 kb/sChannel(s) : 6 channelsChannel positions : Front: L C R, Side: L R, LFESampling rate : 48.0 kHzFrame rate : 93.750 FPS (512 spf)Bit depth : 16 bitsCompression mode : Lossless / LossyTitle : [ORIGINAL] DTS 5.1 @ 1509 kbps (iTunes)Language : EnglishDefault : NoForced : No

Audio #3ID : 4Format : AACFormat/Info : Advanced Audio CodecFormat profile : LCCodec ID : A_AACDuration : 1 h 29 minChannel(s) : 2 channelsChannel positions : Front: L RSampling rate : 44.1 kHzFrame rate : 43.066 FPS (1024 spf)Compression mode : LossyTitle : [DUB] AAC 2.0 @ 160 kbpsLanguage : UkrainianDefault : NoForced : No

Text #1ID : 5Format : UTF-8Codec ID : S_TEXT/UTF8Codec ID/Info : UTF-8 Plain TextTitle : Full-lenthLanguage : RussianDefault : NoForced : No

Text #2ID : 6Format : UTF-8Codec ID : S_TEXT/UTF8Codec ID/Info : UTF-8 Plain TextTitle : Full-lenthLanguage : UkrainianDefault : NoForced : No

Text #3ID : 7Format : UTF-8Codec ID : S_TEXT/UTF8Codec ID/Info : UTF-8 Plain TextTitle : Full-lenthLanguage : EnglishDefault : NoForced : No

Text #4ID : 8Format : UTF-8Codec ID : S_TEXT/UTF8Codec ID/Info : UTF-8 Plain TextTitle : ForcedLanguage : RussianDefault : YesForced : No

Menu00:00:00.000 : en:00:00:00.00000:08:48.445 : en:00:08:48.44500:11:03.413 : en:00:11:03.41300:14:33.748 : en:00:14:33.74800:21:21.071 : en:00:21:21.07100:27:25.143 : en:00:27:25.14300:30:33.540 : en:00:30:33.54000:36:49.082 : en:00:36:49.08200:42:41.350 : en:00:42:41.35000:45:58.673 : en:00:45:58.67300:50:35.950 : en:00:50:35.95000:55:41.964 : en:00:55:41.96400:57:03.587 : en:00:57:03.58701:02:35.293 : en:01:02:35.29301:09:07.769 : en:01:09:07.76901:14:39.475 : en:01:14:39.47501:19:34.478 : en:01:19:34.478

piratbit.ru

Затерянная деревня через торрент в хорошем качестве бесплатно TS

piratbit.ru

Раздают: 2 [ 0 KB/s ]
Размер: 1.37 GB | Добавлен: 6 мес. назад | Торрент скачан:475 раз
Реклама Дарим 3000 рублей за регистрацию, не упусти свой шанс получить шикарный бонус!!!

09-04-2017 00:48 Смурфики: Затерянная деревня Скачать торрент  

Смурфики: Затерянная деревня / Smurfs: The Lost Village ««Кто здесь?»» ИНФОРМАЦИЯ: Год выпуска:2017 Страна: США Жанр: мультфильм, фэнтези, комедия, приключения, семейный Продолжительность: 01:16:30 Перевод: Дубляж Режиссер: Келли ЭсбёриВ Ролях: Ариэль Уинтер (Smurflily, озвучка), Джо Манганьелло (Hefty, озвучка), Мишель Родригес (Smurfstorm, озвучка), Джулия Робертс (Smurfwillow, озвучка), Элли Кемпер (Smurfblossom, озвучка), Мэнди Пэтинкин (Papa Smurf, озвучка), Рэйн Уилсон (Gargamel, озвучка), Деми Ловато (Smurfette, озвучка), Джейк Джонсон (Grouchy, озвучка), Джек МакБрайер (Clumsy, озвучка), Дэнни Пуди (Brainy, озвучка), Габриэль Иглесиас (Jokey, озвучка) ОПИСАНИЕ:Смурфетта и её лучшие друзья, Умник, Растяпа и Силач, отправляются на поиски таинственной затерянной деревни, стремясь опередить злобного волшебника Гаргамеля. В пути смурфиков ожидают невероятные опасности и головокружительные приключения, но игра стоит свеч, ведь в конечном итоге герои смогут разгадать самую большую загадку в истории своего существования!
  • Мировая премьера:23 марта 2017 ТЕХ.ДАННЫЕ: Качество: TS Формат: AVI Видео: XviD, 720x304 (2.35:1), 1775 kbps, 25 fps, 0,324 bpp Аудио: AC3 / 2.0 / 48 kHz / 384 kbps /GeneralComplete name : W:\Торенты\CmuFreKi.2O17.D.TS.14OOMB_.aviFormat : AVIFormat/Info : Audio Video InterleaveFile size : 1.37 GiBDuration : 1 h 16 minOverall bit rate : 2 558 kb/sWriting application : VirtualDubMod 1.5.10.2 (build 2540/release)Writing library : VirtualDubMod build 2540/release

    VideoID : 0Format : MPEG-4 VisualFormat profile : Advanced [email protected] settings, BVOP : 2Format settings, QPel : NoFormat settings, GMC : No warppointsFormat settings, Matrix : Default (MPEG)Codec ID : XVIDCodec ID/Hint : XviDDuration : 1 h 16 minBit rate : 1 776 kb/sWidth : 720 pixelsHeight : 304 pixelsDisplay aspect ratio : 2.35:1Frame rate : 25.000 FPSColor space : YUVChroma subsampling : 4:2:0Bit depth : 8 bitsScan type : ProgressiveCompression mode : LossyBits/(Pixel*Frame) : 0.324Stream size : 972 MiB (69%)Writing library : XviD 1.2.1 (UTC 2008-12-04)

    Audio #1ID : 1Format : AC-3Format/Info : Audio Coding 3Mode extension : CM (complete main)Format settings, Endianness : BigCodec ID : 2000Duration : 1 h 16 minBit rate mode : ConstantBit rate : 384 kb/sChannel(s) : 2 channelsChannel positions : Front: L RSampling rate : 48.0 kHzFrame rate : 31.250 FPS (1536 spf)Compression mode : LossyStream size : 210 MiB (15%)Alignment : Split accross interleavesInterleave, duration : 40 ms (1.00 video frame)Interleave, preload duration : 500 ms

    Скриншоты: © Оформление by .::Ворон::.
  • !Ворон писал(а):

    Имеется реклама от спонсора показа

    Скачать Смурфики: Затерянная деревня через торрент http://piratpic.ru/images/6/ordi9.jpg Скачать фильм Смурфики: Затерянная деревня через торрент бесплантно в хорошем качестве Е:Смурфетта и её лучшие друзья, Умник, Растяпа и Силач, отправляются на поиски таинственной затерянной деревни, стремясь опередить злобного ... 2017-04-09 00:48 9.1 10 12

    Loading...

    Loading...

    Рекламный пират

    28-06-2017 19:23 Смурфики: Затерянная деревня Скачать торрент  

    Дорогой пользователь! Огромная просьба, поблагодарите релизера, оцените раздачу и оставьте свои комментарий, если Вы скачали Смурфики: Затерянная деревня через торрент бесплатно! Внесите свою лепту в развитие PiratBit!

    Комментировать посты могут только пользователи прошедшие не сложную регистрацию

    Смурфики: Затерянная деревня через торрент Скачать бесплатно Смурфики: Затерянная деревня Смурфики: Затерянная деревня скачать торрент Смурфики: Затерянная деревня смотреть онлайн Cкачать фильм Смурфики: Затерянная деревня бесплатно Смурфики: Затерянная деревня скачать торрент в хорошем качестве Смурфики: Затерянная деревня смотреть онлайн бесплатно в хорошем качестве

    Вы можете начинать темыВы можете отвечать на сообщенияВы не можете редактировать свои сообщенияВы не можете удалять свои сообщенияВы не можете голосовать в опросахВы не можете прикреплять файлы к сообщениямВы можете скачивать файлы

    Затерянная деревня через торрент в хорошем качестве бесплатно 720p

    x264 [info]: frame I:1160 Avg QP:14.57 size:169710x264 [info]: frame P:37251 Avg QP:17.46 size: 59849x264 [info]: frame B:90733 Avg QP:18.76 size: 19528

    GeneralUnique ID : 219162389978091199093658549427760124715 (0xA4E12415938702F8AC530C68CD61D32B)Complete name : D:\download\Smurfs.The.Lost.Village.2017.BDRip 720p by schultz R.G.Resident.mkvFormat : MatroskaFormat version : Version 4 / Version 2File size : 5.10 GiBDuration : 1 h 29 minOverall bit rate : 8 131 kb/sEncoded date : UTC 2017-07-01 21:24:01Writing application : mkvmerge v8.9.0 ('Father Daughter') 64bitWriting library : libebml v1.3.3 + libmatroska v1.4.4

    VideoID : 1Format : AVCFormat/Info : Advanced Video CodecFormat profile : [email protected] settings, CABAC : YesFormat settings, ReFrames : 11 framesCodec ID : V_MPEG4/ISO/AVCDuration : 1 h 29 minBit rate : 6 234 kb/sWidth : 1 280 pixelsHeight : 690 pixelsDisplay aspect ratio : 1.85:1Frame rate mode : ConstantFrame rate : 23.976 (23976/1000) FPSColor space : YUVChroma subsampling : 4:2:0Bit depth : 8 bitsScan type : ProgressiveBits/(Pixel*Frame) : 0.294Stream size : 3.91 GiB (77%)Writing library : x264 core 146 r2538 121396cEncoding settings : cabac=1 / ref=11 / deblock=1:-3:-3 / analyse=0x3:0x113 / me=umh / subme=11 / psy=1 / psy_rd=1.00:0.15 / mixed_ref=1 / me_range=48 / chroma_me=1 / trellis=2 / 8x8dct=1 / cqm=0 / deadzone=21,11 / fast_pskip=0 / chroma_qp_offset=-3 / threads=12 / lookahead_threads=2 / sliced_threads=0 / nr=0 / decimate=0 / interlaced=0 / bluray_compat=0 / constrained_intra=0 / bframes=9 / b_pyramid=2 / b_adapt=2 / b_bias=0 / direct=3 / weightb=1 / open_gop=0 / weightp=2 / keyint=240 / keyint_min=23 / scenecut=40 / intra_refresh=0 / rc_lookahead=40 / rc=2pass / mbtree=0 / bitrate=6234 / ratetol=1.0 / qcomp=0.60 / qpmin=0 / qpmax=69 / qpstep=4 / cplxblur=20.0 / qblur=0.5 / vbv_maxrate=50000 / vbv_bufsize=62500 / nal_hrd=none / filler=0 / ip_ratio=1.40 / pb_ratio=1.30 / aq=1:1.00Language : EnglishDefault : YesForced : NoColor range : LimitedColor primaries : BT.709Transfer characteristics : BT.709Matrix coefficients : BT.709

    Audio #1ID : 2Format : AC-3Format/Info : Audio Coding 3Mode extension : CM (complete main)Format settings, Endianness : BigCodec ID : A_AC3Duration : 1 h 29 minBit rate mode : ConstantBit rate : 384 kb/sChannel(s) : 6 channelsChannel positions : Front: L C R, Side: L R, LFESampling rate : 48.0 kHzFrame rate : 31.250 FPS (1536 spf)Compression mode : LossyStream size : 247 MiB (5%)Language : RussianDefault : YesForced : No

    Audio #2ID : 3Format : DTSFormat/Info : Digital Theater SystemsMode : 16Format settings, Endianness : BigCodec ID : A_DTSDuration : 1 h 29 minBit rate mode : ConstantBit rate : 1 509 kb/sChannel(s) : 6 channelsChannel positions : Front: L C R, Side: L R, LFESampling rate : 48.0 kHzFrame rate : 93.750 FPS (512 spf)Bit depth : 16 bitsCompression mode : LossyStream size : 969 MiB (19%)Language : EnglishDefault : NoForced : No

    Text #1ID : 4Format : UTF-8Codec ID : S_TEXT/UTF8Codec ID/Info : UTF-8 Plain TextDuration : 3 s 379 msBit rate : 127 b/sCount of elements : 1Stream size : 54.0 Bytes (0%)Title : ForcedLanguage : RussianDefault : YesForced : No

    Text #2ID : 5Format : UTF-8Codec ID : S_TEXT/UTF8Codec ID/Info : UTF-8 Plain TextDuration : 1 h 28 minBit rate : 91 b/sCount of elements : 1099Stream size : 59.5 KiB (0%)Title : FullLanguage : RussianDefault : NoForced : No

    Text #3ID : 6Format : UTF-8Codec ID : S_TEXT/UTF8Codec ID/Info : UTF-8 Plain TextDuration : 1 h 25 minBit rate : 56 b/sCount of elements : 1094Stream size : 35.0 KiB (0%)Title : FullLanguage : EnglishDefault : NoForced : No

    Text #4ID : 7Format : UTF-8Codec ID : S_TEXT/UTF8Codec ID/Info : UTF-8 Plain TextDuration : 1 h 28 minBit rate : 77 b/sCount of elements : 1753Stream size : 50.1 KiB (0%)Title : SDHLanguage : EnglishDefault : NoForced : No

    Menu00:00:00.000 : en:00:00:00.00000:08:48.445 : en:00:08:48.44500:11:03.413 : en:00:11:03.41300:14:33.748 : en:00:14:33.74800:21:21.071 : en:00:21:21.07100:27:25.143 : en:00:27:25.14300:30:33.540 : en:00:30:33.54000:36:49.082 : en:00:36:49.08200:42:41.350 : en:00:42:41.35000:45:58.673 : en:00:45:58.67300:50:35.950 : en:00:50:35.95000:55:41.964 : en:00:55:41.96400:57:03.587 : en:00:57:03.58701:02:35.293 : en:01:02:35.29301:09:07.769 : en:01:09:07.76901:14:39.475 : en:01:14:39.47501:19:34.478 : en:01:19:34.478

    piratbit.ru

    Затерянная деревня через торрент в хорошем качестве бесплатно 720p

    GeneralUnique ID : 174645354233632020626180906347591050866 (0x836378C3BBF43D6F8B53293530CF2672)Complete name : C: Smurfs.The.Lost.Village.2017.BDRip.720p.ExKinoRay.mkvFormat : MatroskaFormat version : Version 4 / Version 2File size : 4.62 GiBDuration : 1 h 29 minOverall bit rate : 7 361 kb/sEncoded date : UTC 2017-06-28 18:48:42Writing application : mkvmerge v13.0.0 ('The Juggler') 64bitWriting library : libebml v1.3.4 + libmatroska v1.4.5

    VideoID : 1Format : AVCFormat/Info : Advanced Video CodecFormat profile : [email protected] settings, CABAC : YesFormat settings, ReFrames : 9 framesCodec ID : V_MPEG4/ISO/AVCDuration : 1 h 29 minBit rate : 5 464 kb/sWidth : 1 280 pixelsHeight : 690 pixelsDisplay aspect ratio : 1.85:1Frame rate mode : ConstantFrame rate : 23.976 (24000/1001) FPSColor space : YUVChroma subsampling : 4:2:0Bit depth : 8 bitsScan type : ProgressiveBits/(Pixel*Frame) : 0.258Stream size : 3.43 GiB (74%)Writing library : x264 core 148 r2597 e86f3a1Encoding settings : cabac=1 / ref=9 / deblock=1:0:0 / analyse=0x3:0x113 / me=umh / subme=10 / psy=1 / psy_rd=1.05:0.10 / mixed_ref=1 / me_range=32 / chroma_me=1 / trellis=2 / 8x8dct=1 / cqm=0 / deadzone=21,11 / fast_pskip=0 / chroma_qp_offset=-2 / threads=12 / lookahead_threads=1 / sliced_threads=0 / nr=0 / decimate=1 / interlaced=0 / bluray_compat=0 / constrained_intra=0 / bframes=6 / b_pyramid=2 / b_adapt=2 / b_bias=0 / direct=3 / weightb=1 / open_gop=0 / weightp=2 / keyint=250 / keyint_min=23 / scenecut=40 / intra_refresh=0 / rc=2pass / mbtree=0 / bitrate=5464 / ratetol=1.0 / qcomp=0.70 / qpmin=0 / qpmax=69 / qpstep=4 / cplxblur=20.0 / qblur=0.5 / ip_ratio=1.40 / pb_ratio=1.30 / aq=2:1.00Default : YesForced : No

    Audio #1ID : 2Format : AC-3Format/Info : Audio Coding 3Format settings, Endianness : BigCodec ID : A_AC3Duration : 1 h 29 minBit rate mode : ConstantBit rate : 384 kb/sChannel(s) : 6 channelsChannel positions : Front: L C R, Side: L R, LFESampling rate : 48.0 kHzFrame rate : 31.250 FPS (1536 spf)Bit depth : 16 bitsCompression mode : LossyStream size : 247 MiB (5%)Title : iTunesLanguage : RussianService kind : Complete MainDefault : YesForced : No

    Audio #2ID : 3Format : DTSFormat/Info : Digital Theater SystemsMode : 16Format settings, Endianness : BigCodec ID : A_DTSDuration : 1 h 29 minBit rate mode : ConstantBit rate : 1 509 kb/sChannel(s) : 6 channelsChannel positions : Front: L C R, Side: L R, LFESampling rate : 48.0 kHzFrame rate : 93.750 FPS (512 spf)Bit depth : 24 bitsCompression mode : LossyStream size : 969 MiB (20%)Title : OriginalLanguage : EnglishDefault : NoForced : No

    Text #1ID : 4Format : UTF-8Codec ID : S_TEXT/UTF8Codec ID/Info : UTF-8 Plain TextDuration : 3 s 379 msBit rate : 127 b/sCount of elements : 1Stream size : 54.0 Bytes (0%)Title : ForcedLanguage : RussianDefault : YesForced : No

    Text #2ID : 5Format : UTF-8Codec ID : S_TEXT/UTF8Codec ID/Info : UTF-8 Plain TextDuration : 1 h 28 minBit rate : 91 b/sCount of elements : 1099Stream size : 59.5 KiB (0%)Title : FullLanguage : RussianDefault : NoForced : No

    Text #3ID : 6Format : UTF-8Codec ID : S_TEXT/UTF8Codec ID/Info : UTF-8 Plain TextDuration : 1 h 25 minBit rate : 56 b/sCount of elements : 1094Stream size : 35.0 KiB (0%)Title : FullLanguage : EnglishDefault : NoForced : No

    Text #4ID : 7Format : UTF-8Codec ID : S_TEXT/UTF8Codec ID/Info : UTF-8 Plain TextDuration : 1 h 28 minBit rate : 77 b/sCount of elements : 1753Stream size : 50.1 KiB (0%)Title : SDHLanguage : EnglishDefault : NoForced : No

    Text #5ID : 8Format : UTF-8Codec ID : S_TEXT/UTF8Codec ID/Info : UTF-8 Plain TextDuration : 1 h 29 minBit rate : 113 b/sCount of elements : 1755Stream size : 74.8 KiB (0%)Title : SDH (Colored)Language : EnglishDefault : NoForced : No

    Menu00:00:00.000 : en:00:00:00.00000:08:48.445 : en:00:08:48.44500:11:03.413 : en:00:11:03.41300:14:33.748 : en:00:14:33.74800:21:21.071 : en:00:21:21.07100:27:25.143 : en:00:27:25.14300:30:33.540 : en:00:30:33.54000:36:49.082 : en:00:36:49.08200:42:41.350 : en:00:42:41.35000:45:58.673 : en:00:45:58.67300:50:35.950 : en:00:50:35.95000:55:41.964 : en:00:55:41.96400:57:03.587 : en:00:57:03.58701:02:35.293 : en:01:02:35.29301:09:07.769 : en:01:09:07.76901:14:39.475 : en:01:14:39.47501:19:34.478 : en:01:19:34.478

    piratbit.ru


    Смотрите также