Скачать призрачный патруль через торрент бесплатно в хорошем качестве


Скачать фильм Призрачный патруль через торрент в хорошем качестве бесплатно HDRip

Раздают: 1 [ 0 KB/s ]
Размер: 1.46 GB | Добавлен: 3 года 8 мес. назад | Торрент скачан:623 раза
Реклама Дарим 3000 рублей за регистрацию, не упусти свой шанс получить шикарный бонус!!!

16-10-2013 22:52 Призрачный патруль Скачать торрент  

Призрачный патруль / R.I.P.D.

Год выпуска: 2013 Страна: США / Universal Pictures, Original Film, Dark Horse EntertainmentЖанр: боевик, комедия, криминал,Продолжительность: 01:35:53Перевод: Дубляж, [Цифровая Лицензия/iTunes]

Режиссер: Роберт Швентке

В ролях: Джефф Бриджес, Райан Рейнольдс, Кевин Бейкон, Мэри-Луиз Паркер, Стефани Зостак, Джеймс Хонг, Мариса Миллер, Роберт Неппер, Майк О’Мэлли, Девин Рэтрей,

Описание: Детективы из загробного департамента расследуют преступления по ту сторону могилы и гоняются за не в меру ретивой нечистью. Молодой коп, после гибели от руки неизвестного злоумышленника угодивший в мир иной, в обмен на помощь при расследовании собственного убийства обязуется следующие сто лет посвятить службе в R.I.P.D. и, получив в напарники брутального стрелка эпохи вестернов, выходит на борьбу с неупокоившимся злом

Сэмпл

Качество: HDRip [Рип с BDRip 720p]Формат: AVIВидео кодек: XviDАудио кодек: AC3Видео: 720x304 (2.37:1), 23.976 fps, XviD build 50 ~1781 kbps avg, 0.34 bit/pixelАудио#1: 48 kHz, AC3 Dolby Digital, 3/2 (L,C,R,l,r) + LFE ch, ~384 kbps

D:DownloadsR.I.P.D.2013.D.HDRip.1.46Gb.aviGeneralComplete name : D:DownloadsR.I.P.D.2013.D.HDRip.1.46Gb.aviFormat : AVIFormat/Info : Audio Video InterleaveFile size : 1.46 GiBDuration : 1h 35mnOverall bit rate : 2 175 KbpsWriting application : VirtualDubMod 1.5.10.3 (build 2550/release)Writing library : VirtualDubMod build 2550/releaseVideo #0ID : 0Format : MPEG-4 VisualFormat profile : Advanced [email protected] settings, BVOP : 2Format settings, QPel : NoFormat settings, GMC : No warppointsFormat settings, Matrix : CustomCodec ID : XVIDCodec ID/Hint : XviDDuration : 1h 35mnBit rate : 1 782 KbpsWidth : 720 pixelsHeight : 304 pixelsDisplay aspect ratio : 2.35:1Frame rate : 23.976 fpsColor space : YUVChroma subsampling : 4:2:0Bit depth : 8 bitsScan type : ProgressiveCompression mode : LossyBits/(Pixel*Frame) : 0.340Stream size : 1.19 GiB (82%)Writing library : XviD 1.2.1 (UTC 2008-12-04)Audio #1ID : 1Format : AC-3Format/Info : Audio Coding 3Mode extension : CM (complete main)Codec ID : 2000Duration : 1h 35mnBit rate mode : ConstantBit rate : 384 KbpsChannel(s) : 6 channelsChannel positions : Front: L C R, Side: L R, LFESampling rate : 48.0 KHzBit depth : 16 bitsCompression mode : LossyStream size : 263 MiB (18%)Alignment : Split accross interleavesInterleave, duration : 42 ms (1.00 video frame)Interleave, preload duration : 500 ms

Скачать Призрачный патруль через торрент http://pic.pb.wtf/images/4/qwvan.jpg Скачать фильм Призрачный патруль через торрент бесплантно в хорошем качестве Описание: Детективы из загробного департамента расследуют преступления по ту сторону могилы и гоняются за не в меру ретивой нечистью. ... 2014-01-29 20:18 9.6 10 56

Loading...

Loading...

Последний раз редактировалось: MihailHD (2013-10-17 01:20), всего редактировалось 3 раз(а)

Рекламный пират

18-10-2013 16:33 Призрачный патруль Скачать торрент  

26-10-2013 14:50 Призрачный патруль Скачать торрент  

классный фильм

Дорогой пользователь! Огромная просьба, поблагодарите релизера, оцените раздачу и оставьте свои комментарий, если Вы скачали Призрачный патруль через торрент бесплатно! Внесите свою лепту в развитие PiratBit!

Комментировать посты могут только пользователи прошедшие не сложную регистрацию

Призрачный патруль через торрент Скачать бесплатно Призрачный патруль Призрачный патруль скачать торрент Призрачный патруль смотреть онлайн Cкачать фильм Призрачный патруль бесплатно Призрачный патруль скачать торрент в хорошем качестве Призрачный патруль смотреть онлайн бесплатно в хорошем качестве

Вы не можете начинать темыВы не можете отвечать на сообщенияВы не можете редактировать свои сообщенияВы не можете удалять свои сообщенияВы не можете голосовать в опросахВы не можете прикреплять файлы к сообщениямВы можете скачивать файлы

piratbit.ru

Скачать фильм Призрачный патруль через торрент в хорошем качестве бесплатно BDRip-AVC

ОбщееУникальный идентификатор : 196277173394940672959344696470515580457 (0x93A99BCADB5BDA36915D15AD08057E29)Полное имя : Prizrachnyj.Patrul'.2013.RUS.BDRip.x264.-HELLYWOOD.mkvФормат : MatroskaВерсия формата : Version 4 / Version 2Размер файла : 1,46 ГбайтПродолжительность : 1 ч. 35 м.Общий поток : 2182 Кбит/секНазвание фильма : HELLYWOOD - rip by potroksДата кодирования : UTC 2013-11-07 05:55:16Программа кодирования : mkvmerge v5.9.0 ('On The Loose') built on Dec 15 2012 16:39:58Библиотека кодирования : libebml v1.3.0 + libmatroska v1.4.0

ВидеоИдентификатор : 1Формат : AVCФормат/Информация : Advanced Video CodecПрофиль формата : [email protected]Параметр CABAC формата : ДаПараметр ReFrames формата : 12 кадровИдентификатор кодека : V_MPEG4/ISO/AVCПродолжительность : 1 ч. 35 м.Битрейт : 1796 Кбит/секШирина : 960 пикселейВысота : 408 пикселейСоотношение сторон : 2,35:1Режим частоты кадров : ПостоянныйЧастота кадров : 23,976 кадра/секЦветовое пространство : YUVСубдискретизация насыщенности : 4:2:0Битовая глубина : 8 битТип развёртки : ПрогрессивнаяБит/(Пиксели*Кадры) : 0.191Размер потока : 1,18 Гбайт (80%)Заголовок : R.I.P.D.Библиотека кодирования : x264 core 130 r2273 b3065e6Настройки программы : cabac=1 / ref=12 / deblock=1:-2:-2 / analyse=0x3:0x133 / me=umh / subme=11 / psy=1 / psy_rd=1.09:0.00 / mixed_ref=1 / me_range=48 / chroma_me=1 / trellis=2 / 8x8dct=1 / cqm=0 / deadzone=21,11 / fast_pskip=0 / chroma_qp_offset=-2 / threads=9 / lookahead_threads=2 / sliced_threads=0 / nr=0 / decimate=0 / interlaced=0 / bluray_compat=0 / constrained_intra=0 / bframes=13 / b_pyramid=2 / b_adapt=2 / b_bias=0 / direct=3 / weightb=1 / open_gop=0 / weightp=2 / keyint=250 / keyint_min=23 / scenecut=40 / intra_refresh=0 / rc_lookahead=60 / rc=2pass / mbtree=0 / bitrate=1796 / ratetol=1.0 / qcomp=0.70 / qpmin=0 / qpmax=69 / qpstep=4 / cplxblur=20.0 / qblur=0.5 / vbv_maxrate=20000 / vbv_bufsize=20000 / nal_hrd=none / ip_ratio=1.30 / pb_ratio=1.25 / aq=1:0.80Язык : EnglishDefault : ДаForced : Нет

АудиоИдентификатор : 2Формат : AC-3Формат/Информация : Audio Coding 3Расширение режима : CM (complete main)Параметр Endianness формата : BigИдентификатор кодека : A_AC3Продолжительность : 1 ч. 35 м.Вид битрейта : ПостоянныйБитрейт : 384 Кбит/секКаналы : 6 каналовРасположение каналов : Front: L C R, Side: L R, LFEЧастота : 48,0 КГцБитовая глубина : 16 битМетод сжатия : С потерямиРазмер потока : 263 Мбайт (18%)Заголовок : Dub | DD 5.1 @ 384 kbps - BD CEEЯзык : RussianDefault : ДаForced : Да

Текст #1Идентификатор : 3Формат : UTF-8Идентификатор кодека : S_TEXT/UTF8Идентификатор кодека/Информация : UTF-8 Plain TextЗаголовок : Forced, Blu-ray CEEЯзык : RussianDefault : ДаForced : Нет

Текст #2Идентификатор : 4Формат : UTF-8Идентификатор кодека : S_TEXT/UTF8Идентификатор кодека/Информация : UTF-8 Plain TextЗаголовок : Blu-ray CEEЯзык : RussianDefault : НетForced : Нет

Текст #3Идентификатор : 5Формат : UTF-8Идентификатор кодека : S_TEXT/UTF8Идентификатор кодека/Информация : UTF-8 Plain TextЗаголовок : Blu-ray CEEЯзык : UkrainianDefault : НетForced : Нет

Текст #4Идентификатор : 6Формат : UTF-8Идентификатор кодека : S_TEXT/UTF8Идентификатор кодека/Информация : UTF-8 Plain TextЯзык : EnglishDefault : НетForced : Нет

Текст #5Идентификатор : 7Формат : UTF-8Идентификатор кодека : S_TEXT/UTF8Идентификатор кодека/Информация : UTF-8 Plain TextЗаголовок : SDHЯзык : EnglishDefault : НетForced : Нет

Текст #6Идентификатор : 8Формат : UTF-8Идентификатор кодека : S_TEXT/UTF8Идентификатор кодека/Информация : UTF-8 Plain TextЗаголовок : SDH-COLOREDЯзык : EnglishDefault : НетForced : Нет

Меню00:00:00.000 : en:00:00:00.00000:03:57.112 : en:00:03:57.11200:09:13.136 : en:00:09:13.13600:14:30.578 : en:00:14:30.57800:17:58.411 : en:00:17:58.41100:22:30.599 : en:00:22:30.59900:27:09.503 : en:00:27:09.50300:33:33.511 : en:00:33:33.51100:38:46.157 : en:00:38:46.15700:43:27.647 : en:00:43:27.64700:46:31.747 : en:00:46:31.74700:52:04.038 : en:00:52:04.03800:55:52.099 : en:00:55:52.09901:02:15.982 : en:01:02:15.98201:07:01.100 : en:01:07:01.10001:10:35.690 : en:01:10:35.69001:13:16.309 : en:01:13:16.30901:17:52.126 : en:01:17:52.12601:23:00.934 : en:01:23:00.93401:27:27.909 : en:01:27:27.909

piratbit.ru

Скачать фильм Призрачный патруль через торрент в хорошем качестве бесплатно BDRip-AVC

ОбщееУникальный идентификатор : 175577100453425838750482886954542476785 (0x8416EB6665754227B9ABA66D67E4ADF1)Полное имя : Prizrachnyj.Patrul'.2013.DUAL.BDRip.x264.-HELLYWOOD.mkvФормат : MatroskaВерсия формата : Version 4 / Version 2Размер файла : 2,19 ГбайтПродолжительность : 1 ч. 35 м.Общий поток : 3264 Кбит/секНазвание фильма : HELLYWOOD - rip by potroksДата кодирования : UTC 2013-10-18 17:47:53Программа кодирования : mkvmerge v5.9.0 ('On The Loose') built on Dec 15 2012 16:39:58Библиотека кодирования : libebml v1.3.0 + libmatroska v1.4.0

ВидеоИдентификатор : 1Формат : AVCФормат/Информация : Advanced Video CodecПрофиль формата : [email protected]Параметр CABAC формата : ДаПараметр ReFrames формата : 10 кадровРежим смешивания : Header strippingИдентификатор кодека : V_MPEG4/ISO/AVCПродолжительность : 1 ч. 35 м.Битрейт : 2495 Кбит/секШирина : 1040 пикселейВысота : 442 пикселяСоотношение сторон : 2,35:1Режим частоты кадров : ПостоянныйЧастота кадров : 23,976 кадра/секЦветовое пространство : YUVСубдискретизация насыщенности : 4:2:0Битовая глубина : 8 битТип развёртки : ПрогрессивнаяБит/(Пиксели*Кадры) : 0.226Размер потока : 1,63 Гбайт (74%)Заголовок : R.I.P.D.Библиотека кодирования : x264 core 130 r2273 b3065e6Настройки программы : cabac=1 / ref=10 / deblock=1:-2:-2 / analyse=0x3:0x133 / me=umh / subme=11 / psy=1 / psy_rd=1.07:0.00 / mixed_ref=1 / me_range=32 / chroma_me=1 / trellis=2 / 8x8dct=1 / cqm=0 / deadzone=21,11 / fast_pskip=0 / chroma_qp_offset=-2 / threads=9 / lookahead_threads=2 / sliced_threads=0 / nr=0 / decimate=0 / interlaced=0 / bluray_compat=0 / constrained_intra=0 / bframes=11 / b_pyramid=2 / b_adapt=2 / b_bias=0 / direct=3 / weightb=1 / open_gop=0 / weightp=2 / keyint=250 / keyint_min=23 / scenecut=40 / intra_refresh=0 / rc_lookahead=160 / rc=2pass / mbtree=1 / bitrate=2495 / ratetol=1.0 / qcomp=0.70 / qpmin=0 / qpmax=69 / qpstep=4 / cplxblur=20.0 / qblur=0.5 / vbv_maxrate=20000 / vbv_bufsize=25000 / nal_hrd=none / ip_ratio=1.35 / aq=1:0.70Язык : EnglishDefault : ДаForced : Нет

Аудио #1Идентификатор : 2Формат : AC-3Формат/Информация : Audio Coding 3Расширение режима : CM (complete main)Параметр Endianness формата : BigРежим смешивания : Header strippingИдентификатор кодека : A_AC3Продолжительность : 1 ч. 35 м.Вид битрейта : ПостоянныйБитрейт : 384 Кбит/секКаналы : 6 каналовРасположение каналов : Front: L C R, Side: L R, LFEЧастота : 48,0 КГцБитовая глубина : 16 битМетод сжатия : С потерямиРазмер потока : 263 Мбайт (12%)Заголовок : Dub | DD 5.1 @ 384 kbps - iTunes RussiaЯзык : RussianDefault : ДаForced : Да

Аудио #2Идентификатор : 3Формат : AC-3Формат/Информация : Audio Coding 3Расширение режима : CM (complete main)Параметр Endianness формата : BigРежим смешивания : Header strippingИдентификатор кодека : A_AC3Продолжительность : 1 ч. 35 м.Вид битрейта : ПостоянныйБитрейт : 384 Кбит/секКаналы : 6 каналовРасположение каналов : Front: L C R, Side: L R, LFEЧастота : 48,0 КГцБитовая глубина : 16 битМетод сжатия : С потерямиРазмер потока : 263 Мбайт (12%)Заголовок : Original | DD 5.1 @ 384 kbpsЯзык : EnglishDefault : НетForced : Нет

Текст #1Идентификатор : 4Формат : UTF-8Идентификатор кодека : S_TEXT/UTF8Идентификатор кодека/Информация : UTF-8 Plain TextЯзык : RussianDefault : НетForced : Нет

Текст #2Идентификатор : 5Формат : UTF-8Идентификатор кодека : S_TEXT/UTF8Идентификатор кодека/Информация : UTF-8 Plain TextЯзык : EnglishDefault : НетForced : Нет

Меню00:00:00.000 : en:00:00:00.00000:11:16.968 : en:00:11:16.96800:20:01.450 : en:00:20:01.45000:30:09.474 : en:00:30:09.47400:39:21.609 : en:00:39:21.60900:48:57.643 : en:00:48:57.64300:59:03.415 : en:00:59:03.41501:08:57.884 : en:01:08:57.88401:17:35.109 : en:01:17:35.10901:28:36.186 : en:01:28:36.18601:40:47.792 : en:01:40:47.79201:50:55.858 : en:01:50:55.85802:00:53.580 : en:02:00:53.58002:10:13.556 : en:02:10:13.55602:12:49.920 : en:02:12:49.920

piratbit.ru

Скачать торрент Призрачный патруль / R.I.P.D. (2013) BDRip 1080p от NNNB

Информация о фильме
    Русское название: Призрачный патрульОригинальное название: R.I.P.D.Год выхода: 2013Жанр: фантастика, боевик, комедияРежиссер: Роберт ШвенткеВыпущено: СШАПродолжительность: 01:35:55Перевод: ДублированныйВ ролях: Райан Рейнольдс, Джефф Бриджес, Кевин Бэйкон, Мэри-Луиз Паркер, Стефани Зостак, Роберт Неппер, Мариса Миллер, Джеймс Хонг, Майк О’Мэлли, Девин Рэтрей
Сюжет фильма
    Молодой полицейский на пике своей карьеры, во время очередного захвата банды преступников погибает. Попав в потусторонний мир он узнает что и там нет покоя, с учетом его способностей ему предлагают работу в "ПП". Это отряд по борьбе с всякой нечистью, духами и призраками, состоящий в организации R.I.P.D. Условие такое, целых сто лет он должен горбатится в команде бессмертных полицейских, выхода нет он соглашается. В напарники ему достается вредный коп старшего возраста, который торчит там еще с времен дикого запада, эпохи ковбоев и бандитов. Работа не простая, духи и разные бежавшие твари могут скрываться даже в мире живых, иногда переселившись в людские тела наши копы делают свое дела и в нашем мире, им все под силу, они же элита.
Файл
    Качество: BDRip 1080p (исходник Blu-ray Disc Remux)Видео: 1920x816, 11244 Кбит/сек, 60.000 кадр/сек, AVC, x264, [email protected], 2.35:1, 0.117 Бит/[Пиксели*Кадры]Аудио 1: AC-3, 448 Кбит/сек, 6 канала(ов), 48,0 КГц - Дублированный / РусскийАудио 2: AC-3, 448 Кбит/сек, 6 канала(ов), 48,0 КГц - Оригинал / АнглийскийСубтитры: Русские | Полные, Английские | ПолныеФорсированные субтитры: РусскиеЧаптеры (Главы): Есть
Автор Рипа: Сообщество:

MediaInfo

Format : Matroska Format version : Version 2 File size : 8.14 GiB Duration : 1h 35mn Overall bit rate : 12.1 Mbps Movie name : Призрачный патруль.(2013).BDRip.1080p.[envy].[60fps] Encoded date : UTC 2015-08-21 05:47:53 Writing application : mkvmerge v5.8.0 ('No Sleep / Pillow') built on Sep 2 2012 15:37:04 Writing library : libebml v1.2.3 + libmatroska v1.3.0

Video ID : 1 Format : AVC Format/Info : Advanced Video Codec Format profile : [email protected] Format settings, CABAC : Yes Format settings, ReFrames : 4 frames Codec ID : V_MPEG4/ISO/AVC Duration : 1h 35mn Bit rate : 11.0 Mbps Width : 1 920 pixels Height : 816 pixels Display aspect ratio : 2.35:1 Frame rate mode : Constant Frame rate : 60.000 fps Color space : YUV Chroma subsampling : 4:2:0 Bit depth : 8 bits Scan type : Progressive Bits/(Pixel*Frame) : 0.117 Stream size : 7.37 GiB (91%) Title : Призрачный патруль.(2013).BDRip.1080p.[envy].[60fps] Writing library : x264 core 146 r2538 121396c Encoding settings : cabac=1 / ref=4 / deblock=1:0:0 / analyse=0x3:0x113 / me=umh / subme=11 / psy=1 / psy_rd=1.00:0.00 / mixed_ref=1 / me_range=24 / chroma_me=1 / trellis=2 / 8x8dct=1 / cqm=0 / deadzone=21,11 / fast_pskip=1 / chroma_qp_offset=-2 / threads=12 / lookahead_threads=1 / sliced_threads=0 / nr=0 / decimate=1 / interlaced=0 / bluray_compat=0 / constrained_intra=0 / bframes=5 / b_pyramid=2 / b_adapt=2 / b_bias=0 / direct=3 / weightb=1 / open_gop=0 / weightp=2 / keyint=250 / keyint_min=25 / scenecut=40 / intra_refresh=0 / rc_lookahead=40 / rc=crf / mbtree=0 / crf=18.0 / qcomp=0.60 / qpmin=0 / qpmax=69 / qpstep=4 / vbv_maxrate=14000 / vbv_bufsize=14000 / crf_max=0.0 / nal_hrd=none / filler=0 / ip_ratio=1.40 / pb_ratio=1.30 / aq=3:1.00 Language : English Default : Yes Forced : No

Audio #1 ID : 2 Format : AC-3 Format/Info : Audio Coding 3 Mode extension : CM (complete main) Format settings, Endianness : Big Codec ID : A_AC3 Duration : 1h 35mn Bit rate mode : Constant Bit rate : 448 Kbps Channel(s) : 6 channels Channel positions : Front: L C R, Side: L R, LFE Sampling rate : 48.0 KHz Compression mode : Lossy Stream size : 307 MiB (4%) Title : Dub Language : Russian Default : Yes Forced : No

Audio #2 ID : 3 Format : AC-3 Format/Info : Audio Coding 3 Mode extension : CM (complete main) Format settings, Endianness : Big Codec ID : A_AC3 Duration : 1h 35mn Bit rate mode : Constant Bit rate : 448 Kbps Channel(s) : 6 channels Channel positions : Front: L C R, Side: L R, LFE Sampling rate : 48.0 KHz Compression mode : Lossy Stream size : 307 MiB (4%) Title : Eng Language : English Default : No Forced : No

Text #1 ID : 4 Format : UTF-8 Codec ID : S_TEXT/UTF8 Codec ID/Info : UTF-8 Plain Text Title : Rus forced Language : Russian Default : Yes Forced : Yes

Text #2 ID : 5 Format : UTF-8 Codec ID : S_TEXT/UTF8 Codec ID/Info : UTF-8 Plain Text Title : Rus full Language : Russian Default : No Forced : No

Text #3 ID : 6 Format : UTF-8 Codec ID : S_TEXT/UTF8 Codec ID/Info : UTF-8 Plain Text Title : Eng full Language : English Default : No Forced : No

Menu 00:00:00.000 : en:00:00:00.000 00:03:57.112 : en:00:03:57.112 00:09:13.136 : en:00:09:13.136 00:14:30.578 : en:00:14:30.578 00:17:58.411 : en:00:17:58.411 00:22:30.599 : en:00:22:30.599 00:27:09.503 : en:00:27:09.503 00:33:33.511 : en:00:33:33.511 00:38:46.157 : en:00:38:46.157 00:43:27.647 : en:00:43:27.647 00:46:31.747 : en:00:46:31.747 00:52:04.038 : en:00:52:04.038 00:55:52.099 : en:00:55:52.099 01:02:15.982 : en:01:02:15.982 01:07:01.100 : en:01:07:01.100 01:10:35.690 : en:01:10:35.690 01:13:16.309 : en:01:13:16.309 01:17:52.126 : en:01:17:52.126 01:23:00.934 : en:01:23:00.934 01:27:27.909 : en:01:27:27.909

ВАЖНО!

Прежде чем скачивать фильм полностью, скачайте "сэмпл", и проверьте будет ли воспроизводится видео на вашем устройстве!

Q: Присутствуют ли артефакты на изображении?A: Да, есть, и будут, какие настройки скритпа не вписывай они будут постоянно! + Видео ряд обработан фильтром "Sharp"

Q: У меня не запускается видео на компьютере?A: Обновите кодеки. (попробуйте другие видео проигрыватели)

Q: У меня идет рассинхрон звука и видео?A: Проблема в мощности компьютера. (возможно также нужно обновить кодеки)

Q: Что нужно для воспроизведения данного видео.A: Что рекомендуется для воспроизведения мной: Процессор: 4х ядерный Видео карта: минимум 512Мб. И желательно включить обработку изображения с помощью видео карты. (Деинтерлейсинг, подавление блочности и т.д.) ОЗУ: 2-4Гб

Проигрыватели. MPC-HC (Media Player Classic - Home Cinema) The KMPlayer (Korean Multimedia Player) (оптимальный вариант) Mirillis Splash PRO (Если что то проигрыватель сам может преобразовывать видео вплоть до частоты кадров монитора. Или тех же 60fps.)

^Прежде чем отписывать комментарии по качеству, прочитайте спойлер!

Внимание: Данные фильмы делаются только под заказ (кому нужно знает где) с обязательным указанием ||60FPS|| !

krutor.org

Скачать Призрачный патруль через торрент

Категория: Фильмы 2870 0 Торрент добавлен: 17-04-2015 Рейтинг:

Название: Призрачный патруль / R.I.P.D. 2013 / Фантастика, боевик, комедия / 95 мин.Страна: США Режиссер: Роберт Швентке В ролях: Райан Рейнольдс, Джефф Бриджес, Кевин Бейкон, Мэри-Луиз Паркер, Стефани Зостак, Роберт Неппер, Мариса Миллер, Джеймс Хонг, Майк О’Мэлли, Девин Рэтрей

Детективы из «Призрачного патруля» занимаются расследованием, находясь в потустороннем мире, отлавливают преступную нечисть. Молодой коп, которого погиб от рук преступника угодил в мир иной и подписывается служить следующие сто лет на «Призрачный патруль». Напарником у новобранца оказывается бывалый ветеран, который не понаслышке знает, как бороться с неупокоившимися духами.

Трейлер к фильму Призрачный патруль

Призрачный патруль скачать торрент

Качество: Blu-Ray Remux (1080p)Видео: MPEG-4 AVC, 32015 Кбит/с, 1920x1080, 23.976 кадр/сАудио: Русский (AC3, 6 ch, 384 Кбит/с), английский (DTS-HD MA, 6 ch, 3924 Кбит/с) Дублированный [iTunes] 24,24 Gb

скачать

3DКачество: BDRip (by Ash61)Контейнер: MKVФормат 3D: Half OverUnder / Вертикальная анаморфная стереопараПорядок ракурсов: левый ракурс первыйВидео кодек: x264Аудио кодек: AC3Видео: AVC / 23,976 fps / 1920х1080p / 7672 KbpsАудио: Русский / AC3 / 48 KHz / 5.1 ch / 384 Kbps (Дубляж - iTunes)

6,08 Gb

Формат: MKVВидео кодек: H.26xАудио кодек: AC3Видео: High/Level 4.1, MPEG-4 AVC, 1920 Pixels, 816 Pixels, 2.35:1 Аудио: AC3 / 384 KbpsПроф. (полное дублирование)

4,67 Gb

Качество: НDRipФормат: AVIВидео: 720x304 (2.37:1), 23.976 fps, XviD build 73 ~1769 kbps avg, 0.34 bit/pixelАудио: 48 kHz, AC3 Dolby Digital, 3/2 (L,C,R,l,r) + LFE ch, ~384.00 kbps avgДубляж - iTunes

скачать

Вы находитесь на странице, где можете совершенно бесплатно скачать фильм Призрачный патруль в хорошем качестве через торрент, в любом формате, который больше всего вам на данный момент подходит. Скачивание осуществляется через торрент, что означает максимально высокую скорость загрузки. Желаем Вам приятного просмотра!. Не забудь поделиться своими впечатлениями после того как посмотришь фильм Призрачный патруль.

Информация Посетители, находящиеся в группе Гости, не могут оставлять комментарии к данной публикации.

psp-gu.ru

Скачать фильм Призрачный патруль через торрент в хорошем качестве бесплатно 1080p 60fps от еnvy / NNNB

Format : MatroskaFormat version : Version 2File size : 8.14 GiBDuration : 1h 35mnOverall bit rate : 12.1 MbpsMovie name : Призрачный патруль.(2013).BDRip.1080p.[envy].[60fps]Encoded date : UTC 2015-08-21 05:47:53Writing application : mkvmerge v5.8.0 ('No Sleep / Pillow') built on Sep 2 2012 15:37:04Writing library : libebml v1.2.3 + libmatroska v1.3.0

VideoID : 1Format : AVCFormat/Info : Advanced Video CodecFormat profile : [email protected] settings, CABAC : YesFormat settings, ReFrames : 4 framesCodec ID : V_MPEG4/ISO/AVCDuration : 1h 35mnBit rate : 11.0 MbpsWidth : 1 920 pixelsHeight : 816 pixelsDisplay aspect ratio : 2.35:1Frame rate mode : ConstantFrame rate : 60.000 fpsColor space : YUVChroma subsampling : 4:2:0Bit depth : 8 bitsScan type : ProgressiveBits/(Pixel*Frame) : 0.117Stream size : 7.37 GiB (91%)Title : Призрачный патруль.(2013).BDRip.1080p.[envy].[60fps]Writing library : x264 core 146 r2538 121396cEncoding settings : cabac=1 / ref=4 / deblock=1:0:0 / analyse=0x3:0x113 / me=umh / subme=11 / psy=1 / psy_rd=1.00:0.00 / mixed_ref=1 / me_range=24 / chroma_me=1 / trellis=2 / 8x8dct=1 / cqm=0 / deadzone=21,11 / fast_pskip=1 / chroma_qp_offset=-2 / threads=12 / lookahead_threads=1 / sliced_threads=0 / nr=0 / decimate=1 / interlaced=0 / bluray_compat=0 / constrained_intra=0 / bframes=5 / b_pyramid=2 / b_adapt=2 / b_bias=0 / direct=3 / weightb=1 / open_gop=0 / weightp=2 / keyint=250 / keyint_min=25 / scenecut=40 / intra_refresh=0 / rc_lookahead=40 / rc=crf / mbtree=0 / crf=18.0 / qcomp=0.60 / qpmin=0 / qpmax=69 / qpstep=4 / vbv_maxrate=14000 / vbv_bufsize=14000 / crf_max=0.0 / nal_hrd=none / filler=0 / ip_ratio=1.40 / pb_ratio=1.30 / aq=3:1.00Language : EnglishDefault : YesForced : No

Audio #1ID : 2Format : AC-3Format/Info : Audio Coding 3Mode extension : CM (complete main)Format settings, Endianness : BigCodec ID : A_AC3Duration : 1h 35mnBit rate mode : ConstantBit rate : 448 KbpsChannel(s) : 6 channelsChannel positions : Front: L C R, Side: L R, LFESampling rate : 48.0 KHzCompression mode : LossyStream size : 307 MiB (4%)Title : DubLanguage : RussianDefault : YesForced : No

Audio #2ID : 3Format : AC-3Format/Info : Audio Coding 3Mode extension : CM (complete main)Format settings, Endianness : BigCodec ID : A_AC3Duration : 1h 35mnBit rate mode : ConstantBit rate : 448 KbpsChannel(s) : 6 channelsChannel positions : Front: L C R, Side: L R, LFESampling rate : 48.0 KHzCompression mode : LossyStream size : 307 MiB (4%)Title : EngLanguage : EnglishDefault : NoForced : No

Text #1ID : 4Format : UTF-8Codec ID : S_TEXT/UTF8Codec ID/Info : UTF-8 Plain TextTitle : Rus forcedLanguage : RussianDefault : YesForced : Yes

Text #2ID : 5Format : UTF-8Codec ID : S_TEXT/UTF8Codec ID/Info : UTF-8 Plain TextTitle : Rus fullLanguage : RussianDefault : NoForced : No

Text #3ID : 6Format : UTF-8Codec ID : S_TEXT/UTF8Codec ID/Info : UTF-8 Plain TextTitle : Eng fullLanguage : EnglishDefault : NoForced : No

Menu00:00:00.000 : en:00:00:00.00000:03:57.112 : en:00:03:57.11200:09:13.136 : en:00:09:13.13600:14:30.578 : en:00:14:30.57800:17:58.411 : en:00:17:58.41100:22:30.599 : en:00:22:30.59900:27:09.503 : en:00:27:09.50300:33:33.511 : en:00:33:33.51100:38:46.157 : en:00:38:46.15700:43:27.647 : en:00:43:27.64700:46:31.747 : en:00:46:31.74700:52:04.038 : en:00:52:04.03800:55:52.099 : en:00:55:52.09901:02:15.982 : en:01:02:15.98201:07:01.100 : en:01:07:01.10001:10:35.690 : en:01:10:35.69001:13:16.309 : en:01:13:16.30901:17:52.126 : en:01:17:52.12601:23:00.934 : en:01:23:00.93401:27:27.909 : en:01:27:27.909

piratbit.ru

Призрачный патруль (2013) скачать торрент в хорошем качестве бесплатно. Скачать Призрачный патруль (2013) через торрент фильм в HD качестве

Название: Призрачный патрульОригинальное название: R.I.P.D.Год выпуска: 2013Выпущено: СШАЖанр: фантастика, комедия, боевик, полицейскиеПродолжительность: 01:21:12Перевод: Дублированный (лицензия)

Качество видео: HDRip (лицензия)Формат видео: aviРазмер: 1400 MB

Режиссер: Роберт ШвенткеВ ролях: Райан Рейнольдс, Джефф Бриджес, Кевин Бейкон, Мэри-Луиз Паркер, Стефани Зостак, Роберт Неппер и др.

Описание: Фильм начинается с того момента, когда один молодой коп, которого звали Ник Уокер идет на смертельно опасное задание. Вроде бы все как обычно, но в один миг полицейский почувствовал очень сильную боль в районе сердца. Он даже ничего не смог понять, "очнувшись", парень понял, что он находится в каком то необычном месте. Рядом с ним сидела молодая девушка и рассказала парню, что его убили, а в данный момент он находится в мире мертвых. В мире мертвых все также как и в мире живых, есть служители закона, которые называются «Призрачный патруль». Эти ребята могут спускаться в наш мир, для того чтобы сражаться со злодеями. Их главные обязанности - очистить Землю от нечистой силы. Молодая девушка делает Нику предложение - стать одним из этих ребят и бороться со злом. Ник не в силах принять за истину всё, что с ним происходит, однако, через некоторое время его убеждают в том, что это все правда, и он даёт своё согласие. Только Ник поставил одно условие - ему помогут отыскать злодея, который его застрелил.

Парню придется нелегко, ведь у него в напарниках старая школа, точнее сказать - очень старая школа еще из времен ковбоев и индейцев. Старый и неординарный шериф решает все свои проблемы оружием, в то время как Ник делает это совершенно другими способами. Но это не самое страшное, преступники, с которыми борется наш «Призрачный патруль» не обычные злодеи которых привык видеть Ник в жизни - это монстры и тому подобные чудики, вырвавшиеся на свободу и блуждающие по Земле творя всякие ужасные вещи. Наших героев ожидают незабываемые приключения...

Рецензия от сайта Igrhost.ruЕдинственное что мне пришло в голову, когда я посмотрел фильм Призрачный патруль через торрент - это глянуть его ещё раз. Картина вышла динамичной и не расслабляла меня ни на одну секунду. Отличный фильм с большим количеством шуток и приколов. В текущем году из простых и не напрягающих голову фильмов этот мне кажется самый лучший.

В первую очередь хочется отметить пару недостатков, которые я увидел в фильме «Призрачный патруль»: Первое что сразу бросается в глаза - это схожесть с фильмом Люди в чёрном. Каркас фильма получился один в один: тайная организация, которая занимается поимкой неземных чудовищ, которые маскируются под людей, несерьёзность к делу и тонны сногсшибательного юмора, парочка копов (один из них старый волк, а второй дебютант). Однако, хочется сказать, что фильм Призрачный патруль скачать торрент получился намного лучше чем вторая и третья часть «Людей», больше чёткого и продуманного юмора и всяческих нелепых ситуаций, в которые постоянно вляпываются наши герои. Второе что не особо понравилось - это простота сюжета. Но в этом фильме это трудно назвать минусом, картина смотрится с лёгкостью и не напрягает наши итак уставшие от работы извилины.

А теперь можно отметить самое главное - это плюсы:  Картина захватывает своей энергичностью, скучать никто не будет, это я гарантирую. В то время когда нет погонь и перестрелок, появляются шутки и наоборот. Восхитительный юмор. В фильме его очень много, и самое главное, что все приколы в фильме Призрачный патруль торрент попадают прямо в цель. Бывают моменты, которые немного повторяются, но всё равно я смеялся. Самое главное, что все шутки и приколы не содраны с других фильмов, создатели здесь неплохо потрудились. Очень много погонь и перестрелок, между которыми бывают небольшие паузы в виде шуток. Поставлено всё это на высшем уровне, поэтому фильм хочется смотреть не один раз.  Актёрский состав тоже не подкачал, не буду описывать каждого, скажу в двух словах - со своей миссией они справились на твёрдую пятёрку. Итог: Очень лёгкий и не напрягающий извилины боевик с великолепным юмором, после которого останутся только положительные эмоции. Нет не единого намёка на драматичность. В общем, рекомендую смотреть всем ,не обдумывая!

igrhost.ru


Смотрите также