Скачать пиксели через торрент бесплатно в хорошем качестве


Скачать фильм Пиксели через торрент в хорошем качестве бесплатно 1080p

GeneralUnique ID : 238693733606182131976778551092985634282 (0xB392BDAC35E2F1839ED63D1018069DEA)Complete name : D:Pixels.2015.BDRip.1080p.Rus.Ukr.Eng.mkvFormat : MatroskaFormat version : Version 2File size : 7.76 GiBDuration : 1h 45mnOverall bit rate : 10.5 MbpsMovie name : Пиксели / Pixels (2015)Encoded date : UTC 2015-10-24 13:58:38Writing application : mkvmerge v5.8.0 ('No Sleep / Pillow') built on Sep 2 2012 15:37:04Writing library : libebml v1.2.3 + libmatroska v1.3.0Attachements : cover.png / logfile.log

VideoID : 1Format : AVCFormat/Info : Advanced Video CodecFormat profile : [email protected] settings, CABAC : YesFormat settings, ReFrames : 5 framesCodec ID : V_MPEG4/ISO/AVCDuration : 1h 45mnBit rate : 8 575 KbpsWidth : 1 920 pixelsHeight : 804 pixelsDisplay aspect ratio : 2.40:1Frame rate mode : ConstantFrame rate : 23.976 fpsColor space : YUVChroma subsampling : 4:2:0Bit depth : 8 bitsScan type : ProgressiveBits/(Pixel*Frame) : 0.232Stream size : 6.19 GiB (80%)Title : Пиксели / Pixels (2015)Writing library : x264 core 148 r2638+53 bb29004 t_mod_Custom [[email protected] X86_64]Encoding settings : cabac=1 / ref=5 / deblock=1:-3:-3 / analyse=0x3:0x133 / me=umh / subme=10 / psy=1 / fade_compensate=0.00 / psy_rd=1.00:0.00 / mixed_ref=1 / me_range=32 / chroma_me=1 / trellis=2 / 8x8dct=1 / cqm=0 / deadzone=21,11 / fast_pskip=0 / chroma_qp_offset=-2 / threads=12 / lookahead_threads=3 / sliced_threads=0 / nr=0 / decimate=0 / interlaced=0 / bluray_compat=0 / constrained_intra=0 / fgo=0 / bframes=10 / b_pyramid=2 / b_adapt=2 / b_bias=0 / direct=3 / weightb=1 / open_gop=0 / weightp=2 / keyint=240 / keyint_min=23 / scenecut=40 / intra_refresh=0 / rc_lookahead=80 / rc=2pass / mbtree=0 / bitrate=8575 / ratetol=1.0 / qcomp=0.70 / qpmin=0:0:0 / qpmax=69:69:69 / qpstep=4 / cplxblur=20.0 / qblur=0.5 / vbv_maxrate=50000 / vbv_bufsize=62500 / nal_hrd=none / filler=0 / ip_ratio=1.40 / pb_ratio=1.30 / aq=1:0.70 / aq-sensitivity=10.00 / aq-factor=1.00:1.00:1.00 / aq2=0 / aq3=0Language : EnglishDefault : YesForced : No

Audio #1ID : 2Format : AC-3Format/Info : Audio Coding 3Mode extension : CM (complete main)Format settings, Endianness : BigCodec ID : A_AC3Duration : 1h 45mnBit rate mode : ConstantBit rate : 640 KbpsChannel(s) : 6 channelsChannel positions : Front: L C R, Side: L R, LFESampling rate : 48.0 KHzBit depth : 16 bitsCompression mode : LossyStream size : 484 MiB (6%)Title : Дубляж, Blu-ray CEELanguage : RussianDefault : YesForced : No

Audio #2ID : 3Format : AC-3Format/Info : Audio Coding 3Mode extension : CM (complete main)Format settings, Endianness : BigCodec ID : A_AC3Duration : 1h 45mnBit rate mode : ConstantBit rate : 640 KbpsChannel(s) : 6 channelsChannel positions : Front: L C R, Side: L R, LFESampling rate : 48.0 KHzBit depth : 16 bitsCompression mode : LossyStream size : 484 MiB (6%)Title : Дубляж, Blu-ray CEELanguage : UkrainianDefault : NoForced : No

Audio #3ID : 4Format : AC-3Format/Info : Audio Coding 3Mode extension : CM (complete main)Format settings, Endianness : BigCodec ID : A_AC3Duration : 1h 45mnBit rate mode : ConstantBit rate : 640 KbpsChannel(s) : 6 channelsChannel positions : Front: L C R, Side: L R, LFESampling rate : 48.0 KHzBit depth : 16 bitsCompression mode : LossyStream size : 484 MiB (6%)Title : EnglishLanguage : EnglishDefault : NoForced : No

Text #1ID : 5Format : UTF-8Codec ID : S_TEXT/UTF8Codec ID/Info : UTF-8 Plain TextTitle : Russian (Forced)Language : RussianDefault : YesForced : No

Text #2ID : 6Format : UTF-8Codec ID : S_TEXT/UTF8Codec ID/Info : UTF-8 Plain TextTitle : RussianLanguage : RussianDefault : NoForced : No

Text #3ID : 7Format : UTF-8Codec ID : S_TEXT/UTF8Codec ID/Info : UTF-8 Plain TextTitle : Ukrainian (Forced)Language : UkrainianDefault : NoForced : No

Text #4ID : 8Format : UTF-8Codec ID : S_TEXT/UTF8Codec ID/Info : UTF-8 Plain TextTitle : UkrainianLanguage : UkrainianDefault : NoForced : No

Text #5ID : 9Format : UTF-8Codec ID : S_TEXT/UTF8Codec ID/Info : UTF-8 Plain TextTitle : English (Forced)Language : EnglishDefault : NoForced : No

Text #6ID : 10Format : UTF-8Codec ID : S_TEXT/UTF8Codec ID/Info : UTF-8 Plain TextTitle : EnglishLanguage : EnglishDefault : NoForced : No

Menu00:00:00.000 : :Chapter 0100:04:54.043 : :Chapter 0200:10:21.662 : :Chapter 0300:14:51.765 : :Chapter 0400:19:51.815 : :Chapter 0500:26:19.869 : :Chapter 0600:32:57.809 : :Chapter 0700:40:35.474 : :Chapter 0800:47:40.482 : :Chapter 0900:52:33.275 : :Chapter 1000:58:56.074 : :Chapter 1101:05:07.695 : :Chapter 1201:09:23.075 : :Chapter 1301:18:13.021 : :Chapter 1401:27:54.185 : :Chapter 1501:33:53.002 : :Chapter 16

piratbit.ru

Скачать фильм Пиксели через торрент в хорошем качестве бесплатно BDRip

piratbit.ru

Раздают: 5 [ 0 KB/s ]
Размер: 1.47 GB | Добавлен: 2 года назад | Торрент скачан:614 раз
Реклама Дарим 3000 рублей за регистрацию, не упусти свой шанс получить шикарный бонус!!!

24-10-2015 16:03 Пиксели Скачать торрент  

Пиксели / Pixels

Год выпуска: 2015Страна: СШАЖанр: фантастика, боевик, комедияПродолжительность: 01:45:37Перевод: Дублированный [Лицензия] субтитры: нет

Режиссер: Крис Коламбус

В ролях: Адам Сэндлер, Кевин Джеймс, Мишель Монахэн, Питер Динклэйдж, Джош Гад, Брайан Кокс, Мэттью Линтц, Шон Бин, Джейн Краковски, Дэн Эйкройд Очередное вторжение инопланетян на Землю… Вы скажете: «Что может быть банальнее?!». Да, если бы на этот раз они не предстали в виде героев вселенски популярных компьютерных игр. Сражаться с пришельцами призвана команда бывших геймеров, в числе которых: Президент Соединенных Штатов Америки; карлик-зэк, большой ценитель прекрасного пола; зануда-параноик, свято верящий в теорию вселенского заговора; профессиональный неудачник и циник, в детстве подававший большие надежды. А помогает новоиспеченным героям очаровательная ученая фея.

Качество: BDRipФормат видео: AVIВидео кодек: XvIDАудио кодек: AC3Видео: XviD, 1529 kb/s, 720x304, 25 fpsАудио: 48 kHz, AC3 Dolby Digital, 6/0 ch, ~448.00 kbps avg [DUB]

Скачать Пиксели через торрент http://i69.fastpic.ru/big/2015/0728/c2/686ec6effe426f889fa5ccc3eeb9cbc2.jpg Скачать фильм Пиксели через торрент бесплантно в хорошем качестве В ролях: Адам Сэндлер, Кевин Джеймс, Мишель Монахэн, Питер Динклэйдж, Джош Гад, Брайан Кокс, Мэттью Линтц, Шон Бин, Джейн Краковски, Дэн ... 2015-10-24 16:03 9.2 10 17

Loading...

Loading...

Рекламный пират

28-10-2015 13:17 Пиксели Скачать торрент  

со вшитыми субтитрами на иностраную речь когда будут

Дорогой пользователь! Огромная просьба, поблагодарите релизера, оцените раздачу и оставьте свои комментарий, если Вы скачали Пиксели через торрент бесплатно! Внесите свою лепту в развитие PiratBit!

Комментировать посты могут только пользователи прошедшие не сложную регистрацию

Пиксели через торрент Скачать бесплатно Пиксели Пиксели скачать торрент Пиксели смотреть онлайн Cкачать фильм Пиксели бесплатно Пиксели скачать торрент в хорошем качестве Пиксели смотреть онлайн бесплатно в хорошем качестве

Вы не можете начинать темыВы не можете отвечать на сообщенияВы не можете редактировать свои сообщенияВы не можете удалять свои сообщенияВы не можете голосовать в опросахВы не можете прикреплять файлы к сообщениямВы можете скачивать файлы

Скачать фильм Пиксели через торрент в хорошем качестве бесплатно BDRip-AVC от sokol_ok

ОбщееУникальный идентификатор : 212926423703222332860953097094616379685 (0xA03023359164F5EF99CF37B38280F125)Полное имя : N:\Rips\Pixels\Pixels.2015.BDRip-AVC.Dub.745Mb...stalkerok.new-team.mkvФормат : MatroskaРазмер файла : 746 МбайтПродолжительность : 1 ч. 45 м.Общий поток : 985 Кбит/секНазвание фильма : Pixels (2015) (New-Team) (Rip by Stalker oK)Дата кодирования : UTC 2015-10-24 19:29:53Программа кодирования : mkvmerge v7.9.0 ('Birds') 64bitБиблиотека кодирования : libebml v1.3.1 + libmatroska v1.4.2

ВидеоИдентификатор : 1Формат : AVCФормат/Информация : Advanced Video CodecПрофиль формата : [email protected]Параметр CABAC формата : ДаПараметр ReFrames формата : 14 кадрыИдентификатор кодека : V_MPEG4/ISO/AVCПродолжительность : 1 ч. 45 м.Номинальный битрейт : 919 Кбит/секШирина : 742 пикс.Высота : 310 пикс.Соотношение сторон : 2,35:1Частота кадров : 23,976 кадр/секЦветовое пространство : YUVПодвыборка цветности : 4:2:0Битовая глубина : 8 битТип развёртки : ПрогрессивнаяБит/(Пиксели*Кадры) : 0.167Библиотека кодирования : x264 core 146 r2538kMod 121396cНастройки программы : cabac=1 / ref=14 / deblock=1:-3:-2 / analyse=0x3:0x133 / me=umh / subme=11 / psy=1 / fade_compensate=0.00 / psy_rd=1.00:0.10 / mixed_ref=1 / me_range=48 / chroma_me=1 / trellis=2 / 8x8dct=1 / cqm=0 / deadzone=21,11 / fast_pskip=0 / chroma_qp_offset=-3 / threads=12 / lookahead_threads=2 / sliced_threads=0 / nr=0 / decimate=0 / interlaced=0 / bluray_compat=0 / constrained_intra=0 / fgo=0 / bframes=15 / b_pyramid=2 / b_adapt=2 / b_bias=0 / direct=3 / weightb=1 / open_gop=0 / weightp=2 / keyint=240 / keyint_min=23 / scenecut=40 / intra_refresh=0 / rc_lookahead=60 / rc=2pass / mbtree=0 / bitrate=919 / ratetol=1.0 / qcomp=0.70 / qpmin=0 / qpmax=69 / qpstep=4 / cplxblur=20.0 / qblur=0.5 / vbv_maxrate=50000 / vbv_bufsize=62500 / nal_hrd=none / filler=0 / ip_ratio=1.40 / pb_ratio=1.30 / aq=3:0.95

АудиоИдентификатор : 2Формат : AACФормат/Информация : Advanced Audio CodecПрофиль формата : HE-AAC / LCИдентификатор кодека : A_AACПродолжительность : 1 ч. 45 м.Канал(ы) : 2 канала(ов)Расположение каналов : Front: L RЧастота : 48,0 КГц / 24,0 КГцМетод сжатия : С потерямиЗадержка видео : 31 мс.Язык : Russian

Текст #1Идентификатор : 3Формат : UTF-8Идентификатор кодека : S_TEXT/UTF8Идентификатор кодека/Информация : UTF-8 Plain TextЗаголовок : ForcedЯзык : Russian

Текст #2Идентификатор : 4Формат : UTF-8Идентификатор кодека : S_TEXT/UTF8Идентификатор кодека/Информация : UTF-8 Plain TextЗаголовок : FullЯзык : Russian

Текст #3Идентификатор : 5Формат : UTF-8Идентификатор кодека : S_TEXT/UTF8Идентификатор кодека/Информация : UTF-8 Plain TextЗаголовок : FullЯзык : Ukrainian

Текст #4Идентификатор : 6Формат : UTF-8Идентификатор кодека : S_TEXT/UTF8Идентификатор кодека/Информация : UTF-8 Plain TextЗаголовок : ForcedЯзык : English

Текст #5Идентификатор : 7Формат : UTF-8Идентификатор кодека : S_TEXT/UTF8Идентификатор кодека/Информация : UTF-8 Plain TextЗаголовок : fullЯзык : English

Меню00:00:00.000 : en:Chapter 100:04:54.043 : en:Chapter 200:10:21.662 : en:Chapter 300:14:51.765 : en:Chapter 400:19:51.815 : en:Chapter 500:26:19.869 : en:Chapter 600:32:57.809 : en:Chapter 700:40:35.474 : en:Chapter 800:47:40.482 : en:Chapter 900:52:33.275 : en:Chapter 1000:58:56.074 : en:Chapter 1101:05:07.695 : en:Chapter 1201:09:23.075 : en:Chapter 1301:18:13.021 : en:Chapter 1401:27:54.185 : en:Chapter 1501:33:53.002 : en:Chapter 16

piratbit.ru

Скачать фильм Пиксели через торрент в хорошем качестве бесплатно 720p

ОбщееУникальный идентификатор : 231516221936394086523911837442555854728 (0xAE2C67068FBD29D99902D00DB57D3F88)Полное имя : E:\Торренты\Pixels 60fps.mkvФормат : MatroskaВерсия формата : Version 4 / Version 2Размер файла : 4,74 ГбайтПродолжительность : 1 ч. 45 м.Общий поток : 6412 Кбит/секДата кодирования : UTC 2015-11-04 15:20:29Программа кодирования : mkvmerge v6.9.1 ('Blue Panther') 64bit built on Apr 18 2014 18:23:38Библиотека кодирования : libebml v1.3.0 + libmatroska v1.4.1

ВидеоИдентификатор : 1Формат : AVCФормат/Информация : Advanced Video CodecПрофиль формата : [email protected]Параметр CABAC формата : ДаПараметр ReFrames формата : 6 кадровИдентификатор кодека : V_MPEG4/ISO/AVCПродолжительность : 1 ч. 45 м.Битрейт : 5644 Кбит/секШирина : 1280 пикселейВысота : 544 пикселяСоотношение сторон : 2,35:1Режим частоты кадров : ПостоянныйЧастота кадров : 59,880 кадров/секЧастота кадров в оригинале : 59,940 кадров/секЦветовое пространство : YUVСубдискретизация насыщенности : 4:2:0Битовая глубина : 8 битТип развёртки : ПрогрессивнаяБит/(Пиксели*Кадры) : 0.135Размер потока : 4,17 Гбайт (88%)Заголовок : Release by mimokБиблиотека кодирования : x264 core 130 r2273 b3065e6Настройки программы : cabac=1 / ref=6 / deblock=1:0:0 / analyse=0x3:0x133 / me=umh / subme=8 / psy=1 / psy_rd=1.00:0.15 / mixed_ref=1 / me_range=20 / chroma_me=1 / trellis=2 / 8x8dct=1 / cqm=0 / deadzone=21,11 / fast_pskip=0 / chroma_qp_offset=-3 / threads=6 / lookahead_threads=2 / sliced_threads=0 / nr=0 / decimate=0 / interlaced=0 / bluray_compat=0 / constrained_intra=0 / bframes=8 / b_pyramid=2 / b_adapt=2 / b_bias=0 / direct=1 / weightb=1 / open_gop=0 / weightp=2 / keyint=250 / keyint_min=25 / scenecut=40 / intra_refresh=0 / rc=crf / mbtree=0 / crf=18.0 / qcomp=0.63 / qpmin=10 / qpmax=51 / qpstep=4 / ip_ratio=1.40 / pb_ratio=1.30 / aq=1:1.20Default : ДаForced : Нет

АудиоИдентификатор : 2Формат : AC-3Формат/Информация : Audio Coding 3Расширение режима : CM (complete main)Параметр Endianness формата : BigИдентификатор кодека : A_AC3Продолжительность : 1 ч. 45 м.Вид битрейта : ПостоянныйБитрейт : 640 Кбит/секКаналы : 6 каналовРасположение каналов : Front: L C R, Side: L R, LFEЧастота : 48,0 КГцБитовая глубина : 16 битМетод сжатия : С потерямиРазмер потока : 484 Мбайт (10%)Заголовок : DubЯзык : RussianDefault : ДаForced : Нет

Текст #1Идентификатор : 3Формат : UTF-8Идентификатор кодека : S_TEXT/UTF8Идентификатор кодека/Информация : UTF-8 Plain TextЗаголовок : fullЯзык : RussianDefault : ДаForced : Нет

Текст #2Идентификатор : 4Формат : UTF-8Идентификатор кодека : S_TEXT/UTF8Идентификатор кодека/Информация : UTF-8 Plain TextЗаголовок : fullЯзык : EnglishDefault : НетForced : Нет

piratbit.ru


Смотрите также