Скачать паркер через торрент в хорошем качестве


Скачать фильм Паркер (2012) через торрент

gig-torrent.net

29 января 2016 17:14 Паркер / Parker (2013) HDRip от Кинорадиомагия | КПК | Лицензия .torrent   [Информация о файле (нажмите для просмотра)] Кодек: х264Качество: HDRip | КПКВидео: MPEG-4 AVC, 480 х 200, 23.976 fps, 450 Кбит/сАудио: ААС LC, 2 ch, 128 Кбит/с 492,82 Mb 19 1
29 января 2016 17:14 Паркер / Parker (2013) BDRip 1080p | US Transfer .torrent   [Информация о файле (нажмите для просмотра)] Перевод: Дублированный (Лицензия) + ОригиналКодек: x264Качество: BDRip (источник: Blu-ray Disc)Видео: 1920x800 (2,40:1), 23.976 fps, 8081 kbpsАудио #1: AC-3, 6 ch, 640 kbps (Rus)Аудио #2: AC-3, 6 ch, 640 kbps (Eng)Субтитры: Русские (Forced), Русские, АнглийскиеВидео: Идентификатор : 1 Формат : AVC Формат/Информация : Advanced Video Codec Профиль формата : [email protected] Параметр CABAC формата : Да Параметр ReFrames формата : 5 кадров Идентификатор кодека : V_MPEG4/ISO/AVC Продолжительность : 1 ч. 58 м. Битрейт : 8081 Кбит/сек Ширина : 1920 пикселей Высота : 800 пикселей Соотношение сторон : 2,40:1 Режим частоты кадров : Постоянный Частота кадров : 23,976 кадра/сек Цветовое пространство : YUV Субдискретизация насыщенности : 4:2:0 Битовая глубина : 8 бит Тип развёртки : Прогрессивная Бит/(Пиксели*Кадры) : 0.219 Размер потока : 6,54 Гбайт (84%) Заголовок : Release by N1NT3NDO Библиотека кодирования : x264 core 130 r2273 b3065e6 Настройки программы : cabac=1 / ref=5 / deblock=1:-3:-3 / analyse=0x3:0x113 / me=umh / subme=10 / psy=1 / psy_rd=1.00:0.00 / mixed_ref=1 / me_range=32 / chroma_me=1 / trellis=2 / 8x8dct=1 / cqm=0 / deadzone=21,11 / fast_pskip=0 / chroma_qp_offset=-2 / threads=12 / lookahead_threads=1 / sliced_threads=0 / nr=0 / decimate=0 / interlaced=0 / bluray_compat=0 / constrained_intra=0 / bframes=5 / b_pyramid=2 / b_adapt=2 / b_bias=0 / direct=2 / weightb=1 / open_gop=0 / weightp=2 / keyint=240 / keyint_min=23 / scenecut=40 / intra_refresh=0 / rc_lookahead=80 / rc=2pass / mbtree=1 / bitrate=8081 / ratetol=1.0 / qcomp=0.60 / qpmin=0 / qpmax=69 / qpstep=4 / cplxblur=20.0 / qblur=0.5 / ip_ratio=1.40 / aq=1:0.70 Язык : English Default : Да Forced : НетАудио #1: Идентификатор : 2 Формат : AC-3 Формат/Информация : Audio Coding 3 Расширение режима : CM (complete main) Параметр Endianness формата : Big Идентификатор кодека : A_AC3 Продолжительность : 1 ч. 58 м. Вид битрейта : Постоянный Битрейт : 640 Кбит/сек Каналы : 6 каналов Расположение каналов : Front: L C R, Side: L R, LFE Частота : 48,0 КГц Битовая глубина : 16 бит Метод сжатия : С потерями Размер потока : 543 Мбайт (7%) Заголовок : Rus Язык : Russian Default : Да Forced : НетАудио #2: Идентификатор : 3 Формат : AC-3 Формат/Информация : Audio Coding 3 Расширение режима : CM (complete main) Параметр Endianness формата : Big Идентификатор кодека : A_AC3 Продолжительность : 1 ч. 58 м. Вид битрейта : Постоянный Битрейт : 640 Кбит/сек Каналы : 6 каналов Расположение каналов : Front: L C R, Side: L R, LFE Частота : 48,0 КГц Битовая глубина : 16 бит Метод сжатия : С потерями Размер потока : 543 Мбайт (7%) Заголовок : Eng Язык : English Default : Нет Forced : Нет 7,76 Gb 52 5
29 января 2016 17:14 Паркер / Parker (2013) НDRip от Scarabey | D | Лицензия .torrent   [Информация о файле (нажмите для просмотра)] Перевод: Профессиональный (дублированный) - ЛицензияВидео: 640x272 (2.35:1), 23.976 fps, XviD build 65 ~778 kbps avg, 0.19 bit/pixelАудио: 48 kHz, MPEG Layer 3, 2 ch, ~128.00 kbps avg 777,39 Mb 60 1
29 января 2016 17:14 Паркер / Parker (2013) НDRip от Scarabey | D | Лицензия .torrent   [Информация о файле (нажмите для просмотра)] Перевод: Профессиональный (дублированный) - ЛицензияВидео: 720x304 (2.37:1), 23.976 fps, XviD build 65 ~2153 kbps avg, 0.41 bit/pixelАудио: 48 kHz, AC3 Dolby Digital, 3/2 (L,C,R,l,r) + LFE ch, ~448.00 kbps avg 2,16 Gb 64 1
29 января 2016 17:14 Паркер / Parker (2013) НDRip от Scarabey | D | Лицензия .torrent   [Информация о файле (нажмите для просмотра)] Перевод: Профессиональный (дублированный) - ЛицензияВидео: 720x304 (2.37:1), 23.976 fps, XviD build 65 ~1293 kbps avg, 0.25 bit/pixelАудио: 48 kHz, AC3 Dolby Digital, 3/2 (L,C,R,l,r) + LFE ch, ~448.00 kbps avg 1,45 Gb 517 25
29 января 2016 17:14 Паркер / Parker (2013) HDRip-AVC | D .torrent   [Информация о файле (нажмите для просмотра)] Перевод: Профессиональный (дублированный)Кодек: H.264Качество: HDRip-AVC[BDRip 720p]Видео: 800x336 (2.40:1), 23.976 fps, x.264 ~805 kbps, 0.125 bit/pixelЗвук: 48 / 24 KHz, AAC-HE, 2/0 (L,R) ch, ~72.00 kbps 745,71 Mb 23 1
29 января 2016 17:14 Паркер / Parker (2013) HDRip от New-Team | iPhone .torrent   [Информация о файле (нажмите для просмотра)] Перевод: Профессиональный (дублированный)Кодек: H.264Качество: HDRipИсходник: BDRipВидео: 640x352 (852х352 анаморф), ~2.4:1, 1500 Kbps, 23.976 fpsЗвук: Русская дорожка, AAC, 2 канала, 48.0 KHz, 128 Kbps, F L,R Английская дорожка, AAC, 2 канала, 48.0 KHz, 128 Kbps, F L,RСубтитры: Русские и Английские 1,44 Gb 5 4
29 января 2016 17:14 Паркер / Parker (2013) BDRip от HQCLUB | Лицензия | US Transfer .torrent   [Информация о файле (нажмите для просмотра)] Перевод: Профессиональный (полное дублирование) + Оригинальная звуковая дорожка +Авторский одноголосый А.ГавриловСубтитры: Русские (voronine), Английские (full, SDH, SDH-COLORED, Commentary) (внешние srt*)Формат: AVIКачество: BDRip (источник / Blu-ray Disc US / 1080p)Видео: 720x304 (2.37:1), 23,976 fps, XviD build 65 ~1733 kbps avg, 0.33 bit/pixelАудио #1: 48 kHz, AC3 Dolby Digital, 3/2 (L,C,R,l,r) + LFE ch, ~448.00 kbps avgАудио #2: 48 kHz, AC3 Dolby Digital, 3/2 (L,C,R,l,r) + LFE ch, ~448.00 kbps avgАудио #3: 48 kHz, AC3 Dolby Digital, 3/2 (L,C,R,l,r) + LFE ch, ~448.00 kbps avg(отдельно, http)Аудио #4: 48 kHz, AC3 Dolby Digital, 3/2 (L,C,R,l,r) + LFE ch, ~448.00 kbps avg(отдельно, http) 2,19 Gb 82 2
29 января 2016 17:14 Паркер / Parker (2013) HDRip от Torrent-Xzona | КПК .torrent   [Информация о файле (нажмите для просмотра)] Перевод: Дублированный [Лицензия]Кодек: х264Качество: HDRip | КПКВидео: 640х264, 23,976 кадра/сек, 330 Кбит/секЗвук: ААС LC, 2 ch, 128 Кбит/сек 382,34 Mb 5 5
29 января 2016 17:14 Паркер / Parker (2013) BDRip-AVC от FREEISLAND .torrent   [Информация о файле (нажмите для просмотра)] Перевод: ДублированныйКодек: H.264Качество: BDRip-AVCВидео: H.264, 720x296 pix., 966 Kbps, 23.976 fps, [email protected]Звук: AC-3, 48.0 KHz, 384 Kbps, 6 channels, 16 bitsСубтитры: Отсутствуют 1,06 Gb 2 4
29 января 2016 17:14 Паркер / Parker (2013) BDRip 1080p | US transfer .torrent   [Информация о файле (нажмите для просмотра)] Перевод: русский дубляж[Лицензия, BD RUS]Контейнер: MKVВидео: AVC / [email protected] / 23,976 fps / 1920x800p (2.40:1) / 15,0 Mbps / 0.407Аудио 1: AC3 / 5.1 ch / 640 kbps /Русский дубляж, BD RUSАудио 2: AC3 / 5.1 ch / 640 kbps /Английский original, BD USСубтитры: [softsub SRT]Видео: Идентификатор : 1 Формат : AVC Формат/Информация : Advanced Video Codec Профиль формата : [email protected] Параметр CABAC формата : Да Параметр ReFrames формата : 5 кадров Идентификатор кодека : V_MPEG4/ISO/AVC Продолжительность : 1 ч. 58 м. Битрейт : 15,0 Мбит/сек Ширина : 1920 пикселей Высота : 800 пикселей Соотношение сторон : 2,40:1 Режим частоты кадров : Постоянный Частота кадров : 23,976 кадра/сек Цветовое пространство : YUV Субдискретизация насыщенности : 4:2:0 Битовая глубина : 8 бит Тип развёртки : Прогрессивная Бит/(Пиксели*Кадры) : 0.407 Размер потока : 12,2 Гбайт (90%) Заголовок : Parker (2013) Библиотека кодирования : x264 core 130 r2273 b3065e6 Настройки программы : cabac=1 / ref=5 / deblock=1:-1:-1 / analyse=0x3:0x113 / me=tesa / subme=11 / psy=1 / psy_rd=1.00:0.00 / mixed_ref=1 / me_range=32 / chroma_me=1 / trellis=2 / 8x8dct=1 / cqm=0 / deadzone=21,11 / fast_pskip=0 / chroma_qp_offset=-2 / threads=12 / lookahead_threads=1 / sliced_threads=0 / nr=0 / decimate=0 / interlaced=0 / bluray_compat=0 / constrained_intra=0 / bframes=6 / b_pyramid=2 / b_adapt=2 / b_bias=0 / direct=3 / weightb=1 / open_gop=0 / weightp=2 / keyint=250 / keyint_min=23 / scenecut=40 / intra_refresh=0 / rc_lookahead=90 / rc=2pass / mbtree=1 / bitrate=15000 / ratetol=1.0 / qcomp=0.60 / qpmin=0 / qpmax=69 / qpstep=4 / cplxblur=20.0 / qblur=0.5 / vbv_maxrate=40000 / vbv_bufsize=30000 / nal_hrd=none / ip_ratio=1.40 / aq=1:1.00 Язык : English Default : Да Forced : НетАудио #1: Идентификатор : 2 Формат : AC-3 Формат/Информация : Audio Coding 3 Расширение режима : CM (complete main) Параметр Endianness формата : Big Идентификатор кодека : A_AC3 Продолжительность : 1 ч. 58 м. Вид битрейта : Постоянный Битрейт : 640 Кбит/сек Каналы : 6 каналов Расположение каналов : Front: L C R, Side: L R, LFE Частота : 48,0 КГц Битовая глубина : 16 бит Метод сжатия : С потерями Размер потока : 543 Мбайт (4%) Заголовок : AC3 / 5.1 ch / 640 kbps / Русский дубляж, BD RUS Язык : Russian Default : Да Forced : НетАудио #2: Идентификатор : 3 Формат : AC-3 Формат/Информация : Audio Coding 3 Расширение режима : CM (complete main) Параметр Endianness формата : Big Идентификатор кодека : A_AC3 Продолжительность : 1 ч. 58 м. Вид битрейта : Постоянный Битрейт : 640 Кбит/сек Каналы : 6 каналов Расположение каналов : Front: L C R, Side: L R, LFE Частота : 48,0 КГц Битовая глубина : 16 бит Метод сжатия : С потерями Размер потока : 543 Мбайт (4%) Заголовок : AC3 / 5.1 ch / 640 kbps / Английский original, BD US Язык : English Default : Нет Forced : Нет 13,49 Gb 15 1
29 января 2016 17:14 Паркер / Parker (2013) BDRip 720p от leonardo 59 | Лицензия .torrent   [Информация о файле (нажмите для просмотра)] Перевод: Профессиональный (полное дублирование) | ЛицензияФормат: MKVВидео кодек: MPEG-4 AVC Аудио кодек: AC3Видео: AVC, 1280x532 (2.40:1) at 23.976 fps, AVC at 3694 kbps avg, 0.226 bit/pixelАудио: AC3, 6ch 448 kbps 3,5 Gb 41 2
29 января 2016 17:14 Паркер / Parker (2013) BDRip-AVC от ExKinoRay | A, D | Лицензия .torrent   [Информация о файле (нажмите для просмотра)] Перевод: Дублированный (лицензия), авторский одноголосый (закадровый) ГавриловСубтитры: Русские, английскиеКодек: H.264Качество: BDRip (AVC) (Blu-Ray Remux (1080p))Видео: MPEG-4 AVC, 1800 Кбит/с, 1024x424Звук: Аудио №1: Русский (AC3, 6 ch, 448 Кбит/с) - Дублированный Аудио №2: Русский (AC3, 6 ch, 448 Кбит/с) - Авторский одноголосый (Андрей Гаврилов) Аудио №3: Английский (AC3, 6 ch, 448 Кбит/с) 2,61 Gb 4 3
29 января 2016 17:14 Паркер / Parker (2013) BDRip 720p от HQ-ViDEO | US-transfer | Лицензия .torrent   [Информация о файле (нажмите для просмотра)] Перевод: Профессиональный дублированный /Лицензия/Субтитры: Русские, Английские|отключаемые, *.srt|Видео: x.264, 1280x534 (2.40:1), ~5749 kbps avg, 23,976 fpsАудио #1: AC3 Dolby Digital, 48 KHz, ~640 kbps, 3/2 (L,C,R,l,r) + LFE ch/RUS]/Аудио #2: AC3 Dolby Digital, 48 KHz, ~640 kbps, 3/2 (L,C,R,l,r) + LFE ch/ENG/ 5,83 Gb 8 3
29 января 2016 17:14 Паркер / Parker (2013) BDRip от HQ-ViDEO | US-transfer | Лицензия .torrent   [Информация о файле (нажмите для просмотра)] Перевод: Профессиональный дублированный /Лицензия/Субтитры: Русские, АнглийскиеВидео: XviD, 720x304 (2.37:1), ~2175 kbps avg, 23,976 fpsАудио #1: AC3 Dolby Digital, 48 KHz, ~448 kbps, 3/2 (L,C,R,l,r) + LFE ch/RUS]/Аудио #2: AC3 Dolby Digital, 48 KHz, ~448 kbps, 3/2 (L,C,R,l,r) + LFE ch/ENG, скачать отдельно с disk.yandex.ru/ 2,18 Gb 9 2
29 января 2016 17:14 Паркер / Parker (2013) Blu-Ray 1080p | Лицензия .torrent   [Информация о файле (нажмите для просмотра)] Перевод: Дублированный [лицензия]Качество: Blu-Ray (1080p)Видео: MPEG-4 AVC, 21881 Кбит/с, 1920x1080, 23.976 кадр/сАудио: Русский (DTS-HD MA, 6 ch, 2288 Кбит/с) 21,21 Gb 3 1
29 января 2016 17:14 Паркер / Parker (2013) BDRip-AVC от potroks | D | Лицензия .torrent   [Информация о файле (нажмите для просмотра)] Перевод: Профессиональный (полное дублированиеСубтитры: Английские, русскиеКачество: BDRip-AVC [Parker 2013 1080p BluRay REMUX DTS-HD MA 5.1-PublicHD]Формат: MKVВидео: H.264, 984x408 (2,40:1), 23,976 fps, 1803 Кbps, 0.187 bit/pixelАудио#1: 48 kHz, AC3 Dolby Digital, 3/2 (L,C,R,l,r) + LFE ch, ~448.00 kbps avg |RUSАудио#2: 48 kHz, AC3 Dolby Digital, 3/2 (L,C,R,l,r) + LFE ch, ~384.00 kbps avg |ENGВидео: Идентификатор : 1 Формат : AVC Формат/Информация : Advanced Video Codec Профиль формата : [email protected] Параметр CABAC формата : Да Параметр ReFrames формата : 12 кадров Идентификатор кодека : V_MPEG4/ISO/AVC Продолжительность : 1 ч. 58 м. Битрейт : 1803 Кбит/сек Ширина : 984 пикселя Высота : 408 пикселей Соотношение сторон : 2,40:1 Режим частоты кадров : Постоянный Частота кадров : 23,976 кадра/сек Цветовое пространство : YUV Субдискретизация насыщенности : 4:2:0 Битовая глубина : 8 бит Тип развёртки : Прогрессивная Бит/(Пиксели*Кадры) : 0.187 Размер потока : 1,45 Гбайт (66%) Заголовок : Parker Библиотека кодирования : x264 core 125 r2208 d9d2288 Настройки программы : cabac=1 / ref=12 / deblock=1:-2:-1 / analyse=0x3:0x133 / me=umh / subme=11 / psy=1 / psy_rd=1.05:0.00 / mixed_ref=1 / me_range=32 / chroma_me=1 / trellis=2 / 8x8dct=1 / cqm=0 / deadzone=21,11 / fast_pskip=0 / chroma_qp_offset=-2 / threads=9 / lookahead_threads=1 / sliced_threads=0 / nr=0 / decimate=1 / interlaced=0 / bluray_compat=0 / constrained_intra=0 / bframes=13 / b_pyramid=2 / b_adapt=2 / b_bias=0 / direct=3 / weightb=1 / open_gop=0 / weightp=2 / keyint=240 / keyint_min=23 / scenecut=40 / intra_refresh=0 / rc_lookahead=100 / rc=2pass / mbtree=1 / bitrate=1803 / ratetol=1.0 / qcomp=0.70 / qpmin=0 / qpmax=69 / qpstep=4 / cplxblur=20.0 / qblur=0.5 / vbv_maxrate=20000 / vbv_bufsize=20000 / nal_hrd=none / ip_ratio=1.35 / aq=2:0.80 Язык : English Default : Да Forced : НетАудио #1: Идентификатор : 2 Формат : AC-3 Формат/Информация : Audio Coding 3 Расширение режима : CM (complete main) Параметр Endianness формата : Big Идентификатор кодека : A_AC3 Продолжительность : 1 ч. 58 м. Вид битрейта : Постоянный Битрейт : 448 Кбит/сек Каналы : 6 каналов Расположение каналов : Front: L C R, Side: L R, LFE Частота : 48,0 КГц Битовая глубина : 16 бит Метод сжатия : С потерями Размер потока : 380 Мбайт (17%) Заголовок : Dub | DD 5.1 @ 448 kbps Язык : Russian Default : Да Forced : ДаАудио #2: Идентификатор : 3 Формат : AC-3 Формат/Информация : Audio Coding 3 Расширение режима : CM (complete main) Параметр Endianness формата : Big Идентификатор кодека : A_AC3 Продолжительность : 1 ч. 58 м. Вид битрейта : Постоянный Битрейт : 384 Кбит/сек Каналы : 6 каналов Расположение каналов : Front: L C R, Side: L R, LFE Частота : 48,0 КГц Битовая глубина : 16 бит Метод сжатия : С потерями Размер потока : 326 Мбайт (15%) Заголовок : Original | DD 5.1 @ 384 kbps Язык : English Default : Нет Forced : Нет 2,18 Gb 22 1
29 января 2016 17:14 Паркер / Parker (2013) BDRip-AVC от potroks | А .torrent   [Информация о файле (нажмите для просмотра)] Перевод: Авторский (одноголосый закадровый)Субтитры: Английские, русскиеКачество: BDRip-AVC [Parker 2013 1080p BluRay REMUX DTS-HD MA 5.1-PublicHD]Формат: MKVВидео: H.264, 984x408 (2,40:1), 23,976 fps, 1803 Кbps, 0.187 bit/pixelАудио#1: 48 kHz, AC3 Dolby Digital, 3/2 (L,C,R,l,r) + LFE ch, ~448.00 kbps avg |RUSАудио#2: 48 kHz, AC3 Dolby Digital, 3/2 (L,C,R,l,r) + LFE ch, ~384.00 kbps avg |ENG 2,18 Gb 2 4
29 января 2016 17:14 Паркер / Parker (2013) HDRip от New-Team | Гаврилов .torrent   [Информация о файле (нажмите для просмотра)] Перевод: Авторский (одноголосый, закадровый) - ГавриловВидео: 720x304 (2.37:1), 23.976 fps, XviD build 50 ~1300 kbps avg, 0.25 bit/pixelАудио: 48 kHz, AC3 Dolby Digital, 3/2 (L,C,R,l,r) + LFE ch, ~448.00 kbps avg 1,46 Gb 5 3
29 января 2016 17:14 Паркер / Parker (2013) DVD9 R5 от New-Team | D | лицензия .torrent   [Информация о файле (нажмите для просмотра)] Перевод: Профессиональный (полное дублирование)Субтитры: нетКачество: DVD9 R5Формат: DVD VideoВидео: PAL 16x9 (720х576) VBR ~ 8140 kbps, Auto LetterboxedАудио: 48 kHz, Dolby AC3, 6 ch,256.00 kbps, русский 6,78 Gb 1 2

Скачать фильм Паркер через торрент в хорошем качестве бесплатно BDRip

piratbit.ru

Размер: 1.46 GB | Добавлен: 4 года 4 мес. назад | Торрент скачан:1762 раза
Реклама Дарим 3000 рублей за регистрацию, не упусти свой шанс получить шикарный бонус!!!

15-06-2013 09:51 Паркер Скачать торрент  

Паркер / Parker
  • Год выпуска
  • :2013
  • Страна: США
  • Жанр:боевик, криминал
  • Продолжительность: 01:58:40
  • Перевод:Профессиональный (полное дублирование)лицензия BD
    • Режиссер
    • : Тейлор Хэкфорд / Taylor Hackford
    • Продюсер: Лес Александр / Les Alexander, Джонатан Митчелл / Jonathan Mitchell, Стив Чэсмэн / Steve Chasman, Тейлор Хэкфорд / Taylor Hackford, Сидни Киммел / Sidney Kimmel
    • Сценарий:Джон Дж. МакЛафлин / John J. McLaughlin, Дональд Э. Уэстлейк / Donald E. Westlake
  • В ролях
  • :Джейсон Стэйтем (Parker), Дженнифер Лопез (Leslie Rodgers), Майкл Чиклис (Melander), Ник Нолти (Hurley), Эмма Бут (Claire), Майка А. Хауптмен (August Hardwicke), Уенделл Пирс (Carlson), Клифтон Коллинз мл. (Ross), Дэниэл Бернхард (Kroll), Бобби Каннавале (Jake Fernandez), Пэтти ЛюПон (Ascension), Карлос Карраско (Norte)
    • Описание
    • :Главный герой - профессиональный вор, руководствующийся собственным моральным кодексом, но способный запросто отправить на тот свет любого, кто перейдет ему дорогу.
  • Рейтингkinopoisk.ru: 6.583 (15 341)imdb.com: 6.10 (29 177)MPAA: R - Лицам до 17 лет обязательно присутствие взрослого
    • Качество
    • : BDRip[Parker.2013.D.BD-Remux.mkv]
    • Формат
    : AVI
  • Видео кодек
  • : XviD
  • Аудио кодек
  • : AC3
  • Видео: XviD build 65, 720x304 (2.37:1), 23.976 fps, ~1310 kbps avg
  • Аудио: AC3 / 5.1 / 48 kHz / 448 kbps / 16 bit , 48 kHz GeneralComplete name : D:ТорентыParker.2013.Dub.BDRip.1,46Gb.XviD.AC3.aviFormat : AVIFormat/Info : Audio Video InterleaveFile size : 1.46 GiBDuration : 1h 58mnOverall bit rate : 1 767 KbpsWriting application : VirtualDubModRus 1.5.10.2 (build 2542/release)Writing library : VirtualDubMod build 2542/release

    VideoID : 0Format : MPEG-4 VisualFormat profile : Advanced [email protected] settings, BVOP : 1Format settings, QPel : NoFormat settings, GMC : No warppointsFormat settings, Matrix : CustomCodec ID : XVIDCodec ID/Hint : XviDDuration : 1h 58mnBit rate : ~1310 KbpsWidth : 720 pixelsHeight : 304 pixelsDisplay aspect ratio : 2.35:1Frame rate : 23.976 fpsColor space : YUVChroma subsampling : 4:2:0Bit depth : 8 bitsScan type : ProgressiveCompression mode : LossyBits/(Pixel*Frame) : 0.236Stream size : 1.03 GiB (70%)Writing library : XviD 65

    AudioID : 1Format : AC-3Format/Info : Audio Coding 3Mode extension : CM (complete main)Codec ID : 2000Duration : 1h 58mnBit rate mode : ConstantBit rate : 448 KbpsChannel(s) : 6 channelsChannel positions : Front: L C R, Side: L R, LFESampling rate : 48.0 KHzBit depth : 16 bitsCompression mode : LossyStream size : 380 MiB (25%)Alignment : Split accross interleavesTitle : Dub

    • Это первая адаптация романа из цикла «Паркер» Дональда Э. Уэстлейка (псевдоним - Richard Stark) с использованием имени персонажа - Паркера. В фильме «Расплата» (1999), снятому по роману «Охотник» (The Hunter), использовалось имя Портер. Уэстлейк скончался 31 декабря 2008 года.
    Сценарий: Джон Дж. МакЛафлин / John J. McLaughlin, Дональд Э. Уэстлейк / Donald E. WestlakeПродюсер: Лес Александр / Les Alexander, Джонатан Митчелл / Jonathan Mitchell, Стив Чэсмэн / Steve Chasman, Тейлор Хэкфорд / Taylor Hackford, Сидни Киммел / Sidney KimmelОператор: Дж. Майкл Муро / J. Michael MuroКомпозитор: Дэвид Бакли / David Buckley

    Бюджет: $35 000 000Сборы в США: $17 616 641Сборы в России: $7 617 952Сборы в мире: $46 346 651

    Мировая премьера: 12 октября 2012Релиз на DVD: 23 мая 2013, «CD Land»Релиз на Blu-ray: 6 июня 2013, «CD Land»

  • Скриншоты © Оформление by Vetal Скачать Паркер через торрент http://i6.imageban.ru/out/2013/06/15/a8bcc0ec131c64acede70826f1fea616.png Скачать фильм Паркер через торрент бесплантно в хорошем качестве Описание:Главный герой - вор, руководствующийся собственным моральным кодексом, но способный запросто отправить на тот ... 2013-06-15 09:51 9.7 10 34

    Loading...

    Loading...

    % Раздел Тема Автор DL S | L
    Фильмы 2016 [DVDrip, WEB-DLRip, HDrip] (DUB, MVO) [ 2.13 GB ] Рождение нации / The Birth of a Nation [2016 биография история BDRip] [MVO] killermax2013 Скачать
    Фильмы 2016 [DVDrip, WEB-DLRip, HDrip] (DUB, MVO) [ 1.46 GB ] Папашина армия / Dad's Army [2016 Военный HDRip ] Cruzer Скачать
    Иностранные мультфильмы [ 2.18 GB ] Отряд «Америка»: Всемирная полиция / Team America: World Police [2004 мультфильм BDRip-AVC] DVO potroks Скачать
    Фильмы (Blu-ray, BD-Remux, HDDVD) [ 27.03 GB ] Сердце Ангела / Angel Heart [1987 BDRemux 1080p] Russian Mafia Скачать
    Фильмы 2013 [DVDrip, WEB-DLRip, HDrip] [ 1.37 GB ] Адский бункер: Восстание спецназа / Outpost: Rise of the Spetsnaz [2013 HDRip многоголосый] _KaisiK_ Скачать
    Фильмы (HD 720p, 1080p) (48-60 fps) [ 4.26 GB ] Паркер / Parker [2012 BDRip 720p ] Sub slaventi-69 Скачать
    T Фильмы 2013 (Звук TS, Cam, VO, DVO) [ 1.45 GB ] Доверенность / Proxy [2013 HDRip Любительский [Xixidok] GEKADOL Скачать

    Рекламный пират

    Дорогой пользователь! Огромная просьба, поблагодарите релизера, оцените раздачу и оставьте свои комментарий, если Вы скачали Паркер через торрент бесплатно! Внесите свою лепту в развитие PiratBit!

    Комментировать посты могут только пользователи прошедшие не сложную регистрацию

    Паркер через торрент Скачать бесплатно Паркер Паркер скачать торрент Паркер смотреть онлайн Cкачать фильм Паркер бесплатно Паркер скачать торрент в хорошем качестве Паркер смотреть онлайн бесплатно в хорошем качестве

    Вы не можете начинать темыВы не можете отвечать на сообщенияВы не можете редактировать свои сообщенияВы не можете удалять свои сообщенияВы не можете голосовать в опросахВы не можете прикреплять файлы к сообщениямВы можете скачивать файлы

    Скачать фильм Паркер через торрент в хорошем качестве бесплатно HDRip

    piratbit.ru

    Размер: 2.18 GB | Добавлен: 4 года 5 мес. назад | Торрент скачан:4270 раз
    Реклама Дарим 3000 рублей за регистрацию, не упусти свой шанс получить шикарный бонус!!!

    06-05-2013 09:41 Паркер Скачать торрент  

    Паркер / Parker«Чтобы уйти чисто, надо играть грязно.» Год выпуска: 2013Страна: СШАЖанр: триллер, криминалПродолжительность: 01:58:40Перевод: Дублированный [лицензия]Режиссер:
    • Тейлор Хэкфорд
    В ролях:
    • Джейсон Стэйтем, Дженнифер Лопез, Майкл Чиклис, Уенделл Пирс, Клифтон Коллинз мл., Бобби Каннавале, Пэтти ЛюПон, Карлос Карраско, Мика А. Хауптман, Эмма Бут
    Описание: Главный герой — профессиональный вор, руководствующийся собственным моральным кодексом, но способный запросто отправить на тот свет любого, кто перейдет ему дорогу. Качество: HDRipФормат: AVIВидео кодек: XviDАудио кодек: AC3Видео: 720x304 (2.37:1), 23.976 fps, XviD build 50 ~1722 kbps avg, 0.33 bit/pixelАудио #1: Русский, 48 kHz, AC3 Dolby Digital, 3/2 (L,C,R,l,r) + LFE ch, ~448 kbpsАудио #2: Английский, 48 kHz, AC3 Dolby Digital, 3/2 (L,C,R,l,r) + LFE ch, ~448 kbps [http://www.youtube.com/watch?feature=player_embedded&v=60O6oRo0Zf0] [/url]          Скачать Паркер через торрент http://i47.fastpic.ru/big/2013/0503/10/1582b820e9c7843a21a37c39402cff10.jpg Скачать фильм Паркер через торрент бесплантно в хорошем качестве Описание: Главный герой — вор, руководствующийся собственным моральным кодексом, но способный запросто отправить на тот ... 2013-05-06 09:41 9.8 10 116

    Loading...

    Loading...

    % Раздел Тема Автор DL S | L
    Фильмы 2016 [DVDrip, WEB-DLRip, HDrip] (DUB, MVO) [ 2.13 GB ] Рождение нации / The Birth of a Nation [2016 биография история BDRip] [MVO] killermax2013 Скачать
    Фильмы 2016 [DVDrip, WEB-DLRip, HDrip] (DUB, MVO) [ 1.46 GB ] Папашина армия / Dad's Army [2016 Военный HDRip ] Cruzer Скачать
    Иностранные мультфильмы [ 2.18 GB ] Отряд «Америка»: Всемирная полиция / Team America: World Police [2004 мультфильм BDRip-AVC] DVO potroks Скачать
    Фильмы (Blu-ray, BD-Remux, HDDVD) [ 27.03 GB ] Сердце Ангела / Angel Heart [1987 BDRemux 1080p] Russian Mafia Скачать
    Фильмы 2013 [DVDrip, WEB-DLRip, HDrip] [ 1.37 GB ] Адский бункер: Восстание спецназа / Outpost: Rise of the Spetsnaz [2013 HDRip многоголосый] _KaisiK_ Скачать
    Фильмы (HD 720p, 1080p) (48-60 fps) [ 4.26 GB ] Паркер / Parker [2012 BDRip 720p ] Sub slaventi-69 Скачать
    T Фильмы 2013 (Звук TS, Cam, VO, DVO) [ 1.45 GB ] Доверенность / Proxy [2013 HDRip Любительский [Xixidok] GEKADOL Скачать

    Последний раз редактировалось: Seedtank (2013-05-06 11:42), всего редактировалось 1 раз

    Рекламный пират

    06-05-2013 10:29 Паркер Скачать торрент  

    спс за релиз бро.

    06-05-2013 13:01 Паркер Скачать торрент  

    Только хотел качать звук с тс,спасибо чо)

    06-05-2013 13:20 Паркер Скачать торрент  

    Чистый звук вообще то, лицензия в конце месяца, стыдно такое не знать, а еще в R.G.Фильмы подался

    06-05-2013 16:02 Паркер Скачать торрент  

    Автор исправь Стэтхем

    06-05-2013 19:27 Паркер Скачать торрент  

    Ну, как и положено фильмам в его стиле))Не больше не меньше.

    07-05-2013 18:09 Паркер Скачать торрент  

    Джейсон остановись, похоже ты покатился по наклонной.

    19-05-2013 05:14 Паркер Скачать торрент  

    СПС за труды!!! :good:

    19-05-2013 20:07 Паркер Скачать торрент  

    норм фильм, посмотреть можно.

    Pекламный агент PB

    14-06-2013 09:39 Паркер Скачать торрент  

    Спасибо, глянем фильмец.

    15-06-2013 10:45 Паркер Скачать торрент  

    фильм отстой, стэтхем деградирует

    31-07-2013 20:52 Паркер Скачать торрент  

    25-09-2013 09:34 Паркер Скачать торрент  

    Seedtank писал(а):

    Паркер / Parker (Тейлор Хэкфорд) [2013 г., триллер, криминал, HDRip, Дубляж, лицензия]

    Дорогой пользователь! Огромная просьба, поблагодарите релизера, оцените раздачу и оставьте свои комментарий, если Вы скачали Паркер через торрент бесплатно! Внесите свою лепту в развитие PiratBit!

    Комментировать посты могут только пользователи прошедшие не сложную регистрацию

    Паркер через торрент Скачать бесплатно Паркер Паркер скачать торрент Паркер смотреть онлайн Cкачать фильм Паркер бесплатно Паркер скачать торрент в хорошем качестве Паркер смотреть онлайн бесплатно в хорошем качестве

    Вы не можете начинать темыВы не можете отвечать на сообщенияВы не можете редактировать свои сообщенияВы не можете удалять свои сообщенияВы не можете голосовать в опросахВы не можете прикреплять файлы к сообщениямВы можете скачивать файлы

    Скачать фильм Паркер через торрент в хорошем качестве бесплатно 720p

    piratbit.ru

    Размер: 4.26 GB | Добавлен: 2 года 4 мес. назад | Торрент скачан:126 раз
    Реклама Дарим 3000 рублей за регистрацию, не упусти свой шанс получить шикарный бонус!!!

    27-05-2015 15:07 Паркер Скачать торрент  

    Паркер / Parker

    Год выпуска: 2012Страна: СШАЖанр: боевик, триллер, криминалПродолжительность: 01:58:40Перевод: Дубляж, ЛицензияСубтитры: Russian (форсированые + полные)

    Режиссер: Тейлор ХэкфордПродюссер: Лес Александр, Стив Чесман, Тейлор ХэкфордСценарий: Джон Дж. МакЛафлин, Дональд Э. Уэстлейк

    Бюджет: $35 000 000Премьера в мире: 18 января 2013

    IMDB 6.20 (77 948)

    В ролях: Джейсон Стэйтем, Дженнифер Лопез, Майкл Чиклис, Ник Нолти, Эмма Бут, Мика Хауптман, Уенделл Пирс, Клифтон Коллинз мл., Дэниэл Бернхард, Бобби Каннавале, Роли дублировали: Владимир Зайцев, Наталья Грачёва, Илья Исаев, Игорь Старосельцев, Рамиля Искандер

    Описание: Главный герой — профессиональный вор, руководствующийся собственным моральным кодексом, но способный запросто отправить на тот свет любого, кто перейдет ему дорогу.Качество: BDRip 720pФормат: MKVВидео кодек: H.264Аудио кодек: AC3Видео: x264, 1280 x 528 (2,40:1), 4756 kbps, 59,940 fps, ( 0.118 bpp)Аудио#1: 48.0 kHz, AC3, 6ch, 384 kbps ( Dub )

                     Автор рипа: slaventi-69

    x264 [info]: frame I:2726 Avg QP:14.26 size: 93871x264 [info]: frame P:103859 Avg QP:16.97 size: 22968x264 [info]: frame B:320196 Avg QP:21.01 size: 4961x264 [info]: consecutive B-frames: 1.9% 3.6% 11.8% 15.9% 66.8%

    ОбщееУникальный идентификатор : 184153315787458463068248685769417169922 (0x8A8AA37643C5089084A4AB0FDEBE1C02)Полное имя : D:\Parker.2013.BDRip.720p.(60Fps).mkvФормат : MatroskaВерсия формата : Version 4 / Version 2Размер файла : 4,26 ГбайтПродолжительность : 1 ч. 58 м.Общий поток : 5141 Кбит/секНазвание фильма : Паркер / Parker (2013) BDRip 720p (60Fps)Дата кодирования : UTC 2015-05-27 11:09:18Программа кодирования : mkvmerge v6.2.0 ('Promised Land') built on Apr 28 2013 12:22:01Библиотека кодирования : libebml v1.3.0 + libmatroska v1.4.0

    ВидеоИдентификатор : 1Формат : AVCФормат/Информация : Advanced Video CodecПрофиль формата : [email protected]Параметр CABAC формата : ДаПараметр ReFrames формата : 4 кадраИдентификатор кодека : V_MPEG4/ISO/AVCПродолжительность : 1 ч. 58 м.Битрейт : 4756 Кбит/секШирина : 1280 пикселейВысота : 528 пикселейСоотношение сторон : 2,40:1Режим частоты кадров : ПостоянныйЧастота кадров : 59,880 кадров/секЧастота кадров в оригинале : 59,940 кадров/секЦветовое пространство : YUVСубдискретизация насыщенности : 4:2:0Битовая глубина : 8 битТип развёртки : ПрогрессивнаяБит/(Пиксели*Кадры) : 0.118Размер потока : 3,86 Гбайт (91%)Заголовок : Parker (2013) BDRip 720p (60Fps).mkvБиблиотека кодирования : x264 core 130 r2273 b3065e6Настройки программы : cabac=1 / ref=4 / deblock=1:-3:-3 / analyse=0x3:0x113 / me=umh / subme=8 / psy=1 / psy_rd=1.00:0.00 / mixed_ref=1 / me_range=24 / chroma_me=1 / trellis=2 / 8x8dct=1 / cqm=0 / deadzone=21,11 / fast_pskip=1 / chroma_qp_offset=-2 / threads=3 / lookahead_threads=1 / sliced_threads=0 / nr=0 / decimate=1 / interlaced=0 / bluray_compat=0 / constrained_intra=0 / bframes=4 / b_pyramid=2 / b_adapt=2 / b_bias=0 / direct=3 / weightb=1 / open_gop=0 / weightp=2 / keyint=250 / keyint_min=25 / scenecut=40 / intra_refresh=0 / rc_lookahead=50 / rc=2pass / mbtree=1 / bitrate=4756 / ratetol=1.0 / qcomp=0.60 / qpmin=0 / qpmax=69 / qpstep=4 / cplxblur=20.0 / qblur=0.5 / ip_ratio=1.40 / aq=1:1.00Язык : EnglishDefault : ДаForced : Нет

    АудиоИдентификатор : 2Формат : AC-3Формат/Информация : Audio Coding 3Расширение режима : CM (complete main)Параметр Endianness формата : BigИдентификатор кодека : A_AC3Продолжительность : 1 ч. 58 м.Вид битрейта : ПостоянныйБитрейт : 384 Кбит/секКаналы : 6 каналовРасположение каналов : Front: L C R, Side: L R, LFEЧастота : 48,0 КГцБитовая глубина : 16 битМетод сжатия : С потерямиРазмер потока : 326 Мбайт (7%)Заголовок : DubЯзык : RussianDefault : ДаForced : Нет

    Текст #1Идентификатор : 3Формат : UTF-8Идентификатор кодека : S_TEXT/UTF8Идентификатор кодека/Информация : UTF-8 Plain TextЗаголовок : Rus (Forced)Язык : RussianDefault : НетForced : Нет

    Текст #2Идентификатор : 4Формат : UTF-8Идентификатор кодека : S_TEXT/UTF8Идентификатор кодека/Информация : UTF-8 Plain TextЗаголовок : RusЯзык : RussianDefault : НетForced : Нет

    Меню00:00:00.000 : en:Chapter 0100:06:14.707 : en:Chapter 0200:14:00.923 : en:Chapter 0300:19:29.585 : en:Chapter 0400:26:25.000 : en:Chapter 0500:31:46.487 : en:Chapter 0600:38:26.804 : en:Chapter 0700:42:27.920 : en:Chapter 0800:49:46.274 : en:Chapter 0900:55:07.637 : en:Chapter 1001:01:11.376 : en:Chapter 1101:06:21.560 : en:Chapter 1201:11:51.348 : en:Chapter 1301:22:34.532 : en:Chapter 1401:30:46.274 : en:Chapter 1501:38:12.219 : en:Chapter 16

    Паркер скачать торрент

    Скачать Паркер через торрент http://pic.pb.wtf/images/11/yny39.jpg Скачать фильм Паркер через торрент бесплантно в хорошем качестве Описание: Главный герой — вор, руководствующийся собственным моральным кодексом, но способный запросто отправить на тот ... 2015-05-27 15:07 9.6 10 10

    Loading...

    Loading...

    % Раздел Тема Автор DL S | L
    Фильмы 2016 [DVDrip, WEB-DLRip, HDrip] (DUB, MVO) [ 2.13 GB ] Рождение нации / The Birth of a Nation [2016 биография история BDRip] [MVO] killermax2013 Скачать
    Фильмы 2016 [DVDrip, WEB-DLRip, HDrip] (DUB, MVO) [ 1.46 GB ] Папашина армия / Dad's Army [2016 Военный HDRip ] Cruzer Скачать
    Иностранные мультфильмы [ 2.18 GB ] Отряд «Америка»: Всемирная полиция / Team America: World Police [2004 мультфильм BDRip-AVC] DVO potroks Скачать
    Фильмы (Blu-ray, BD-Remux, HDDVD) [ 27.03 GB ] Сердце Ангела / Angel Heart [1987 BDRemux 1080p] Russian Mafia Скачать
    Фильмы 2013 [DVDrip, WEB-DLRip, HDrip] [ 1.37 GB ] Адский бункер: Восстание спецназа / Outpost: Rise of the Spetsnaz [2013 HDRip многоголосый] _KaisiK_ Скачать
    T Фильмы 2013 (Звук TS, Cam, VO, DVO) [ 1.45 GB ] Доверенность / Proxy [2013 HDRip Любительский [Xixidok] GEKADOL Скачать
    T Фильмы 2013 (Звук TS, Cam, VO, DVO) [ 1.37 GB ] Адский бункер: Восстание спецназа / Outpost: Rise of the Spetsnaz [2013 DVDRip Любительский [den904] Ворон Скачать

    Последний раз редактировалось: slaventi-69 (2015-05-27 15:45), всего редактировалось 2 раз(а)

    Рекламный пират

    27-05-2015 15:28 Паркер Скачать торрент  

    slaventi-69,

    Без остановки кодируешь?С подавлением площадных артефактов?

    Последний раз редактировалось: Tiberiumsun69 (2015-05-27 15:31), всего редактировалось 1 раз

    27-05-2015 15:29 Паркер Скачать торрент  

    2 дня файлы ждали, только сегодня руки дошли в контейнер собрать.

    29-05-2015 00:35 Паркер Скачать торрент  

    Вот жешь моя невнимательность - 59,940 fps. Заметил, только после того как скачал этот утиль.

    Дорогой пользователь! Огромная просьба, поблагодарите релизера, оцените раздачу и оставьте свои комментарий, если Вы скачали Паркер через торрент бесплатно! Внесите свою лепту в развитие PiratBit!

    Комментировать посты могут только пользователи прошедшие не сложную регистрацию

    Паркер через торрент Скачать бесплатно Паркер Паркер скачать торрент Паркер смотреть онлайн Cкачать фильм Паркер бесплатно Паркер скачать торрент в хорошем качестве Паркер смотреть онлайн бесплатно в хорошем качестве

    Вы не можете начинать темыВы не можете отвечать на сообщенияВы не можете редактировать свои сообщенияВы не можете удалять свои сообщенияВы не можете голосовать в опросахВы не можете прикреплять файлы к сообщениямВы можете скачивать файлы


    Смотрите также