Скачать он дракон через торрент бесплатно в хорошем качестве


Скачать торрент Он – дракон (2015) WEB-DL 1080p

Информация о фильмеНазвание: Он – драконОригинальное название: Он – драконГод выхода: 2015Жанр: фэнтезиРежиссер: Индар ДжендубаевВ ролях: Мария Поезжаева, Матвей Лыков, Станислав Любшин, Иева Андреевайте, Петр Романов, Андрей Лебединский, Марта Тимофеева, Иво Господинов, Егор Зубарчук, Виктория Рунцова

О фильме: В разгар свадьбы княжну Мирославу похищает дракон, унося в свой замок на острове. В прошлом остались родные, жених, теперь только каменный плен в компании прекрасного Армана… но кто он и как оказался на острове? Мира поймет это слишком поздно: любовь к нему, человеку-дракону, откроет ей горькую истину — любить страшно.

Выпущено: Россия / Базелевс ПродакшнПродолжительность: 01:46:54Озвучивание: Оригинальное [iTunes]

ФайлФормат: MKVКачество: WEB-DL 1080pВидео: MPEG-4 AVC, 4331 kb/s, 1916x804Аудио: AC3, 384 kb/s (6 ch)

MI

Format : Matroska Format version : Version 4 / Version 2 File size : 3.59 GiB Duration : 1h 46mn Overall bit rate : 4 811 Kbps Encoded date : UTC 2015-12-30 20:12:26 Writing application : mkvmerge v8.3.0 ('Over the Horizon') 64bit Writing library : libebml v1.3.1 + libmatroska v1.4.2

Video ID : 1 Format : AVC Format/Info : Advanced Video Codec Format profile : [email protected] Format settings, CABAC : Yes Format settings, ReFrames : 5 frames Codec ID : V_MPEG4/ISO/AVC Duration : 1h 46mn Bit rate : 4 331 Kbps Width : 1 916 pixels Height : 804 pixels Display aspect ratio : 2.40:1 Frame rate mode : Constant Frame rate : 24.000 fps Color space : YUV Chroma subsampling : 4:2:0 Bit depth : 8 bits Scan type : Progressive Bits/(Pixel*Frame) : 0.117 Stream size : 3.23 GiB (90%) Language : English Default : Yes Forced : No Color range : Limited Color primaries : BT.709 Transfer characteristics : BT.709 Matrix coefficients : BT.709

Audio ID : 2 Format : AC-3 Format/Info : Audio Coding 3 Mode extension : CM (complete main) Format settings, Endianness : Big Codec ID : A_AC3 Duration : 1h 46mn Bit rate mode : Constant Bit rate : 384 Kbps Channel(s) : 6 channels Channel positions : Front: L C R, Side: L R, LFE Sampling rate : 48.0 KHz Bit depth : 16 bits Compression mode : Lossy Stream size : 294 MiB (8%) Language : Russian Default : Yes Forced : No

Menu 00:00:00.000 : en:Глава 1 00:05:26.000 : en:Глава 2 00:11:15.000 : en:Глава 3 00:16:58.000 : en:Глава 4 00:24:09.000 : en:Глава 5 00:29:45.000 : en:Глава 6 00:34:48.000 : en:Глава 7 00:41:26.000 : en:Глава 8 00:46:47.000 : en:Глава 9 00:53:25.000 : en:Глава 10 00:58:43.000 : en:Глава 11 01:03:46.000 : en:Глава 12 01:09:21.000 : en:Глава 13 01:15:07.000 : en:Глава 14 01:20:21.000 : en:Глава 15 01:27:49.000 : en:Глава 16 01:34:16.000 : en:Глава 17 01:39:57.000 : en:Глава 18

mrutor.org

Скачать торрент Он – дракон (2015) WEB-DLRip

Файлы для обмена предоставлены пользователями сайта. Администрация не несёт ответственности за их содержание. На сервере хранятся только торрент-файлы. Это значит, что мы не храним никаких нелегальных материалов, а так же материалов охраняемых авторским правом.

krutor.org

lisa68m 06-Мар-2016 17:05 (1 год 7 месяцев назад) Оценил на: 3
Раньше приходилось постоянно ругать все составляющие постсоветского кино (режиссуру, операторов, композиторов, монтаж, спецэффекты)- и восхищаться актёрами, которые были настоящими мастерами. Теперь могу сказать, что выросли операторы, монтажёры, спецэффекторы, менее явно, но подросли композиторы и ещё менее явно, но всё же подросли режиссёры. Но актёры! Если у главной героини каша во рту и половина слогов сглатывается, пришипетывается и присвистывается, то перестаешь воспринимать кино. Фильм, при хорошей технической составляющей, провален актёрами и режиссёром, не выстроившим (скорее всего не умеет) форму, образы и динамику, а занимавшимся в основном красотами картинки. Поэтому, кино не более, чем неплохая попытка подобраться к нормальным уровням искусства.
 
theGreat 13-Янв-2016 01:00 (1 год 9 месяцев назад) Оценил на: 10
Отец любит сказки смотреть, особенно русские, ему понравилось, смотрел несколько раз. Мне, кстати, тоже! Что-то есть всё равно близкое русскому менталитету, вот отличается киношка от голливудских сказочек.
 
Адмирал 05-Янв-2016 18:10 (1 год 9 месяцев назад)
неплохой фильм получился, эффекты хорошие, спасибо.
 
aleksus377515 04-Янв-2016 11:00 (1 год 9 месяцев назад) Оценил на: 3
оч слабый фильм и по сюжету и по всему остальному ... снято под копирку с голливудского кино
 
евген5119 01-Янв-2016 12:15 (1 год 9 месяцев назад) Оценил на: 10
На фоне последних "успехов" нашего кинематографа очень не плохо. Приятно удивлен, что наши оказывается умеют снимать качественное фэнтази.
 
PICASO1981 01-Янв-2016 01:00 (1 год 9 месяцев назад) Оценил на: 7
Вроде и картинка интересная есть и хоть какое-то подобие графики, но сам сценарий несмотря на то, что он сказочный, мне показался неадекватным и местами бредовым. Исполнение скомканное, “дёрганное”, события в произведении текут не стройным журчащим ручьём, а горной хаотичной речкой. Переделка руконожки ай-ай в подобие злобной шавки - яркий тому пример: кто знаком с животным миром, тот поймёт всю нелепость и без подобной заметки. Действительно, понравились в фильме лишь виды древнего поселения с высоты птичьего полёта: какая-то в этом есть душевная красота. Ну и костюмированность местами зачётная. Вообще, всё по сюжету напоминает то самое повествование с чудовищем и аленьким цветочком. Скорее для девочек сойдёт, с присутствием в кадре рельефного мальчика-дракона) Книгу не читал, да и после увиденного не сильно-то заинтригован. Лыков младший с явным заграничным акцентом… По итогам просмотра, особого чувства желания пересмотреть фильм в ближайшем будущем не присутствует. Поэтому, думаю, даже сегодняшний рейтинг со временем покинет семибальные рубежи. Релизёру спасибо за новинку – 10. Фильму всё-таки поставлю округлённые 7 из 10 за красивую, яркую клиповую картиночку и за то, что мало у нас таких отечественных фильмов. P.S. Всех с наступившим Новым 2016 годом!!!
 
RusTan666 31-Дек-2015 22:05 (1 год 9 месяцев назад) Оценил на: 10
фильм порадовал -Шикарно.....нежданчик .....актеры слабовато
 
serzh82saratov 31-Дек-2015 20:40 (1 год 9 месяцев назад)
Если не про жизнь дерьмо, то обычно дерьмо снять получается. Но это понравилось, советую.
 
CarterD 31-Дек-2015 16:55 (1 год 9 месяцев назад)
Ну хоть получше Цветка дьявола, а так просто слизанный со всеми штампами клипец, где героям лучше бы просто молчать. Для патриотичных девочек потянет.
 
romDaff3z 31-Дек-2015 16:15 (1 год 9 месяцев назад)
Опять сказка, для детей. Спасибо.
 
petro547 31-Дек-2015 14:30 (1 год 9 месяцев назад)
Дон дракон и дон дрочила
 
d_Venom_b 31-Дек-2015 14:05 (1 год 9 месяцев назад) Оценил на: 10
Доброе кино, как для детей так и для взрослых. "Голливудская" графика, пафос, все как полагается в фильме 21 века. Рекомендую всем. 7 из 10.
 
stasolegch 31-Дек-2015 14:00 (1 год 9 месяцев назад)
когда первый раз услышал "дырконаборец" поржал, на двадцатый не выдержал и выключил.
 
CrAngel 31-Дек-2015 11:05 (1 год 9 месяцев назад) Оценил на: 10
Книга, по которой снят фильм - "Ритуал" (Марина и Сергей Дяченко), весьма годная. Очень даже интересная книга. Фильм оценим! Спасибо раздающему! С наступающим Новым Годом!
 
FREEMANJR 31-Дек-2015 08:30 (1 год 9 месяцев назад) Оценил на: 10
OaУ! Ну что получилось очень хорошо для нашего ненаилучшего кинематографа.Браво-вот что можно только сказать.
 

Скачать фильм Он – дракон (2015) через торрент

gig-torrent.net

18 августа 2016 10:18 Он – дракон (2015) BDRip-AVC от New-Team | Лицензия .torrent   [Информация о файле (нажмите для просмотра)] Перевод: Не требуется (русский) [Лицензия BD RUS]Видео: 908 Кбит/сек, 814*346 (2,35:1), в 24,000 кадра/сек, AVCАудио: русский, 64,0 Кбит/сек, 48,0 КГц / 24,0 КГц, 2 канала, AAC (HE-AAC / LC)Видео: Идентификатор : 1 Формат : AVC Формат/Информация : Advanced Video Codec Профиль формата : [email protected] Параметр CABAC формата : Да Параметр ReFrames формата : 16 кадров Идентификатор кодека : V_MPEG4/ISO/AVC Продолжительность : 1 ч. 47 м. Битрейт : 908 Кбит/сек Ширина : 814 пикселей Высота : 346 пикселей Соотношение сторон : 2,35:1 Режим частоты кадров : Постоянный Частота кадров : 24,000 кадра/сек Цветовое пространство : YUV Субдискретизация насыщенности : 4:2:0 Битовая глубина : 8 бит Тип развёртки : Прогрессивная Бит/(Пиксели*Кадры) : 0.134 Размер потока : 692 Мбайт (93%) Заголовок : Он – дракон (2015) (New-Team) (Rip by Stalker oK) Библиотека кодирования : x264 core 148 r2665kMod a01e339 Настройки программы : cabac=1 / ref=16 / deblock=1:-3:-3 / analyse=0x3:0x133 / me=umh / subme=11 / psy=1 / fade_compensate=0.00 / psy_rd=1.00:0.10 / mixed_ref=1 / me_range=48 / chroma_me=1 / trellis=2 / 8x8dct=1 / cqm=0 / deadzone=21,11 / fast_pskip=0 / chroma_qp_offset=-3 / threads=11 / lookahead_threads=2 / sliced_threads=0 / nr=0 / decimate=0 / interlaced=0 / bluray_compat=0 / constrained_intra=0 / fgo=0 / bframes=16 / b_pyramid=2 / b_adapt=2 / b_bias=0 / direct=3 / weightb=1 / open_gop=0 / weightp=2 / keyint=240 / keyint_min=23 / scenecut=40 / intra_refresh=0 / rc_lookahead=60 / rc=2pass / mbtree=0 / bitrate=908 / ratetol=1.0 / qcomp=0.70 / qpmin=0 / qpmax=69 / qpstep=4 / cplxblur=20.0 / qblur=0.5 / vbv_maxrate=50000 / vbv_bufsize=62500 / nal_hrd=none / filler=0 / ip_ratio=1.40 / pb_ratio=1.30 / aq=3:1.00 Default : Да Forced : НетАудио: Идентификатор : 2 Формат : AAC Формат/Информация : Advanced Audio Codec Профиль формата : HE-AAC / LC Идентификатор кодека : A_AAC Продолжительность : 1 ч. 47 м. Битрейт : 64,0 Кбит/сек Каналы : 2 канала Расположение каналов : Front: L R Частота : 48,0 КГц / 24,0 КГц Частота кадров : 23,438 кадра/сек (1024 spf) Метод сжатия : С потерями Задержка видео : 31 мс. Размер потока : 49,0 Мбайт (7%) Язык : Russian Default : Да Forced : Нет 742,52 Mb 15 4
18 августа 2016 10:18 Он – дракон (2015) BDRip 720p от HELLYWOOD | Лицензия .torrent   [Информация о файле (нажмите для просмотра)] Перевод: Оригинал [лицензия BD RUS]Качество: BDRip 720pФормат: MKVВидео: AVC, 1280x544 (2.35:1), 4106 kbps, 24 fps, 0.246 bit/pixelАудио: AC3 / 5.1 / 48 kHz / 640 kbps / 16 bit 3,54 Gb 32 5
18 августа 2016 10:18 Он – дракон (2015) HDRip от Scarabey | Лицензия .torrent   [Информация о файле (нажмите для просмотра)] Перевод: Не требуется [Лицензия]Видео: 720x304 (2.37:1), 24 fps, XviD build 73 ~1476 kbps avg, 0.28 bit/pixelАудио: 48 kHz, AC3 Dolby Digital, 3/2 (L,C,R,l,r) + LFE ch, ~448 kbps 1,45 Gb 29 4
18 августа 2016 10:18 Он – дракон (2015) BDRip от AleksSin | Лицензия .torrent   [Информация о файле (нажмите для просмотра)] Перевод: Не требуетсяКодек: AVI (XviD)Качество: BDRipИсходник: Blu-rayВидео: 720x304 (2.35:1), 24.000 fps, XviD build 73 ~2278 kbps avg, 0.43 bit/pixelЗвук: 48 kHz, AC3 Dolby Digital, 3/2 (L,C,R,l,r) + LFE ch, ~448 kbpsСубтитры: нетВидео: Идентификатор : 0 Формат : MPEG-4 Visual Профиль формата : Advanced [email protected] Параметр BVOP формата : 1 Параметр QPel формата : Нет Параметр GMC формата : Без точки перехода Параметр матрицы формата : Выборочная Идентификатор кодека : XVID Идентификатор кодека/Подсказка : XviD Продолжительность : 1 ч. 47 м. Битрейт : 2278 Кбит/сек Ширина : 720 пикселей Высота : 304 пикселя Соотношение сторон : 2,35:1 Частота кадров : 24,000 кадра/сек Цветовое пространство : YUV Субдискретизация насыщенности : 4:2:0 Битовая глубина : 8 бит Тип развёртки : Прогрессивная Метод сжатия : С потерями Бит/(Пиксели*Кадры) : 0.434 Размер потока : 1,70 Гбайт (83%) Библиотека кодирования : XviD 73Аудио: Идентификатор : 1 Формат : AC-3 Формат/Информация : Audio Coding 3 Расширение режима : CM (complete main) Параметр Endianness формата : Big Идентификатор кодека : 2000 Продолжительность : 1 ч. 47 м. Вид битрейта : Постоянный Битрейт : 448 Кбит/сек Каналы : 6 каналов Расположение каналов : Front: L C R, Side: L R, LFE Частота : 48,0 КГц Битовая глубина : 16 бит Метод сжатия : С потерями Размер потока : 343 Мбайт (16%) Выравнивание : Разделение по промежуткам Продолжительность промежутка : 42 мс. (1,00 видеокадр) Время предзагрузки промежутка : 500 мс. 2,05 Gb 28 4
18 августа 2016 10:18 Он – дракон (2015) HDRip от Scarabey | Лицензия .torrent   [Информация о файле (нажмите для просмотра)] Перевод: Не требуется [Лицензия]Видео: 688x288 (2.39:1), 24 fps, XviD build 73 ~836 kbps avg, 0.18 bit/pixelАудио: 48 kHz, MPEG Layer 3, 2 ch, ~128.00 kbps avg 746,04 Mb 6 4
18 августа 2016 10:17 Он – дракон (2015) BDRip 1080p | Лицензия .torrent   [Информация о файле (нажмите для просмотра)] Перевод: Оригинальный [Лицензия BD RUS]Качество: BDRip 1080pФормат: MKVВидео: AVC, 1920x816 (2.35:1), 8113 kbps, 24 fps, 0,216 bppАудио №1: русский / AC3 / 5.1 / 48 kHz / 640 kbps / 16 bitАудио №2: русский / DTS / 5.1 / 48 kHz / 1510 kbps / 24 bit 7,65 Gb 75 6
18 августа 2016 10:17 Он – дракон (2015) BDRip-AVC от HELLYWOOD | Лицензия .torrent   [Информация о файле (нажмите для просмотра)] Перевод: Оригинал [лицензия BD RUS]Качество: BDRip-AVCФормат: MKVВидео: AVC, 1148x488 (2.35:1), 2467 kbps, 24 fps, 0,183 bppАудио: AC3 / 5.1 / 48 kHz / 448 kbps / 16 bit 2,18 Gb 60 4
18 августа 2016 10:17 Он – дракон (2015) BDRip-AVC от New-Team | Лицензия .torrent   [Информация о файле (нажмите для просмотра)] Перевод: Не требуется (русский) [Лицензия BD RUS]Видео: 1499 Кбит/сек, 1040x442 (2.35:1), 24 кадр/сек, AVCАудио: русский, 448 Кбит/сек, 48 КГц, 16 бит, 5.1, AC3Видео: Идентификатор : 1 Формат : AVC Формат/Информация : Advanced Video Codec Профиль формата : [email protected] Параметр CABAC формата : Да Параметр ReFrames формата : 14 кадров Идентификатор кодека : V_MPEG4/ISO/AVC Продолжительность : 1 ч. 47 м. Битрейт : 1499 Кбит/сек Ширина : 1040 пикселей Высота : 442 пикселя Соотношение сторон : 2,35:1 Режим частоты кадров : Постоянный Частота кадров : 24,000 кадра/сек Цветовое пространство : YUV Субдискретизация насыщенности : 4:2:0 Битовая глубина : 8 бит Тип развёртки : Прогрессивная Бит/(Пиксели*Кадры) : 0.136 Размер потока : 1,11 Гбайт (77%) Заголовок : Он – дракон (2015) (New-Team) (Rip by Stalker oK) Библиотека кодирования : x264 core 148 r2665kMod a01e339 Настройки программы : cabac=1 / ref=14 / deblock=1:-3:-3 / analyse=0x3:0x133 / me=umh / subme=11 / psy=1 / fade_compensate=0.00 / psy_rd=1.00:0.10 / mixed_ref=1 / me_range=48 / chroma_me=1 / trellis=2 / 8x8dct=1 / cqm=0 / deadzone=21,11 / fast_pskip=0 / chroma_qp_offset=-3 / threads=12 / lookahead_threads=3 / sliced_threads=0 / nr=0 / decimate=0 / interlaced=0 / bluray_compat=0 / constrained_intra=0 / fgo=0 / bframes=15 / b_pyramid=2 / b_adapt=2 / b_bias=0 / direct=3 / weightb=1 / open_gop=0 / weightp=2 / keyint=240 / keyint_min=23 / scenecut=40 / intra_refresh=0 / rc_lookahead=60 / rc=2pass / mbtree=0 / bitrate=1499 / ratetol=1.0 / qcomp=0.70 / qpmin=0 / qpmax=69 / qpstep=4 / cplxblur=20.0 / qblur=0.5 / vbv_maxrate=50000 / vbv_bufsize=62500 / nal_hrd=none / filler=0 / ip_ratio=1.40 / pb_ratio=1.30 / aq=3:0.90 Default : Да Forced : НетАудио: Идентификатор : 2 Формат : AC-3 Формат/Информация : Audio Coding 3 Расширение режима : CM (complete main) Параметр Endianness формата : Big Идентификатор кодека : A_AC3 Продолжительность : 1 ч. 47 м. Вид битрейта : Постоянный Битрейт : 448 Кбит/сек Каналы : 6 каналов Расположение каналов : Front: L C R, Side: L R, LFE Частота : 48,0 КГц Частота кадров : 31,250 кадров/сек (1536 spf) Метод сжатия : С потерями Размер потока : 343 Мбайт (23%) Язык : Russian Default : Да Forced : Нет 1,44 Gb 29 2
18 августа 2016 10:17 Он – дракон (2015) BDRip | Лицензия .torrent   [Информация о файле (нажмите для просмотра)] Перевод: Не требуетсяКачество: BDRip (исх.Он – дракон (2015) Blu-ray RUS 1080p AVC DTS 5.1)Кодек: XviDВидео: 720x304 (2,35:1), 24 fps, XviD ~833 kbps avg, 0.159 bit/pixelЗвук: MP3, 48 kHz, 2 ch, ~128.00 kbps avg | русский |Субтитры: ОтсутствуютВидео: Идентификатор : 0 Формат : MPEG-4 Visual Профиль формата : Advanced [email protected] Параметр BVOP формата : 2 Параметр QPel формата : Нет Параметр GMC формата : Без точки перехода Параметр матрицы формата : Default (MPEG) Идентификатор кодека : XVID Идентификатор кодека/Подсказка : XviD Продолжительность : 1 ч. 47 м. Битрейт : 833 Кбит/сек Ширина : 720 пикселей Высота : 304 пикселя Соотношение сторон : 2,35:1 Частота кадров : 24,000 кадра/сек Цветовое пространство : YUV Субдискретизация насыщенности : 4:2:0 Битовая глубина : 8 бит Тип развёртки : Прогрессивная Метод сжатия : С потерями Бит/(Пиксели*Кадры) : 0.159 Размер потока : 638 Мбайт (86%) Библиотека кодирования : XviD 73Аудио: Идентификатор : 1 Формат : MPEG Audio Версия формата : Version 1 Профиль формата : Layer 3 Режим : Joint stereo Расширение режима : MS Stereo Идентификатор кодека : 55 Идентификатор кодека/Подсказка : MP3 Продолжительность : 1 ч. 47 м. Вид битрейта : Постоянный Битрейт : 128 Кбит/сек Каналы : 2 канала Частота : 48,0 КГц Метод сжатия : С потерями Размер потока : 98,0 Мбайт (13%) Выравнивание : Соединение по промежуткам Продолжительность промежутка : 42 мс. (1,00 видеокадр) Время предзагрузки промежутка : 504 мс. Библиотека кодирования : LAME3.97 743,27 Mb 10 3
18 августа 2016 10:17 Он – дракон (2015) BDRip | Лицензия .torrent   [Информация о файле (нажмите для просмотра)] Перевод: Не требуетсяКачество: BDRip (исх.Он – дракон (2015) Blu-ray RUS 1080p AVC DTS 5.1)Кодек: XviDВидео: 720x304 (2,35:1), 24 fps, XviD ~1500 kbps avg, 0.286 bit/pixelЗвук: АС3, 48 kHz, 6 ch, ~448.00 kbps avg | русский |Субтитры: ОтсутствуютВидео: Идентификатор : 0 Формат : MPEG-4 Visual Профиль формата : Advanced [email protected] Параметр BVOP формата : 2 Параметр QPel формата : Нет Параметр GMC формата : Без точки перехода Параметр матрицы формата : Default (MPEG) Идентификатор кодека : XVID Идентификатор кодека/Подсказка : XviD Продолжительность : 1 ч. 47 м. Битрейт : 1500 Кбит/сек Ширина : 720 пикселей Высота : 304 пикселя Соотношение сторон : 2,35:1 Частота кадров : 24,000 кадра/сек Цветовое пространство : YUV Субдискретизация насыщенности : 4:2:0 Битовая глубина : 8 бит Тип развёртки : Прогрессивная Метод сжатия : С потерями Бит/(Пиксели*Кадры) : 0.286 Размер потока : 1,12 Гбайт (77%) Библиотека кодирования : XviD 73 Аудио: Идентификатор : 1 Формат : AC-3 Формат/Информация : Audio Coding 3 Расширение режима : CM (complete main) Параметр Endianness формата : Big Идентификатор кодека : 2000 Продолжительность : 1 ч. 47 м. Вид битрейта : Постоянный Битрейт : 448 Кбит/сек Каналы : 6 каналов Расположение каналов : Front: L C R, Side: L R, LFE Частота : 48,0 КГц Метод сжатия : С потерями Размер потока : 343 Мбайт (23%) Выравнивание : Разделение по промежуткам Продолжительность промежутка : 42 мс. (1,00 видеокадр) Время предзагрузки промежутка : 500 мс. 1,46 Gb 346 3
18 августа 2016 10:17 Он – дракон (2015) BDRip 720p | Лицензия .torrent   [Информация о файле (нажмите для просмотра)] Качество: BDRip 720pПеревод: Не требуется (Русский, Лицензия BD RUS)Субтитры: ОтсутствуютВидео: AVC/H.264, 1280x544, (2.35:1), 5 345 Kbps, 24 fpsАудио: AC3, 6 ch, 640 kbps - РусскийАудио: DTS, 6 ch, 1509 kbps - Русский 5,72 Gb 35 3
18 августа 2016 10:17 Он – дракон (2015) Blu-ray 1080p | Лицензия .torrent   [Информация о файле (нажмите для просмотра)] Качество: Blu-rayПеревод: Не требуется (Русский, Лицензия BD RUS)Субтитры: ОтсутствуютВидео: AVC/H.264, 1920x1080p, (16:9), ~20 Mbps, 24 fpsАудио: AC3, 6 ch, 640 kbps - РусскийАудио: DTS, 6 ch, 1509 kbps - Русский 18,26 Gb 8 3
18 августа 2016 10:17 Он – дракон (2015) WEB-DLRip | iTunes .torrent   [Информация о файле (нажмите для просмотра)] Перевод: Оригинал iTunes Качество: WEB-DLRipФормат: AVIВидео: XviD, 2344 kb/s, 720x304Звук: AC3, 384 kb/s (6 ch)Субтитры: нет 2,05 Gb 5 3
18 августа 2016 10:17 Он – дракон (2015) WEB-DLRip | КПК | iTunes .torrent   [Информация о файле (нажмите для просмотра)] Перевод: Не требуется [iTunes]Качество: WEB-DLRipФормат: MP4 482,98 Mb 16 4
18 августа 2016 10:17 Он – дракон (2015) WEB-DLRip-AVC | iTunes .torrent   [Информация о файле (нажмите для просмотра)] Перевод: Оригинальный [iTunes]Качество: WEB-DLRip-AVCФормат: MKVВидео: AVC, 1024x430 (2.40:1), 1569 kbps, 24 fps, 0,148 bppАудио: AC3 / 5.1 / 48 kHz / 384 kbps / 16 bit 1,46 Gb 7 3
18 августа 2016 10:17 Он – дракон (2015) WEB-DLRip от torrentfilm .torrent   [Информация о файле (нажмите для просмотра)] Кодек: XviD (AVI)Качество: WEB-DLRipВидео: 640x272 (2.35:1), 24 fps, XviD build 73 ~838 kbps avg, 0.20 bit/pixelЗвук: 48 kHz, MPEG Layer 3, 2 ch, ~128.00 kbps avg 746,25 Mb 18 1
18 августа 2016 10:17 Он – дракон (2015) WEB-DLRip | iTunes .torrent   [Информация о файле (нажмите для просмотра)] Формат: AVI (XviD)Качество: WEB-DLRipВидео: 1563 kb/s, 720x304Аудио: AC3, 384 kb/s (6 ch) 1,46 Gb 32 3
18 августа 2016 10:17 Он – дракон (2015) WEB-DL 720p | iTunes .torrent   [Информация о файле (нажмите для просмотра)] Формат: MKVКачество: WEB-DL 720pВидео: MPEG-4 AVC, 3910 kb/s, 1280x536Аудио: AC3, 384 kb/s (6 ch) 3,27 Gb 4 1
18 августа 2016 10:17 Он – дракон (2015) WEB-DL 1080p | iTunes .torrent   [Информация о файле (нажмите для просмотра)] Формат: MKVКачество: WEB-DL 1080pВидео: MPEG-4 AVC, 4331 kb/s, 1916x804Аудио: AC3, 384 kb/s (6 ch) 3,59 Gb 33 3

Скачать фильм Он – дракон через торрент в хорошем качестве бесплатно 1080p

GeneralUnique ID                                : 239984961073617445784510355983440930116 (0xB48B6C1A1C856181A678C2062D5DE544)Complete name                            : D:\download\ON_DRAKON.2015.BDRip 1080p by schultz R.G.Resident.mkvFormat                                   : MatroskaFormat version                           : Version 4 / Version 2File size                                : 7.65 GiBDuration                                 : 1h 47mnOverall bit rate                         : 10.2 MbpsEncoded date                             : UTC 2016-02-06 00:44:44Writing application                      : mkvmerge v6.7.0 ('Back to the Ground') 64bit built on Jan  8 2014 15:10:52Writing library                          : libebml v1.3.0 + libmatroska v1.4.1

VideoID                                       : 1Format                                   : AVCFormat/Info                              : Advanced Video CodecFormat profile                           : [email protected] settings, CABAC                   : YesFormat settings, ReFrames                : 5 framesCodec ID                                 : V_MPEG4/ISO/AVCDuration                                 : 1h 47mnBit rate                                 : 8 113 KbpsWidth                                    : 1 920 pixelsHeight                                   : 816 pixelsDisplay aspect ratio                     : 2.35:1Frame rate                               : 24.000 fpsColor space                              : YUVChroma subsampling                       : 4:2:0Bit depth                                : 8 bitsScan type                                : ProgressiveBits/(Pixel*Frame)                       : 0.216Stream size                              : 5.89 GiB (77%)Writing library                          : x264 core 146 r2538 121396cEncoding settings                        : cabac=1 / ref=5 / deblock=1:-3:-3 / analyse=0x3:0x113 / me=umh / subme=11 / psy=1 / psy_rd=1.00:0.00 / mixed_ref=1 / me_range=48 / chroma_me=1 / trellis=2 / 8x8dct=1 / cqm=0 / deadzone=21,11 / fast_pskip=0 / chroma_qp_offset=-2 / threads=12 / lookahead_threads=2 / sliced_threads=0 / nr=0 / decimate=1 / interlaced=0 / bluray_compat=0 / constrained_intra=0 / bframes=9 / b_pyramid=2 / b_adapt=2 / b_bias=0 / direct=3 / weightb=1 / open_gop=0 / weightp=2 / keyint=240 / keyint_min=23 / scenecut=40 / intra_refresh=0 / rc_lookahead=40 / rc=2pass / mbtree=1 / bitrate=8113 / ratetol=1.0 / qcomp=0.60 / qpmin=0 / qpmax=69 / qpstep=4 / cplxblur=20.0 / qblur=0.5 / vbv_maxrate=14000 / vbv_bufsize=14000 / nal_hrd=none / filler=0 / ip_ratio=1.40 / aq=1:1.00Language                                 : EnglishDefault                                  : YesForced                                   : No

Audio #1ID                                       : 2Format                                   : AC-3Format/Info                              : Audio Coding 3Mode extension                           : CM (complete main)Codec ID                                 : A_AC3Duration                                 : 1h 47mnBit rate mode                            : ConstantBit rate                                 : 640 KbpsChannel(s)                               : 6 channelsChannel positions                        : Front: L C R, Side: L R, LFESampling rate                            : 48.0 KHzBit depth                                : 16 bitsCompression mode                         : LossyStream size                              : 490 MiB (6%)Language                                 : RussianDefault                                  : YesForced                                   : No

Audio #2ID                                       : 3Format                                   : DTSFormat/Info                              : Digital Theater SystemsCodec ID                                 : A_DTSDuration                                 : 1h 47mnBit rate mode                            : ConstantBit rate                                 : 1 510 KbpsChannel(s)                               : 6 channelsChannel positions                        : Front: L C R, Side: L R, LFESampling rate                            : 48.0 KHzBit depth                                : 24 bitsCompression mode                         : LossyStream size                              : 1.13 GiB (15%)Language                                 : RussianDefault                                  : NoForced                                   : No

piratbit.ru


Смотрите также