Скачать need for speed жажда скорости через торрент в хорошем качестве


Жажда скорости (2014) скачать торрент в хорошем качестве бесплатно

zona-film.com

Подробнее Проф. (полное дублирование) 2,18 ГиБ 18 июл. 2014 г.
Файл: need.for.speed.zhazhda.skorosti.2014.rus.bdrip..torrent Формат: AVIКачество: BDRip (источник: HDCLUB / Blu-Ray Remux / 1080p)Видео: 720x304 (2.37:1), 23.976 fps, XviD build 65 ~1933 kbps avg, 0.37 bit/pixelАудио #1: (DUB) 48 kHz, AC3 Dolby Digital, 3/2 (L,C,R,l,r) + LFE ch, 448.00 kbps avgАудио #2: (VO.YAROCKIY) 48 kHz, AC3 Dolby Digital, 3/2 (L,C,R,l,r) + LFE ch, 448.00 kbps avg (отдельно)Аудио #3: (ENG) 48 kHz, AC3 Dolby Digital, 3/2 (L,C,R,l,r) + LFE ch, 448.00 kbps avg (отдельно)
Подробнее Проф. (полное дублирование) 32,50 ГиБ 17 июл. 2014 г.
Файл: need.for.speed.zhazhda.skorosti-need.for.speed..torrent Качество: Blu-Ray Remux (1080p)Видео: MPEG-4 AVC, 29488 Кбит/с, 1920x1080Аудио: Русский (AC3, 6 ch, 640 Кбит/с), английский (DTS-HD MA, 8 ch, 5228 Кбит/с), (AC3, 2 ch, 320 Кбит/с), (AC3, 2 ch, 192 Кбит/с)
Подробнее Проф. (полное дублирование) 11,97 ГиБ 17 июл. 2014 г.
Файл: need.for.speed.2014.bdrip.1080p..torrent Видео: 1920x804 at 23.976 fps, [email protected], ~10450 kbps avgAудио#1: Russian: 48 kHz, AC3, 3/2 (L,C,R,l,r) + LFE ch, ~640.00 kbps avg |Дубляж, Blu-ray EUR|Аудио#2: English: 48 kHz, DTS, 3/2 (L,C,R,l,r) + LFE ch, ~1536.00 kbps avgAудио#3: English: 48 kHz, AC3, 2/0 (L,R) ch, ~320.00 kbps avg |Descriрtive|Aудио#4: English: 48 kHz, AC3, 2/0 (L,R) ch, ~192.00 kbps avg |Commentary with Director Scott Waugh and Aaron Paul|
Подробнее Проф. (полное дублирование) 7,45 ГиБ 17 июл. 2014 г.
Файл: need.for.speed.2014.720p.bluray.rus.3xeng..torrent Качество: BDRip (720p)Видео: MPEG-4 AVC, 5332 Кбит/с, 1280x536Аудио: Русский (AC3, 6 ch, 640 Кбит/с), английский (DTS, 6 ch, 1536 Кбит/с), (AC3, 2 ch, 320 Кбит/с), (AC3, 2 ch, 192 Кбит/с)
Подробнее Проф. (полное дублирование) 2,05 ГиБ 17 июл. 2014 г.
Подробнее Проф. (полное дублирование) 1,37 ГиБ 17 июл. 2014 г.
Файл: need-for-speed-2014-hdrip.torrent Формат: AVI (XviD) Качество: HDRip [Рип c BDRip 720p] Видео: XviD, 1103 Кбит/с, 720x304 Аудио: AC3, 6 ch, 384 Кбит/с
Подробнее Проф. (чистый звук) 33,36 ГиБ 15 июл. 2014 г.
Файл: need.for.speed.2014.bdremux.1080p.torrent Качество: Blu-Ray Remux 1080p Видео: MPEG-4 AVC, 29488 Кбит/с, 1920x1080Аудио: Русский (AC3, 2 ch, 384 Кбит/с), (DTS, 6 ch, 1536 Кбит/c) английский (DTS-HD MA, 8 ch, 5228 Кбит/с), (AC3, 2 ch, 192 Кбит/с)
Подробнее Проф. (чистый звук) 1,46 ГиБ 15 июл. 2014 г.
Подробнее Проф. (чистый звук) 2,05 ГиБ 15 июл. 2014 г.
Подробнее Проф. (чистый звук) 5,81 ГиБ 15 июл. 2014 г.
Подробнее Проф. (чистый звук) 10,19 ГиБ 15 июл. 2014 г.
Подробнее Проф. (полное дублирование) [звук из кинотеатра] 9,95 ГиБ 12 июл. 2014 г.
Файл: zhazhda-skorosti.2014.1080p..torrent Качество: BDRip 1080p Видео: MPEG-4 AVC, 9263 Кбит/с, 1920x808Аудио: Russian: (MP3, 128 kb/s, 2 ch), English: (DTS, 1510 kb/s, 6 ch)
Подробнее Проф. (полное дублирование) [звук из кинотеатра] 1,37 ГиБ 12 июл. 2014 г.
Подробнее Проф. (полное дублирование) [звук из кинотеатра] 2,06 ГиБ 12 июл. 2014 г.
Файл: nfs.2104.dt.hdrip.2100mb..torrent Качество: HDRipВидео: XviD, 1739 kb/s, 720x304Аудио: Russian: MP3, 128 kb/s (2 ch) / English: AC3, 384 kb/s (6 ch)
Подробнее Проф. (полное дублирование) [звук из кинотеатра] 5,58 ГиБ 12 июл. 2014 г.
Подробнее Проф. (полное дублирование) [звук из кинотеатра] 1,37 ГиБ 11 июл. 2014 г.
Подробнее Проф. (полное дублирование) 1,49 ГиБ 12 апр. 2014 г.
Подробнее Проф. (полное дублирование) 2,05 ГиБ 12 апр. 2014 г.
Подробнее Проф. (полное дублирование) 1,53 ГиБ 18 мар. 2014 г.
Файл: nfs.2014.camrip-proper..torrent Качество: CAMRip *PROPER* (AVI)Видео данные: 720x310, XviD, MPEG-4, ~1494 kbpsАудио данные: Русский: MPEG Layer 3, 2 ch, ~128 kbps / Английский: AC3, Dolby Digital, 2/0 (L,R) ch, ~160 kbpsПримечание: присутствуют вшитые испанские субтитры!
Подробнее Проф. (полное дублирование) 2,05 ГиБ 16 мар. 2014 г.
Файл: nfs.jajda.skorosti.2014.d.camrip.2100mb..torrent Качество: CAMRipВидео: XviD, 2009 kb/s, 720x304Аудио: Russian / English: MP3, 192 kb/s (2 ch)Примечание: Отсутствует 3 минуты перевода!
Подробнее Проф. (полное дублирование) 1,37 ГиБ 16 мар. 2014 г.
Файл: nfs.jajda.skorosti.2014.d.camrip.1400mb..torrent Качество: CAMRipВидео данные: XviD, 1472 Kbps, 720x304Аудио данные: MP3, 2ch, 128 kb/sПримечание: Отсутствует 3 минуты перевода!

Жажда скорости через торрент в хорошем качестве бесплатно 720p

GeneralUnique ID : 219207171805142328707035787426489387079 (0xA4E9C3FFB2C268A38BFBE2B9A77F4847)Complete name : D:\Моя музыка\Need.for.Speed.(2014).BDRip.720p.[envy].[60fps].mkvFormat : MatroskaFormat version : Version 2File size : 6.64 GiBDuration : 2h 10mnOverall bit rate : 7 261 KbpsMovie name : Need for Speed: Жажда скорости.(2014).BDRip.720p.[envy].[60fps]Encoded date : UTC 2014-07-17 06:23:14Writing application : mkvmerge v5.8.0 ('No Sleep / Pillow') built on Sep 2 2012 15:37:04Writing library : libebml v1.2.3 + libmatroska v1.3.0

VideoID : 1Format : AVCFormat/Info : Advanced Video CodecFormat profile : [email protected] settings, CABAC : YesFormat settings, ReFrames : 9 framesCodec ID : V_MPEG4/ISO/AVCDuration : 2h 10mnBit rate : 5 837 KbpsWidth : 1 280 pixelsHeight : 544 pixelsDisplay aspect ratio : 2.35:1Frame rate mode : ConstantFrame rate : 59.880 fpsOriginal frame rate : 59.940 fpsColor space : YUVChroma subsampling : 4:2:0Bit depth : 8 bitsScan type : ProgressiveBits/(Pixel*Frame) : 0.140Stream size : 5.33 GiB (80%)Title : Need for Speed: Жажда скорости.(2014).BDRip.720p.[envy].[60fps]Writing library : x264 core 130 r2273 b3065e6Encoding settings : cabac=1 / ref=9 / deblock=1:-2:-2 / analyse=0x3:0x133 / me=umh / subme=11 / psy=1 / psy_rd=1.00:0.10 / mixed_ref=1 / me_range=32 / chroma_me=1 / trellis=2 / 8x8dct=1 / cqm=0 / deadzone=21,11 / fast_pskip=0 / chroma_qp_offset=-3 / threads=12 / lookahead_threads=1 / sliced_threads=0 / nr=0 / decimate=1 / interlaced=0 / bluray_compat=0 / constrained_intra=0 / bframes=5 / b_pyramid=2 / b_adapt=2 / b_bias=0 / direct=1 / weightb=1 / open_gop=0 / weightp=2 / keyint=250 / keyint_min=25 / scenecut=40 / intra_refresh=0 / rc=crf / mbtree=0 / crf=17.1 / qcomp=0.60 / qpmin=0 / qpmax=69 / qpstep=4 / ip_ratio=1.40 / pb_ratio=1.30 / aq=2:1.00Language : EnglishDefault : YesForced : No

Audio #1ID : 2Format : AC-3Format/Info : Audio Coding 3Mode extension : CM (complete main)Format settings, Endianness : BigCodec ID : A_AC3Duration : 2h 10mnBit rate mode : ConstantBit rate : 640 KbpsChannel(s) : 6 channelsChannel positions : Front: L C R, Side: L R, LFESampling rate : 48.0 KHzBit depth : 16 bitsCompression mode : LossyStream size : 599 MiB (9%)Title : DubLanguage : RussianDefault : YesForced : No

Audio #2ID : 3Format : AC-3Format/Info : Audio Coding 3Mode extension : CM (complete main)Format settings, Endianness : BigCodec ID : A_AC3Duration : 2h 10mnBit rate mode : ConstantBit rate : 640 KbpsChannel(s) : 6 channelsChannel positions : Front: L C R, Side: L R, LFESampling rate : 48.0 KHzBit depth : 16 bitsCompression mode : LossyStream size : 599 MiB (9%)Title : EngLanguage : EnglishDefault : NoForced : No

Text #1ID : 4Format : UTF-8Codec ID : S_TEXT/UTF8Codec ID/Info : UTF-8 Plain TextTitle : ForcedLanguage : RussianDefault : YesForced : Yes

Text #2ID : 5Format : UTF-8Codec ID : S_TEXT/UTF8Codec ID/Info : UTF-8 Plain TextTitle : fullLanguage : RussianDefault : NoForced : No

Text #3ID : 6Format : UTF-8Codec ID : S_TEXT/UTF8Codec ID/Info : UTF-8 Plain TextTitle : fullLanguage : EnglishDefault : NoForced : No

Menu00:00:00.000 : :Chapter 0100:03:54.734 : :Chapter 0200:07:49.760 : :Chapter 0300:14:28.033 : :Chapter 0400:20:43.533 : :Chapter 0500:26:18.159 : :Chapter 0600:28:45.974 : :Chapter 0700:37:46.472 : :Chapter 0800:42:07.608 : :Chapter 0900:50:33.613 : :Chapter 1000:56:00.482 : :Chapter 1101:05:09.864 : :Chapter 1201:12:09.325 : :Chapter 1301:18:21.029 : :Chapter 1401:25:07.143 : :Chapter 1501:32:55.653 : :Chapter 1601:36:38.083 : :Chapter 1701:39:49.441 : :Chapter 1801:49:47.872 : :Chapter 1901:55:41.684 : :Chapter 2002:02:22.752 : :Chapter 21

piratbit.ru

Жажда скорости через торрент в хорошем качестве бесплатно 1080 3D [CHD]

Полное имя : D:\Need.for.Speed.Жажда.скорости-Need.for.Speed.(2014).BDRip.[1080p].3D.mkvФормат : MatroskaВерсия формата : Version 3 / Version 2Размер файла : 13,4 ГбайтПродолжительность : 2 ч. 10 м.Общий поток : 14,6 Мбит/секНазвание фильма : Need for speed (2014) 3DДата кодирования : UTC 2014-07-18 14:50:01Программа кодирования : mkvmerge v5.7.0 ('The Whirlwind') built on Aug 7 2012 14:11:40Библиотека кодирования : libebml v1.2.3 + libmatroska v1.3.0Attachment : Yes

ВидеоИдентификатор : 1Формат : AVCФормат/Информация : Advanced Video CodecПрофиль формата : [email protected]_Count : 2MultiView_Layout : Side by Side (left eye first)Параметр CABAC формата : ДаПараметр ReFrames формата : 4 кадраИдентификатор кодека : V_MPEG4/ISO/AVCПродолжительность : 2 ч. 10 м.Битрейт : 11,8 Мбит/секШирина : 1920 пикселейВысота : 1080 пикселейСоотношение сторон : 16:9Режим частоты кадров : ПостоянныйЧастота кадров : 23,976 кадра/секЦветовое пространство : YUVСубдискретизация насыщенности : 4:2:0Битовая глубина : 8 битТип развёртки : ПрогрессивнаяБит/(Пиксели*Кадры) : 0.237Размер потока : 10,8 Гбайт (81%)Заголовок : Need.for.Speed.Жажда.скорости-Need.for.Speed.(2014).BDRip.[1080p].3DБиблиотека кодирования : x264 core 142 r2389 956c8d8Настройки программы : cabac=1 / ref=4 / deblock=1:-3:-3 / analyse=0x3:0x113 / me=umh / subme=10 / psy=1 / psy_rd=1.00:0.00 / mixed_ref=1 / me_range=32 / chroma_me=1 / trellis=2 / 8x8dct=1 / cqm=0 / deadzone=21,11 / fast_pskip=0 / chroma_qp_offset=-4 / threads=6 / lookahead_threads=1 / sliced_threads=0 / nr=0 / decimate=0 / interlaced=0 / bluray_compat=0 / constrained_intra=0 / bframes=6 / b_pyramid=2 / b_adapt=2 / b_bias=0 / direct=3 / weightb=1 / open_gop=0 / weightp=2 / keyint=250 / keyint_min=23 / scenecut=40 / intra_refresh=0 / rc=crf / mbtree=0 / crf=17.0 / qcomp=0.80 / qpmin=0 / qpmax=69 / qpstep=4 / frame-packing=3 / ip_ratio=1.30 / pb_ratio=1.30 / aq=2:0.90Язык : EnglishDefault : ДаForced : Нет

Аудио #1Идентификатор : 2Формат : AC-3Формат/Информация : Audio Coding 3Расширение режима : CM (complete main)Параметр Endianness формата : BigИдентификатор кодека : A_AC3Продолжительность : 2 ч. 10 м.Вид битрейта : ПостоянныйБитрейт : 640 Кбит/секКаналы : 6 каналовРасположение каналов : Front: L C R, Side: L R, LFEЧастота : 48,0 КГцБитовая глубина : 16 битМетод сжатия : С потерямиРазмер потока : 599 Мбайт (4%)Заголовок : AC3 5.1 / 640 kbps / Dub (Blu-ray 3D EUR)Язык : RussianDefault : ДаForced : Нет

Аудио #2Идентификатор : 3Формат : AC-3Формат/Информация : Audio Coding 3Расширение режима : CM (complete main)Параметр Endianness формата : BigИдентификатор кодека : A_AC3Продолжительность : 2 ч. 10 м.Вид битрейта : ПостоянныйБитрейт : 384 Кбит/секКаналы : 6 каналовРасположение каналов : Front: L C R, Side: L R, LFEЧастота : 48,0 КГцБитовая глубина : 16 битМетод сжатия : С потерямиРазмер потока : 359 Мбайт (3%)Заголовок : AC3 5.1 / 384 kbps / Dub (центральный канал line)Язык : UkrainianDefault : НетForced : Нет

Аудио #3Идентификатор : 4Формат : DTSФормат/Информация : Digital Theater SystemsИдентификатор кодека : A_DTSПродолжительность : 2 ч. 10 м.Вид битрейта : ПостоянныйБитрейт : 1510 Кбит/секКаналы : 6 каналовРасположение каналов : Front: L C R, Side: L R, LFEЧастота : 48,0 КГцБитовая глубина : 24 битМетод сжатия : С потерямиРазмер потока : 1,38 Гбайт (10%)Заголовок : DTS 5.1 / 1536 kbps / OriginalЯзык : EnglishDefault : НетForced : Нет

Текст #1Идентификатор : 5Формат : UTF-8Идентификатор кодека : S_TEXT/UTF8Идентификатор кодека/Информация : UTF-8 Plain TextЗаголовок : ForcedЯзык : RussianDefault : ДаForced : Нет

Текст #2Идентификатор : 6Формат : UTF-8Идентификатор кодека : S_TEXT/UTF8Идентификатор кодека/Информация : UTF-8 Plain TextЗаголовок : FullЯзык : RussianDefault : НетForced : Нет

Текст #3Идентификатор : 7Формат : UTF-8Идентификатор кодека : S_TEXT/UTF8Идентификатор кодека/Информация : UTF-8 Plain TextЗаголовок : FullЯзык : EnglishDefault : НетForced : Нет

Меню00:00:00.000 : :1 - 0:00:0000:03:54.734 : :2 - 0:03:5400:07:49.760 : :3 - 0:07:4900:14:28.033 : :4 - 0:14:2800:20:43.533 : :5 - 0:20:4300:26:18.159 : :6 - 0:26:1800:28:45.974 : :7 - 0:28:4500:37:46.472 : :8 - 0:37:4600:42:07.608 : :9 - 0:42:0700:50:33.613 : :10 - 0:50:3300:56:00.482 : :11 - 0:56:0001:05:09.864 : :12 - 1:05:0901:12:09.324 : :13 - 1:12:0901:18:21.029 : :14 - 1:18:2101:25:07.143 : :15 - 1:25:0701:32:55.653 : :16 - 1:32:5501:36:38.083 : :17 - 1:36:3801:39:49.441 : :18 - 1:39:4901:49:47.872 : :19 - 1:49:4701:55:41.684 : :20 - 1:55:4102:02:22.752 : :21 - 2:02:2202:10:53.053 : :22 - 2:10:53

piratbit.ru

Жажда скорости через торрент в хорошем качестве бесплатно 1080p

GeneralUnique ID                                : 194957556905959527269821490067252107665 (0x92AB75AD20D15A448E8ED6BC9386D991)Complete name                            : E:\Need for Speed. Жажда скорости (2014) 1080p.mkvFormat                                   : MatroskaFormat version                           : Version 4 / Version 2File size                                : 12.9 GiBDuration                                 : 2h 10mnOverall bit rate                         : 14.1 MbpsMovie name                               : Need for Speed: Жажда скоростиEncoded date                             : UTC 2014-07-23 22:01:32Writing application                      : mkvmerge v6.9.1 ('Blue Panther') 64bit built on Apr 18 2014 18:23:38Writing library                          : libebml v1.3.0 + libmatroska v1.4.1Attachment                               : Yes

VideoID                                       : 1Format                                   : AVCFormat/Info                              : Advanced Video CodecFormat profile                           : [email protected] settings, CABAC                   : YesFormat settings, ReFrames                : 5 framesCodec ID                                 : V_MPEG4/ISO/AVCDuration                                 : 2h 10mnBit rate                                 : 10.4 MbpsWidth                                    : 1 920 pixelsHeight                                   : 804 pixelsDisplay aspect ratio                     : 2.40:1Frame rate                               : 23.976 fpsColor space                              : YUVChroma subsampling                       : 4:2:0Bit depth                                : 8 bitsScan type                                : ProgressiveBits/(Pixel*Frame)                       : 0.282Stream size                              : 9.28 GiB (72%)Title                                    : CHDWriting library                          : x264 core 138 r2356 a1d3d17Encoding settings                        : cabac=1 / ref=5 / deblock=1:-3:-3 / analyse=0x3:0x113 / me=umh / subme=10 / psy=1 / psy_rd=1.00:0.05 / mixed_ref=1 / me_range=32 / chroma_me=1 / trellis=2 / 8x8dct=1 / cqm=0 / deadzone=21,11 / fast_pskip=0 / chroma_qp_offset=-2 / threads=18 / lookahead_threads=1 / sliced_threads=0 / nr=0 / decimate=1 / interlaced=0 / bluray_compat=0 / constrained_intra=0 / bframes=5 / b_pyramid=2 / b_adapt=2 / b_bias=0 / direct=3 / weightb=1 / open_gop=0 / weightp=2 / keyint=250 / keyint_min=23 / scenecut=40 / intra_refresh=0 / rc=2pass / mbtree=0 / bitrate=10450 / ratetol=1.0 / qcomp=0.70 / qpmin=0 / qpmax=69 / qpstep=4 / cplxblur=20.0 / qblur=0.5 / ip_ratio=1.40 / pb_ratio=1.30 / aq=2:1.00Language                                 : EnglishDefault                                  : YesForced                                   : No

Audio #1ID                                       : 2Format                                   : AC-3Format/Info                              : Audio Coding 3Mode extension                           : CM (complete main)Codec ID                                 : A_AC3Duration                                 : 2h 10mnBit rate mode                            : ConstantBit rate                                 : 640 KbpsChannel(s)                               : 6 channelsChannel positions                        : Front: L C R, Side: L R, LFESampling rate                            : 48.0 KHzBit depth                                : 16 bitsCompression mode                         : LossyStream size                              : 599 MiB (5%)Title                                    : Дублированный, Blu-ray 3D EURLanguage                                 : RussianDefault                                  : YesForced                                   : No

Audio #2ID                                       : 3Format                                   : DTSFormat/Info                              : Digital Theater SystemsCodec ID                                 : A_DTSDuration                                 : 2h 10mnBit rate mode                            : ConstantBit rate                                 : 1 510 KbpsChannel(s)                               : 6 channelsChannel positions                        : Front: L C R, Side: L R, LFESampling rate                            : 48.0 KHzBit depth                                : 24 bitsCompression mode                         : LossyStream size                              : 1.38 GiB (11%)Title                                    : Авторский, М.ЯроцкийLanguage                                 : RussianDefault                                  : NoForced                                   : No

Audio #3ID                                       : 4Format                                   : DTSFormat/Info                              : Digital Theater SystemsCodec ID                                 : A_DTSDuration                                 : 2h 10mnBit rate mode                            : ConstantBit rate                                 : 1 510 KbpsChannel(s)                               : 6 channelsChannel positions                        : Front: L C R, Side: L R, LFESampling rate                            : 48.0 KHzBit depth                                : 24 bitsCompression mode                         : LossyStream size                              : 1.38 GiB (11%)Title                                    : ОригиналLanguage                                 : EnglishDefault                                  : NoForced                                   : No

Text #1ID                                       : 5Format                                   : UTF-8Codec ID                                 : S_TEXT/UTF8Codec ID/Info                            : UTF-8 Plain TextTitle                                    : ForcedLanguage                                 : RussianDefault                                  : YesForced                                   : No

Text #2ID                                       : 6Format                                   : UTF-8Codec ID                                 : S_TEXT/UTF8Codec ID/Info                            : UTF-8 Plain TextTitle                                    : FullLanguage                                 : RussianDefault                                  : NoForced                                   : No

Text #3ID                                       : 7Format                                   : UTF-8Codec ID                                 : S_TEXT/UTF8Codec ID/Info                            : UTF-8 Plain TextTitle                                    : FullLanguage                                 : EnglishDefault                                  : NoForced                                   : No

Menu00:00:00.000                             : en:00:00:00.00000:03:54.734                             : en:00:03:54.73400:07:49.761                             : en:00:07:49.76100:14:28.034                             : en:00:14:28.03400:20:43.534                             : en:00:20:43.53400:26:18.160                             : en:00:26:18.16000:28:45.974                             : en:00:28:45.97400:37:46.473                             : en:00:37:46.47300:42:07.608                             : en:00:42:07.60800:50:33.614                             : en:00:50:33.61400:56:00.482                             : en:00:56:00.48201:05:09.864                             : en:01:05:09.86401:12:09.325                             : en:01:12:09.32501:18:21.030                             : en:01:18:21.03001:25:07.144                             : en:01:25:07.14401:32:55.653                             : en:01:32:55.65301:36:38.084                             : en:01:36:38.08401:39:49.442                             : en:01:39:49.44201:49:47.873                             : en:01:49:47.87301:55:41.685                             : en:01:55:41.68502:02:22.752                             : en:02:02:22.752

piratbit.ru

Жажда скорости в 3Д (2014) скачать торрент в хорошем качестве

Год выпуска: 2014

Страна: США, Филиппины, Ирландия, Великобритания (Touchstone Pictures, DreamWorks SKG, Reliance Entertainment, EA [Electronic Arts])

Жанр: Боевик, Триллер, Драма, Криминал

Продолжительность: 2:10:53

Перевод: Профессиональный дублированный (Лицензия)

Режиссер: Скотт Во / Scott Waugh

Роли исполняли (дублировали): Tobey Marshall - Аарон Пол (Сергей Куницкий) Dino Brewster - Доминик Купер (Стас Войнич) Julia Maddon - Имоджен Путс (Марина Гладкая) Anita - Дакота Джонсон Monarch - Майкл Китон (Станислав Концевич) Joe Peck - Рамон Родригес Officer Lejeune - Ник Чинланд (Максим Сергеев) Benny - Скотт Мескади (Валерий Смекалов) Finn - Рами Малек (Андрей Лёвин) Little Pete - Харрисон Джилбертсон Bill Ingram - Стиви Рэй Дэллимор

 

История Тоби Маршалла, гениального автомеханика, чьей единственной отдушиной является участие в подпольных гонках. Чтобы сохранить семейную мастерскую, Тоби вынужден взять в партнеры богатого и заносчивого бывшего гонщика NASCAR Дино Брюстера. Когда дела Тоби наконец-то начинают идти в гору, Дино подставляет партнера, и Тоби обвиняют в преступлении, которого он не совершал. Спустя два года Тоби выходит из тюрьмы с мыслью о мести. Чтобы достичь своей цели, ему придется совершить невозможное и доказать, что даже в мире броских суперкаров самый невзрачный гонщик может финишировать первым.

Качество: BDRip (by Ash61)

Контейнер: MKV

Формат 3D: Half OverUnder / Вертикальная анаморфная стереопара

Порядок ракурсов: левый ракурс первый

Видео кодек: x264

Аудио кодек: AC3

Видео: AVC / 23,976 fps / 1920х1080p / ~8.7 Mbps

Аудио:

#1 - Русский / AC3 / 48 KHz / 5.1 ch / 640 Kbps (Дубляж - BD 3D Eur)

#2 - Английский / AC3 / 48 KHz / 5.1 ch / 640 Kbps (Original - BD 3D Eur)

Субтитры: (SRT)

Вшитые (softsub):

#1 - Русские Форсированные (включены по умолчанию)

#2 - Русские Полные

#3 - English Full

#4 - English SDH

#5 - English SDH-Colored

Внешние (UTF-8):

#1 - Русские Форсированные (включены по умолчанию)

Поиск торрент раздач, пожалуйста подождите!

Информация о торрент файле

Скачать торрент Торрент: Зарегистрирован Статус: v Проверено Просмотров: 2 973 Категория: боевики 3D Общий размер: 9.32 GB

Поделитесь ссылкой на наш сайт с друзьями в соц.сетях ↓

mega-torrent.co

Жажда скорости через торрент в хорошем качестве бесплатно BDRip-AVC

ОбщееУникальный идентификатор : 188180617157670277685595024275523011150 (0x8D9244BFEFD07D6D8B2D10DFBEFC824E)Полное имя : N.F.S.Zhazhda.Skorosti.2014.RUS.BDRip.x264.-HELLYWOOD.mkvФормат : MatroskaВерсия формата : Version 4 / Version 2Размер файла : 1,46 ГбайтПродолжительность : 2 ч. 10 м.Общий поток : 1599 Кбит/секНазвание фильма : Need for Speed (2014) - HELLYWOODДата кодирования : UTC 2014-07-21 10:28:26Программа кодирования : mkvmerge v5.9.0 ('On The Loose') built on Dec 15 2012 16:39:58Библиотека кодирования : libebml v1.3.0 + libmatroska v1.4.0

ВидеоИдентификатор : 1Формат : AVCФормат/Информация : Advanced Video CodecПрофиль формата : [email protected]Параметр CABAC формата : ДаПараметр ReFrames формата : 12 кадровИдентификатор кодека : V_MPEG4/ISO/AVCПродолжительность : 2 ч. 10 м.Битрейт : 1406 Кбит/секШирина : 960 пикселейВысота : 402 пикселяСоотношение сторон : 2,40:1Режим частоты кадров : ПостоянныйЧастота кадров : 23,976 кадра/секЦветовое пространство : YUVСубдискретизация насыщенности : 4:2:0Битовая глубина : 8 битТип развёртки : ПрогрессивнаяБит/(Пиксели*Кадры) : 0.152Размер потока : 1,26 Гбайт (86%)Заголовок : potroksБиблиотека кодирования : x264 core 130 r2273 b3065e6Настройки программы : cabac=1 / ref=12 / deblock=1:-2:-1 / analyse=0x3:0x133 / me=umh / subme=11 / psy=1 / psy_rd=1.03:0.00 / mixed_ref=1 / me_range=48 / chroma_me=1 / trellis=2 / 8x8dct=1 / cqm=0 / deadzone=21,11 / fast_pskip=0 / chroma_qp_offset=-2 / threads=9 / lookahead_threads=6 / sliced_threads=0 / nr=0 / decimate=0 / interlaced=0 / bluray_compat=0 / constrained_intra=0 / bframes=13 / b_pyramid=2 / b_adapt=2 / b_bias=0 / direct=3 / weightb=1 / open_gop=0 / weightp=2 / keyint=250 / keyint_min=23 / scenecut=40 / intra_refresh=0 / rc_lookahead=60 / rc=2pass / mbtree=0 / bitrate=1406 / ratetol=1.0 / qcomp=0.70 / qpmin=0 / qpmax=69 / qpstep=4 / cplxblur=20.0 / qblur=0.5 / vbv_maxrate=50000 / vbv_bufsize=62500 / nal_hrd=none / ip_ratio=1.35 / pb_ratio=1.25 / aq=2:0.80Язык : EnglishDefault : ДаForced : Нет

АудиоИдентификатор : 2Формат : AC-3Формат/Информация : Audio Coding 3Расширение режима : CM (complete main)Параметр Endianness формата : BigИдентификатор кодека : A_AC3Продолжительность : 2 ч. 10 м.Вид битрейта : ПостоянныйБитрейт : 192 Кбит/секКаналы : 2 каналаРасположение каналов : Front: L RЧастота : 48,0 КГцБитовая глубина : 16 битМетод сжатия : С потерямиРазмер потока : 180 Мбайт (12%)Заголовок : Dub | DD 2.0 @ 192 kbps - BD EURЯзык : RussianDefault : ДаForced : Нет

Текст #1Идентификатор : 3Формат : UTF-8Идентификатор кодека : S_TEXT/UTF8Идентификатор кодека/Информация : UTF-8 Plain TextЗаголовок : форс.Язык : RussianDefault : ДаForced : Да

Текст #2Идентификатор : 4Формат : UTF-8Идентификатор кодека : S_TEXT/UTF8Идентификатор кодека/Информация : UTF-8 Plain TextЗаголовок : Blu-RayЯзык : RussianDefault : НетForced : Нет

Текст #3Идентификатор : 5Формат : UTF-8Идентификатор кодека : S_TEXT/UTF8Идентификатор кодека/Информация : UTF-8 Plain TextЯзык : EnglishDefault : НетForced : Нет

Меню00:00:00.000 : en:Chapter 100:03:54.734 : en:Chapter 200:07:49.760 : en:Chapter 300:14:28.033 : en:Chapter 400:20:43.533 : en:Chapter 500:26:18.159 : en:Chapter 600:28:45.974 : en:Chapter 700:37:46.472 : en:Chapter 800:42:07.608 : en:Chapter 900:50:33.613 : en:Chapter 1000:56:00.482 : en:Chapter 1101:05:09.864 : en:Chapter 1201:12:09.325 : en:Chapter 1301:18:21.029 : en:Chapter 1401:25:07.143 : en:Chapter 1501:32:55.653 : en:Chapter 1601:36:38.083 : en:Chapter 1701:39:49.441 : en:Chapter 1801:49:47.872 : en:Chapter 1901:55:41.684 : en:Chapter 2002:02:22.752 : en:Chapter 21

piratbit.ru


Смотрите также