Скачать мотыльки через торрент в хорошем качестве


Мотыльки (фильм, 2013) скачать торрент -

hokit.ru

Коротко о фильме "Мотыльки" - История любви двух молодых людей, 17-летней девушки и солдата, на фоне Чернобыльской атомной катастрофы.

Мотыльки (мини-сериал)

Фильм выпущен: 2013
Страна (кинокомпания): Украина, film.ua
Режиссер: Виталий Воробьев
Сценарий фильма: Валерий Мухарьямов
Продюсер фильма: Екатерина Швец, Виктор Мирский
Оператор: Павел Кулаков
Композитор: Максим Кошеваров
Художники: Владимир Душин
Монтаж:
Жанр фильма: драма
Премьера (мир): 27 апреля 2013 (Интер, Украина)
премьера (Pоссия):
продолжительность4 серии по 50 мин
В главных ролях:
Максим Заусалин
Артем Ткаченко
Юлия Рутберг
Юрий Назаров
Андрей Казаков
Евгения Лоза
Мария Поезжаева
Юрий Борисов
и другие ...

Трейлер фильма:

 

Скачать фильм Мотыльки - новинка кино 2013

В фильме "Мотыльки" - Мотыльки [01-04 из 04] (2013) WEB-DL 1080p

Параметры

Формат: WEB-DL 1080p, MKV, AAC, размер файла: 8,31 Гб Видео: 1920x1076, MPEG-4 AVC - 6000 Кбит/с Аудио: AAC, 2 канала, 130 Кбит/с Перевод (озвучивание):

Торрент от 28 сентября 2013, WEB-DL 1080p, 8,31 Гб - 1 - 4 серии Мотыльки [01-04 из 04] (2013) WEB-DL 720p

Параметры

Формат: WEB-DL 720p, MKV, AC3, размер файла: 5,71 Гб Видео: 1280x720, MPEG-4 AVC - ~ 4200 Кбит/с Аудио: AC3, 2 канала, 130 Кбит/с Перевод (озвучивание):

Торрент от 28 сентября 2013, WEB-DL 720p, 5,71 Гб - 1 - 4 серии Мотыльки (1-4 серия из 4) (2013) SATRip

Параметры

Формат: SATRip, MP3 Видео: 704x400, XviD - ~ 1406 Кбит/с Аудио: MP3, 2 канала, 128 Кбит/с Перевод (озвучивание):

Торрент-раздача от 28.04.2013 SATRip, 2,15 гб - 1 - 4 серии Торрент-раздача от 28 апреля 2013 SATRip, 2,15 Гб - 1 - 4 серии Мотыльки [01-04 из 04] (2013) DVB

Параметры

Формат: DVB, размер файла: 3,39 Гб Видео: [email protected], MPEG-2 - ~2257 Кбит/с Аудио: , 2 канала, Перевод (озвучивание):

Торрент-раздача от 28 апреля 2013 DVB, 3,39 Гб - 1 - 4 серии Смотрите фильм Мотыльки онлайн:

Скачать Мотыльки, фильм бесплатно скачать торрент, драма, новинка кино

 

1-4 из 4 [2013 SATRip] скачать через торрент

piratbit.ru

Размер: 2.15 GB | Добавлен: 4 года 5 мес. назад | Торрент скачан:6961 раз
Реклама Дарим 3000 рублей за регистрацию, не упусти свой шанс получить шикарный бонус!!!

28-04-2013 14:53 Мотыльки Скачать торрент  

Мотыльки

Год выпуска: 2013 Страна: Украина/ FILM.UAЖанр: драмаПродолжительность: 4 х 00:50:00Режиссер: Виталий ВоробьевПродюссер: Екатерина Швец, Виктор МирскийСценарий: Валерий МухарьямовМировой рейтинг IMDB В ролях: Юрий Борисов, Мария Поезжаева, Евгения Лоза, Андрей Казаков, Юрий Назаров, Юлия Рутберг, Артем Ткаченко, Максим Заусалин, Тимур Боканча, Олег Примогенов,Описание: История любви двух молодых людей, 17-летней девушки и солдата, на фоне Чернобыльской атомной катастрофы.Качество: SATRipФормат: AVIВидео кодек: DivXАудио кодек: MP3 Видео: 704x400, 25.000 fps, ~1409 kbps avg, 0.24 bit/pixelАудио#1: 48 kHz, MPEG Layer 3, 2 ch, ~128.00 kbps avg

ОбщееПолное имя : D:Мотыльки 2013 SATRipМотыльки 01 2013 SATRip.aviФормат : AVIФормат/Информация : Audio Video InterleaveРазмер файла : 550 МбайтПродолжительность : 49 м.Общий поток : 1546 Кбит/секПрограмма кодирования : VirtualDubMod 1.5.10.2 (build 2540/release)Библиотека кодирования : VirtualDubMod build 2540/releaseВидеоИдентификатор : 0Формат : MPEG-4 VisualПрофиль формата : Advanced [email protected]Параметр BVOP формата : 2Параметр QPel формата : НетПараметр GMC формата : Без точки переходаПараметр матрицы формата : Default (MPEG)Идентификатор кодека : XVIDИдентификатор кодека/Подсказка : XviDПродолжительность : 49 м.Битрейт : 1409 Кбит/секШирина : 704 пикселяВысота : 400 пикселейСоотношение сторон : 16:9Частота кадров : 25,000 кадров/секЦветовое пространство : YUVСубдискретизация насыщенности : 4:2:0Битовая глубина : 8 битТип развёртки : ПрогрессивнаяМетод сжатия : С потерямиБит/(Пиксели*Кадры) : 0.200Размер потока : 501 Мбайт (91%)Библиотека кодирования : XviD 65АудиоИдентификатор : 1Формат : MPEG AudioВерсия формата : Version 1Профиль формата : Layer 3Режим : Joint stereoРасширение режима : MS StereoИдентификатор кодека : 55Идентификатор кодека/Подсказка : MP3 Продолжительность : 49 м.Вид битрейта : ПостоянныйБитрейт : 128 Кбит/секКаналы : 2 каналаЧастота : 48,0 КГцМетод сжатия : С потерямиРазмер потока : 45,5 Мбайт (8%)Выравнивание : Соединение по промежуткамПродолжительность промежутка : 40 мс. (1,00 видеокадр)Время предзагрузки промежутка : 504 мс.

Мотыльки (мини-сериал) скачать торрент

Скачать Мотыльки через торрент http://pic.pb.wtf/images/2/6bsj2fxgi6.jpg Скачать фильм Мотыльки через торрент бесплантно в хорошем качестве Описание: История любви двух молодых людей, 17-летней девушки и солдата, на фоне Чернобыльской атомной ... 2013-04-28 14:53 9.5 10 259

Loading...

Loading...

Рекламный пират

29-04-2013 09:25 Мотыльки Скачать торрент  

буду забирать, говорят отличный фильм если к деталям не придираться. спасибо за раздачу

29-04-2013 15:28 Мотыльки Скачать торрент  

Хронология и достоверность никакая, но на то это и художественный фильм

22-06-2013 11:48 Мотыльки Скачать торрент  

хорош фильм, тронул . советую

16-07-2013 12:04 Мотыльки Скачать торрент  

не понравился совсем.

16-07-2013 14:16 Мотыльки Скачать торрент  

это все серии?

16-07-2013 14:24 Мотыльки Скачать торрент  

dimon0104 писал(а):

это все серии?

Да

16-07-2013 18:06 Мотыльки Скачать торрент  

фильм отличный, зацепил за живое

16-07-2013 21:38 Мотыльки Скачать торрент  

зачет,спасибо,это действительно интересно!

Pекламный агент PB

17-07-2013 08:44 Мотыльки Скачать торрент  

Смотрел, оценка 10/10, школоло не поймет, не на один раз фильм!

17-07-2013 17:03 Мотыльки Скачать торрент  

Кому интересна история,есть документальный фильм Битва за Чернобыль.Очень советую посмотреть.Да и то,мне кажется,всей правды мы никогда не узнаем.Очень уж всю эту историю пытались замять в то время.

17-07-2013 17:40 Мотыльки Скачать торрент  

В Моем городе снимали некоторые эпизоды,даже принимал участие в масовке)

17-07-2013 18:12 Мотыльки Скачать торрент  

ТУПЕЕ ФИЛЬМА ПРО ЧАЭС Я ЕЩЁ НЕ ВИДЕЛ. НЕ УЖЕЛИ ПРИ СОВЕТСКОМ СОЮЗЕ МОЛОДЕЖ БЫЛА ТАКОЙ ОБЕЗБАШЕННОЙ.1 увидев взрыв сёстра ст. побежала за псиной и не вернулась.на следующий день стала санитаркой не подумав что ребёнок (дл.сестра)один дома2 остатся одной в городе с трупом на тачке из за обещания чужим людям3 спрятатся под кровать ! ради чего ??? НУ И Т.Д.ОДНО ОДОБРЯЮ: КОГДА ОНИ ГУЛЯЛИ В НАСТОЯЩЕМ ГОРОДЕ ГДЕ НЕТ ВООБЩЕ ЛЮДЕЙ !   Грубо игнорировать правила правописания, писать "йазЫком падонкафф," КАПСИТЬ, и ПиСаТь ВоТ тАк., выдал Ворон

17-07-2013 19:12 Мотыльки Скачать торрент  

Советую всем !!!!!

18-07-2013 12:02 Мотыльки Скачать торрент  

Уже не один раз пересмотрел, очень нравится!

18-07-2013 17:40 Мотыльки Скачать торрент  

Фильм как по мне оч хорош для украинского проката да и игра актеров тронула))

19-07-2013 08:33 Мотыльки Скачать торрент  

Отличный фильм....очень трогательный...

Pекламный агент PB

19-07-2013 16:42 Мотыльки Скачать торрент  

Очень сильно. Однозначно лучшее, что снял украинский кинематограф. Есть конечно смысловые непонятки отдельных эпизодов, поведение героев странное. Но атмосфера, звук, операторы - 5 баллов.

19-07-2013 17:57 Мотыльки Скачать торрент  

Отличный фильм!

19-07-2013 19:27 Мотыльки Скачать торрент  

фильм-огонь,смотрится на одном дыхании

19-07-2013 19:51 Мотыльки Скачать торрент  

Надо глянуть..

19-07-2013 20:55 Мотыльки Скачать торрент  

очень мощный фильм! Тронуло до слез....

20-07-2013 11:08 Мотыльки Скачать торрент  

Комменты обещающие! Забираю.

21-07-2013 02:26 Мотыльки Скачать торрент  

пойдёт кинчик, особенно, аж слезу пустил когда солдатики на верную мерть вызвались, уж больно знакомо...

21-07-2013 09:39 Мотыльки Скачать торрент  

класный сериал советую))))))

Pекламный агент PB

Дорогой пользователь! Огромная просьба, поблагодарите релизера, оцените раздачу и оставьте свои комментарий, если Вы скачали Мотыльки через торрент бесплатно! Внесите свою лепту в развитие PiratBit!

Комментировать посты могут только пользователи прошедшие не сложную регистрацию

Мотыльки через торрент Скачать бесплатно Мотыльки Мотыльки скачать торрент Мотыльки смотреть онлайн Cкачать фильм Мотыльки бесплатно Мотыльки скачать торрент в хорошем качестве Мотыльки смотреть онлайн бесплатно в хорошем качестве

Вы не можете начинать темыВы не можете отвечать на сообщенияВы не можете редактировать свои сообщенияВы не можете удалять свои сообщенияВы не можете голосовать в опросахВы не можете прикреплять файлы к сообщениямВы можете скачивать файлы

Скачать фильм Мотылек (1973) через торрент

gig-torrent.net

8 сентября 2016 07:17 Мотылек / Papillon (1973) BDRip 720p от Leonardo and Scarabey .torrent   [Информация о файле (нажмите для просмотра)] Перевод: Профессиональный (многоголосый закадровый)Формат: MKVВидео кодек: MPEG-4 AVC Аудио кодек: AC3Видео: AVC, 1280x534 (2.40:1) at 23.976 fps, AVC at 3689 kbps avg, 0.225 bit/pixelАудио: Russian: 48 kHz; AC3 5.1; 448.00 kbps avg; профессиональный, многоголосый закадровыйСубтитры: Русские, английские 4,36 Gb 19 4
8 сентября 2016 07:17 Мотылек / Papillon (1973) BDRip 1080p .torrent   [Информация о файле (нажмите для просмотра)] Перевод: Профессиональный (многоголосый закадровый) DVD Магия + Профессиональный (многоголосый, закадровый) телеканал ОРТ + Профессиональный (двухголосый, закадровый) П. Гланц и И. Королева + ОригиналКодек: x264Качество: BDRip 1080p (источник: BLUEBIRD / Blu-ray Disc / 1080p)Видео: 1920х802 (2.40:1), 9308 Kbps, 23.976 fps, 0.252 bit/pixelАудио #1: 48.0 kHz, AC3 Dolby Digital, 2/0 (L,R) ch, 192 kbps [Многоголосый, DVD Магия]Аудио #2: 48.0 kHz, AC3 Dolby Digital, 2/0 (L,R) ch, 192 kbps [Многоголосый, телеканал ОРТ]Аудио #3: 48.0 kHz, AC3 Dolby Digital, 3/2 (L,C,R,l,r) + LFE ch, 640 kbps [Двухголосый, П. Гланц и И. Королева]Аудио #4: 48.0 kHz, AC3 Dolby Digital, 3/2 (L,C,R,l,r) + LFE ch, 640 kbps [Оригинал, Английский]Аудио #5: 48.0 kHz, AC3 Dolby Digital, 3/2 (L,C,R,l,r) + LFE ch, 640 kbps [Авторский, А. Гаврилов]Отдельно на disk.yandex.ruАудио #6: 48.0 kHz, AC3 Dolby Digital, 3/2 (L,C,R,l,r) + LFE ch, 640 kbps [Авторский, М. Иванов]Отдельно на disk.yandex.ruСубтитры: Русские, английские [SDH] 11,56 Gb 6 1
8 сентября 2016 07:17 Мотылёк / Papillon (1973) BDRip 720p | P, P2, A .torrent   [Информация о файле (нажмите для просмотра)] Качество: BDRip 720pВидео: MPEG-4 AVC, 4737 Kбит/с, 1280x534Аудио 1: русский, 48 kHz, AC3, 2 ch, 192 kbps avg, DVD Магия [Профессиональный многоголосый]Аудио 2: русский, 48 kHz, AC3, 2 ch, 192 kbps avg, OPT [Профессиональный многоголосый]Аудио 3: русский, 48 kHz, AC3, 6 ch, 448 kbps avg, Пётр Гланц и Инна Королёва [Профессиональный двухголосый]Аудио 4: русский, 48 kHz, AC3, 2 ch, 192 kbps avg, [Профессиональный двухголосый]Аудио 5: русский, 48 kHz, AC3, 6 ch, 448 kbps avg, Андрей Гаврилов [Авторский]Аудио 3: русский, 48 kHz, DTS, 6 ch, 1509 kbps avg, Пётр Гланц и Инна Королёва [Профессиональный двухголосый]Аудио 4: русский, 48 kHz, DTS, 6 ch, 1509 kbps avg, Андрей Гаврилов [Авторский]Аудио: английский, 48 kHz, AC3, 6 ch, 448 kbps avg, [Оригинал]Субтитры: русскиеСубтитры: английскиеАудио: Формат : DTS Формат/Информация : Digital Theater Systems Режим : 16 Параметр Endianness формата : Big Продолжительность : 2 ч. 30 м. Вид битрейта : Постоянный Битрейт : 1510 Кбит/сек Каналы : 6 каналов Расположение каналов : Front: L C R, Side: L R, LFE Частота : 48,0 КГц Битовая глубина : 24 бит Метод сжатия : С потерями Размер потока : 1,59 Гбайт (100%)Аудио: Формат : DTS Формат/Информация : Digital Theater Systems Режим : 16 Параметр Endianness формата : Big Продолжительность : 2 ч. 30 м. Вид битрейта : Постоянный Битрейт : 1510 Кбит/сек Каналы : 6 каналов Расположение каналов : Front: L C R, Side: L R, LFE Частота : 48,0 КГц Битовая глубина : 24 бит Метод сжатия : С потерями Размер потока : 1,59 Гбайт (100%)Аудио: Формат : AC-3 Формат/Информация : Audio Coding 3 Расширение режима : CM (complete main) Параметр Endianness формата : Big Продолжительность : 2 ч. 30 м. Вид битрейта : Постоянный Битрейт : 448 Кбит/сек Каналы : 6 каналов Расположение каналов : Front: L C R, Side: L R, LFE Частота : 48,0 КГц Битовая глубина : 16 бит Метод сжатия : С потерями Размер потока : 483 Мбайт (100%)Видео: Идентификатор : 1 Формат : AVC Формат/Информация : Advanced Video Codec Профиль формата : [email protected] Параметр CABAC формата : Да Параметр ReFrames формата : 9 кадров Идентификатор кодека : V_MPEG4/ISO/AVC Продолжительность : 2 ч. 30 м. Битрейт : 4737 Кбит/сек Ширина : 1280 пикселей Высота : 534 пикселя Соотношение сторон : 2,40:1 Режим частоты кадров : Постоянный Частота кадров : 23,976 кадра/сек Цветовое пространство : YUV Субдискретизация насыщенности : 4:2:0 Битовая глубина : 8 бит Тип развёртки : Прогрессивная Бит/(Пиксели*Кадры) : 0.289 Размер потока : 4,99 Гбайт (75%) Библиотека кодирования : x264 core 133 r2334 a3ac64b Настройки программы : cabac=1 / ref=9 / deblock=1:-1:-1 / analyse=0x3:0x113 / me=umh / subme=10 / psy=1 / psy_rd=1.00:0.15 / mixed_ref=1 / me_range=24 / chroma_me=1 / trellis=2 / 8x8dct=1 / cqm=0 / deadzone=21,11 / fast_pskip=0 / chroma_qp_offset=-3 / threads=6 / lookahead_threads=1 / sliced_threads=0 / nr=0 / decimate=1 / interlaced=0 / bluray_compat=0 / constrained_intra=0 / bframes=8 / b_pyramid=2 / b_adapt=2 / b_bias=0 / direct=1 / weightb=0 / open_gop=0 / weightp=2 / keyint=230 / keyint_min=23 / scenecut=40 / intra_refresh=0 / rc_lookahead=60 / rc=crf / mbtree=0 / crf=18.0 / qcomp=0.60 / qpmin=0 / qpmax=69 / qpstep=4 / vbv_maxrate=50000 / vbv_bufsize=62500 / crf_max=0.0 / nal_hrd=none / ip_ratio=1.40 / pb_ratio=1.30 / aq=1:0.80 Язык : English Default : Да Forced : НетАудио #1: Идентификатор : 2 Формат : AC-3 Формат/Информация : Audio Coding 3 Расширение режима : CM (complete main) Параметр Endianness формата : Big Идентификатор кодека : A_AC3 Продолжительность : 2 ч. 30 м. Вид битрейта : Постоянный Битрейт : 192 Кбит/сек Каналы : 2 канала Расположение каналов : Front: L R Частота : 48,0 КГц Битовая глубина : 16 бит Метод сжатия : С потерями Размер потока : 207 Мбайт (3%) Заголовок : MVO (DVD Магия) Язык : Russian Default : Да Forced : НетАудио #2: Идентификатор : 3 Формат : AC-3 Формат/Информация : Audio Coding 3 Расширение режима : CM (complete main) Параметр Endianness формата : Big Идентификатор кодека : A_AC3 Продолжительность : 2 ч. 30 м. Вид битрейта : Постоянный Битрейт : 192 Кбит/сек Каналы : 2 канала Расположение каналов : Front: L R Частота : 48,0 КГц Битовая глубина : 16 бит Метод сжатия : С потерями Размер потока : 207 Мбайт (3%) Заголовок : MVO (OPT) Язык : Russian Default : Нет Forced : НетАудио #3: Идентификатор : 4 Формат : AC-3 Формат/Информация : Audio Coding 3 Расширение режима : CM (complete main) Параметр Endianness формата : Big Идентификатор кодека : A_AC3 Продолжительность : 2 ч. 30 м. Вид битрейта : Постоянный Битрейт : 448 Кбит/сек Каналы : 6 каналов Расположение каналов : Front: L C R, Side: L R, LFE Частота : 48,0 КГц Битовая глубина : 16 бит Метод сжатия : С потерями Размер потока : 483 Мбайт (7%) Заголовок : DVO (Пётр Гланц и Инна Королёвр) Язык : Russian Default : Нет Forced : НетАудио #4: Идентификатор : 5 Формат : AC-3 Формат/Информация : Audio Coding 3 Расширение режима : CM (complete main) Параметр Endianness формата : Big Идентификатор кодека : A_AC3 Продолжительность : 2 ч. 30 м. Вид битрейта : Постоянный Битрейт : 192 Кбит/сек Каналы : 2 канала Расположение каналов : Front: L R Частота : 48,0 КГц Битовая глубина : 16 бит Метод сжатия : С потерями Размер потока : 207 Мбайт (3%) Заголовок : DVO Язык : Russian Default : Нет Forced : НетАудио #5: Идентификатор : 6 Формат : AC-3 Формат/Информация : Audio Coding 3 Расширение режима : CM (complete main) Параметр Endianness формата : Big Идентификатор кодека : A_AC3 Продолжительность : 2 ч. 30 м. Вид битрейта : Постоянный Битрейт : 448 Кбит/сек Каналы : 6 каналов Расположение каналов : Front: L C R, Side: L R, LFE Частота : 48,0 КГц Битовая глубина : 16 бит Метод сжатия : С потерями Размер потока : 483 Мбайт (7%) Заголовок : AVO (Андрей Гаврилов) Язык : Russian Default : Нет Forced : Нет 10,32 Gb 2 1
8 сентября 2016 07:17 Мотылёк / Papillon (1973) BDRip 1080p | P, P2, A .torrent   [Информация о файле (нажмите для просмотра)] Качество: BDRip 1080pВидео: MPEG-4 AVC, 11.5 Mбит/с, 1920x800Аудио 1: русский, 48 kHz, AC3, 2 ch, 192 kbps avg, DVD Магия [Профессиональный многоголосый]Аудио 2: русский, 48 kHz, AC3, 2 ch, 192 kbps avg, OPT [Профессиональный многоголосый]Аудио 3: русский, 48 kHz, DTS, 6 ch, 1509 kbps avg, Пётр Гланц и Инна Королёва [Профессиональный двухголосый]Аудио 4: русский, 48 kHz, AC3, 2 ch, 192 kbps avg, [Профессиональный двухголосый]Аудио 5: русский, 48 kHz, DTS, 6 ch, 1509 kbps avg, Андрей Гаврилов [Авторский]Аудио 4: русский, 48 kHz, AC3, 6 ch, 448 kbps avg, Андрей Гаврилов [Авторский]Аудио: английский, 48 kHz, DTS, 6 ch, 1509 kbps avg, [Оригинал]Субтитры: русскиеСубтитры: английскиеАудио: Формат : AC-3 Формат/Информация : Audio Coding 3 Расширение режима : CM (complete main) Параметр Endianness формата : Big Продолжительность : 2 ч. 30 м. Вид битрейта : Постоянный Битрейт : 448 Кбит/сек Каналы : 6 каналов Расположение каналов : Front: L C R, Side: L R, LFE Частота : 48,0 КГц Битовая глубина : 16 бит Метод сжатия : С потерями Размер потока : 483 Мбайт (100%)Аудио: Формат : AC-3 Формат/Информация : Audio Coding 3 Расширение режима : CM (complete main) Параметр Endianness формата : Big Продолжительность : 2 ч. 30 м. Вид битрейта : Постоянный Битрейт : 448 Кбит/сек Каналы : 6 каналов Расположение каналов : Front: L C R, Side: L R, LFE Частота : 48,0 КГц Битовая глубина : 16 бит Метод сжатия : С потерями Размер потока : 483 Мбайт (100%)Аудио: Формат : DTS Формат/Информация : Digital Theater Systems Режим : 16 Параметр Endianness формата : Big Продолжительность : 2 ч. 30 м. Вид битрейта : Постоянный Битрейт : 1509 Кбит/сек Каналы : 6 каналов Расположение каналов : Front: L C R, Side: L R, LFE Частота : 48,0 КГц Битовая глубина : 24 бит Метод сжатия : С потерями Размер потока : 1,59 Гбайт (100%)Видео: Идентификатор : 1 Формат : AVC Формат/Информация : Advanced Video Codec Профиль формата : [email protected] Параметр CABAC формата : Да Параметр ReFrames формата : 5 кадров Идентификатор кодека : V_MPEG4/ISO/AVC Продолжительность : 2 ч. 30 м. Битрейт : 11,5 Мбит/сек Ширина : 1920 пикселей Высота : 800 пикселей Соотношение сторон : 2,40:1 Режим частоты кадров : Постоянный Частота кадров : 23,976 кадра/сек Цветовое пространство : YUV Субдискретизация насыщенности : 4:2:0 Битовая глубина : 8 бит Тип развёртки : Прогрессивная Бит/(Пиксели*Кадры) : 0.312 Размер потока : 12,1 Гбайт (75%) Библиотека кодирования : x264 core 133 r2334 a3ac64b Настройки программы : cabac=1 / ref=5 / deblock=1:-1:-1 / analyse=0x3:0x113 / me=umh / subme=10 / psy=1 / psy_rd=1.00:0.15 / mixed_ref=1 / me_range=24 / chroma_me=1 / trellis=2 / 8x8dct=1 / cqm=0 / deadzone=21,11 / fast_pskip=0 / chroma_qp_offset=-3 / threads=6 / lookahead_threads=1 / sliced_threads=0 / nr=0 / decimate=1 / interlaced=0 / bluray_compat=0 / constrained_intra=0 / bframes=8 / b_pyramid=2 / b_adapt=2 / b_bias=0 / direct=1 / weightb=0 / open_gop=0 / weightp=2 / keyint=230 / keyint_min=23 / scenecut=40 / intra_refresh=0 / rc_lookahead=60 / rc=crf / mbtree=0 / crf=18.0 / qcomp=0.60 / qpmin=0 / qpmax=69 / qpstep=4 / vbv_maxrate=50000 / vbv_bufsize=62500 / crf_max=0.0 / nal_hrd=none / ip_ratio=1.40 / pb_ratio=1.30 / aq=1:0.80 Язык : English Default : Да Forced : НетАудио #1: Идентификатор : 2 Формат : AC-3 Формат/Информация : Audio Coding 3 Расширение режима : CM (complete main) Параметр Endianness формата : Big Идентификатор кодека : A_AC3 Продолжительность : 2 ч. 30 м. Вид битрейта : Постоянный Битрейт : 192 Кбит/сек Каналы : 2 канала Расположение каналов : Front: L R Частота : 48,0 КГц Битовая глубина : 16 бит Метод сжатия : С потерями Размер потока : 207 Мбайт (1%) Заголовок : MVO (DVD Магия) Язык : Russian Default : Да Forced : НетАудио #2: Идентификатор : 3 Формат : AC-3 Формат/Информация : Audio Coding 3 Расширение режима : CM (complete main) Параметр Endianness формата : Big Идентификатор кодека : A_AC3 Продолжительность : 2 ч. 30 м. Вид битрейта : Постоянный Битрейт : 192 Кбит/сек Каналы : 2 канала Расположение каналов : Front: L R Частота : 48,0 КГц Битовая глубина : 16 бит Метод сжатия : С потерями Размер потока : 207 Мбайт (1%) Заголовок : MVO (OPT) Язык : Russian Default : Нет Forced : НетАудио #3: Идентификатор : 4 Формат : DTS Формат/Информация : Digital Theater Systems Режим : 16 Параметр Endianness формата : Big Идентификатор кодека : A_DTS Продолжительность : 2 ч. 30 м. Вид битрейта : Постоянный Битрейт : 1510 Кбит/сек Каналы : 6 каналов Расположение каналов : Front: L C R, Side: L R, LFE Частота : 48,0 КГц Битовая глубина : 24 бит Метод сжатия : С потерями Размер потока : 1,59 Гбайт (10%) Заголовок : DVO (Пётр Гланц и Инна Королёва) Язык : Russian Default : Нет Forced : НетАудио #4: Идентификатор : 5 Формат : AC-3 Формат/Информация : Audio Coding 3 Расширение режима : CM (complete main) Параметр Endianness формата : Big Идентификатор кодека : A_AC3 Продолжительность : 2 ч. 30 м. Вид битрейта : Постоянный Битрейт : 192 Кбит/сек Каналы : 2 канала Расположение каналов : Front: L R Частота : 48,0 КГц Битовая глубина : 16 бит Метод сжатия : С потерями Размер потока : 207 Мбайт (1%) Заголовок : DVO Язык : Russian Default : Нет Forced : НетАудио #5: Идентификатор : 6 Формат : DTS Формат/Информация : Digital Theater Systems Режим : 16 Параметр Endianness формата : Big Идентификатор кодека : A_DTS Продолжительность : 2 ч. 30 м. Вид битрейта : Постоянный Битрейт : 1510 Кбит/сек Каналы : 6 каналов Расположение каналов : Front: L C R, Side: L R, LFE Частота : 48,0 КГц Битовая глубина : 24 бит Метод сжатия : С потерями Размер потока : 1,59 Гбайт (10%) Заголовок : AVO (Андрей Гаврилов) Язык : Russian Default : Нет Forced : Нет 18,76 Gb 2 2
8 сентября 2016 07:17 Мотылек / Papillon (1973) Blu-Ray .torrent   [Информация о файле (нажмите для просмотра)] Перевод: Дублированное [лицензия]Кодек: m2tsКачество: Blu-RayВидео: MPEG-4 AVC, 20.0 Мбит/с, 1920x1080Звук: Aнглийский (DTS-HD МА, 6 ch, 4007 Кбит/с), pусский (AC3, 2 ch, 192 Кбит/с), русский (AC3, 2 ch, 192 Кбит/с), русский (DTS-HD MA, 6 ch, 4023 Кбит/с), русский (DTS, 6 ch, 1536 Кбит/с), русский (DTS, 6 ch, 1536 Кбит/с)Субтитры: Aнглийские, русские, французские, испанские 36,26 Gb 4 5
8 сентября 2016 07:17 Мотылек / Papillon (1973) BDRip от HQCLUB .torrent   [Информация о файле (нажмите для просмотра)] Перевод: Профессиональный (многоголосый, закадровый) DVD-Магия + Оригинальная звуковая дорожка +Профессиональный (многоголосый, закадровый) ОРТСубтитры: Русские, Английские (SDH) (внешние srt*)Формат: AVIКачество: BDRip (источник / Blu-ray Remux / 1080p)Видео: 720x304 (2.37:1), 23,976 fps, XviD build 62 ~1857 kbps avg, 0.35 bit/pixelАудио #1: 48 kHz, AC3 Dolby Digital, 3/2 (L,C,R,l,r) + LFE ch, ~448.00 kbps avgАудио #2: 48 kHz, AC3 Dolby Digital, 3/2 (L,C,R,l,r) + LFE ch, ~448.00 kbps avgАудио #3: 48 kHz, AC3 Dolby Digital, 2/0 (L,R), ~192.00 kbps avg(отдельно Narod.Ru)Аудио #4: 48 kHz, AC3 Dolby Digital, 2/0 (L,R), ~192.00 kbps avg(отдельно Narod.Ru)Аудио #5: 48 kHz, AC3 Dolby Digital, 3/2 (L,C,R,l,r) + LFE ch, ~448.00 kbps avg(отдельно Narod.Ru)Аудио #6: 48 kHz, AC3 Dolby Digital, 3/2 (L,C,R,l,r) + LFE ch, ~448.00 kbps avg(отдельно Narod.Ru) 2,91 Gb 6 1
8 сентября 2016 07:17 Мотылек / Papillon (1973) BDRip от HQ-ViDEO .torrent   [Информация о файле (нажмите для просмотра)] Перевод: Русский профессиональный двухголосый перевод (П. Гланц, И. Королева) + ОтдельноКодек: XviD, build 63 codecКачество: BDRip (Исходник: BD Remux)Видео: 720 x 304 (2.37:1), 23.976 fps, XviD, build 63 ~ 1681 kbps avg, ~ 0.32 bit/pixelЗвук #1: 48 kHz, AC3 Dolby Digital, 3/2 (L,C,R,l,r) + LFE ch, ~384.00 kbps avgЗвук #2: 48 kHz, AC3 Dolby Digital, 2.0 Ch, ~192.00 kbps avgЗвук #3: 48 kHz, AC3 Dolby Digital, 3/2 (L,C,R,l,r) + LFE ch, ~384.00 kbps avgЗвук #4: 48 kHz, AC3 Dolby Digital, 2.0 Ch, ~192.00 kbps avgЗвук #5: 48 kHz, AC3 Dolby Digital, 3/2 (L,C,R,l,r) + LFE ch, ~384.00 kbps avgЗвук #6: 48 kHz, AC3 Dolby Digital, 3/2 (L,C,R,l,r) + LFE ch, ~384.00 kbps avgЗвук #7: 48 kHz, AC3 Dolby Digital, 3/2 (L,C,R,l,r) + LFE ch, ~384.00 kbps avgСубтитры: Русские (полные, на непереведенные моменты в дороге М. Иванова), Английские (SDH). 2,18 Gb 3 3
8 сентября 2016 07:17 Мотылек / Papillon (1973) BDRip - Generalfilm .torrent   [Информация о файле (нажмите для просмотра)] Перевод: Авторский одноголосый (Гаврилов)Кодек: XviDКачество: BDRipВидео: 720x304,930 кб/сЗвук: AC3,6ch,448 кб/с 1,46 Gb 5 1
8 сентября 2016 07:17 Мотылек / Papillon (1973) BDRip 720p от FireBit .torrent   [Информация о файле (нажмите для просмотра)] Перевод: Профессиональный (многоголосый закадровый)Качество: BDRipВидео: .mkv (H.264), 1280 x 536 (2.388) at 23.976 fps, 4613 Кбит/секЗвук #1: Русский, AC-3 at 448 Кбит/сек, 6 канала(ов), 48,0 КГцЗвук #2: Английский, AC-3 at 128 Кбит/сек, 2 канала(ов), 48,0 КГцСубтитры: Русские, Английские 5,57 Gb 2 4
8 сентября 2016 07:17 Мотылек / Papillon (1973) DVDRip | Реставрация .torrent   [Информация о файле (нажмите для просмотра)] Перевод: Профессиональный, многоголосый (закадровый)Качество: DVDRip => ( Полная реставрация изображения и звука. Подарочное издание, серия «Российский Superbit» 2DVD )Видео: 720x304 (2.37:1), 29.970 fps, XviD build 50 ~1845 kbps avg, 0.28 bit/pixelАудио: 48 kHz, AC3 Dolby Digital, 3/2 (L,C,R,l,r) + LFE ch, ~384 kbps 2,25 Gb 2 3

Человек-мотылек 2002 - скачать бесплатно через торрент в хорошем качестве. Без регистрации

www.kinovit.net

Название: Человек-мотылек / The Mothman Prophecies (2002) BDRip 720p | D, P, А
Качество видео: BDRip 720p
Перевод: Дублированный, профессиональный многоголосый, авторский
Видео: 1280x544 at 23.976 fps, [email protected], 2pass, ~6500 kbps avg
Аудио: Russian: 48 kHz, AC3, 3/2 (L,C,R,l,r) + LFE ch, ~448 kbps avg |Дублированный R5|Russian: 48 kHz, AC3, 2/0 (L,R) ch, ~192 kbps avg |Профессиональный многоголосый НТВ+|Ukrainian: 48 kHz, AC3, 3/2 (L,C,R,l,r) + LFE ch, ~384 kbps avg |Профессиональный многоголосый|Russian: 48 kHz, AC3, 3/2 (L,C,R,l,r) + LFE ch, ~640 kbps avg |Авторский Ю.Живов|English: 48 kHz, AC3, 3/2 (L,C,R,l,r) + LFE ch, ~640 kbps avgEnglish: 48 kHz, AC3, 2/0 (L,R) ch, ~192 kbps avg |Commentary|
Скачать

Загрузка начнется в течение 5 сек.

7.49 GB

Название: Человек-мотылек / The Mothman Prophecies (2002) BDRip 1080p | D, P, А
Качество видео: BDRip 1080p
Перевод: Дублированный, профессиональный многоголосый, авторский
Видео: MPEG-4 AVC 1920x816 23,976 fps, 10248 kbps
Аудио: Russian: AC3, 448 Kbps (6 ch) Дублированный (R5)
Скачать

Загрузка начнется в течение 5 сек.

10.45 GB

Название: Человек-мотылек / The Mothman Prophecies (2001) HDRip от Scarabey | D
Качество видео: НDRip
Перевод: Профессиональный (полное дублирование)
Видео: 640x272 (2.35:1), 23.976 fps, XviD build 50 ~734 kbps avg, 0.18 bit/pixel
Аудио: 48 kHz, MPEG Layer 3, 2 ch, ~128.00 kbps avg
Скачать

Загрузка начнется в течение 5 сек.

743.29 MB

Название: Человек-мотылек / The Mothman Prophecies (2001) HDRip от Scarabey | D
Качество видео: НDRip
Перевод: Профессиональный (полное дублирование)
Видео: 720x304 (2.37:1), 23.976 fps, XviD build 50 ~1286 kbps avg, 0.25 bit/pixel
Аудио: 48 kHz, AC3 Dolby Digital, 3/2 (L,C,R,l,r) + LFE ch, ~448 kbps
Скачать

Загрузка начнется в течение 5 сек.

1.45 GB

Название: Человек-мотылек / The Mothman Prophecies (2002) BDRip от HQCLUB
Качество видео: BDRip (источник: Diablo / BDRemux / 1080p)
Перевод: Профессиональный (полное дублирование) + Профессиональный (многоголосый, закадровый) НТВ+ + Авторский (одноголосый, закадровый) Ю. Живов + Оригинальная дорожка
Формат видео: AVI
Видео: 720x304 (2.37:1), 23.976 fps, XviD build 72 ~1975 kbps avg, 0.38 bit/pixel
Аудио: 48 kHz, AC3 Dolby Digital, 3/2 (L,C,R,l,r) + LFE ch, ~448 kbps avg |Russia - DUB|48 kHz, AC3 Dolby Digital, 2/0 (L,R), ~192 kbps avg |Russia - MVO - НТВ+|48 kHz, AC3 Dolby Digital, 3/2 (L,C,R,l,r) + LFE ch, ~448 kbps avg |Russia - AVO - Ю. Живов| (отдельно на: narod.ru)48 kHz, AC3 Dolby Digital, 3/2 (L,C,R,l,r) + LFE ch, ~448 kbps avg |English - ORIGINAL| (отдельно на: narod.ru)
Скачать

Загрузка начнется в течение 5 сек.

2.18 GB

Название: Человек-мотылек / The Mothman Prophecies (2002) BDRip-AVC от AVCurtain
Качество видео: BDRip-AVC
Перевод: Дублированный / Профессиональный многоголосый / Авторский одноголосый (Ю. Живов)
Видео: x264 MPEG-4 AVC, 3500 Кбит/с, 1024x436
Аудио: 1. Русский (AC3, 6 ch, 448 Кбит/с) - Дубляж
Скачать

Загрузка начнется в течение 5 сек.

4.19 GB


Смотрите также