Скачать монстро через торрент в хорошем качестве


Скачать фильм Монстро через торрент в хорошем качестве бесплатно HDTVRip

piratbit.ru

Размер: 1.38 GB | Добавлен: 8 лет 1 мес. назад | Торрент скачан:700 раз
Реклама Дарим 3000 рублей за регистрацию, не упусти свой шанс получить шикарный бонус!!!

Монстро / Cloverfield

Год выпуска: 2008Страна: СШАЖанр: фантастикаПродолжительность: 81 мин.Перевод: Профессиональный (полное дублирование)

Режиссер: Мэтт РивзПродюссер: Джей Джей АбрамсСценарий: Дрю Годдар

Бюджет: $25 000 000Премьера в мире: 16 января 2008

Описание: Прощальную вечеринку уезжающего в Японию Роба прерывает громогласный рык  нечто напало на Нью-Йорк, сея панику, разрушения и пожирая людей. Армия бессильна против гигантского монстра, Манхэттен объявлен закрытой зоной, но где-то неподалеку от Центрального парка в беду попала девушка Роба

Качество: HDTVRipФормат: MKVВидео кодек: H.26xАудио кодек: AC3Видео: 1024 pixels 576 pixels; 1858 Kbps; 23.976 fpsАудио: 48 KHz; 6 channels; 224 kbps(eng)

        

Скачать Монстро через торрент http://pic1.pb.wtf/images/11/i6413.jpg Скачать фильм Монстро через торрент бесплантно в хорошем качестве Описание: Прощальную вечеринку уезжающего в Японию Роба прерывает громогласный рык  нечто напало на Нью-Йорк, сея панику, разрушения ... 2009-09-06 13:42 7.5 10 12

Loading...

Loading...

Последний раз редактировалось: DEVI (2017-05-11 11:21), всего редактировалось 2 раз(а)

Рекламный пират

Дорогой пользователь! Огромная просьба, поблагодарите релизера, оцените раздачу и оставьте свои комментарий, если Вы скачали Монстро через торрент бесплатно! Внесите свою лепту в развитие PiratBit!

Комментировать посты могут только пользователи прошедшие не сложную регистрацию

Монстро через торрент Скачать бесплатно Монстро Монстро скачать торрент Монстро смотреть онлайн Cкачать фильм Монстро бесплатно Монстро скачать торрент в хорошем качестве Монстро смотреть онлайн бесплатно в хорошем качестве

Вы не можете начинать темыВы не можете отвечать на сообщенияВы не можете редактировать свои сообщенияВы не можете удалять свои сообщенияВы не можете голосовать в опросахВы не можете прикреплять файлы к сообщениямВы можете скачивать файлы

Скачать фильм Монстро через торрент в хорошем качестве бесплатно HDRip

piratbit.ru

Размер: 746 MB | Добавлен: 5 лет 6 мес. назад | Торрент скачан:198 раз
Реклама Дарим 3000 рублей за регистрацию, не упусти свой шанс получить шикарный бонус!!!

30-03-2012 20:18 Монстро Скачать торрент  

Монстро / Cloverfield

[font=Arial]Год выпуска: 2008Страна: СШАЖанр: Фантастика, боевик, триллер, детективПродолжительность: 01:24:40Перевод: Профессиональный (многоголосый, закадровый)

Режиссер: Мэтт Ривз

В ролях: Майк Фогель, Лиззи Каплан, Джессика Лукас, Майкл Сталь-Дэвид, Ти Джей Миллер Хад, Одет Жасмин

Описание: Прощальную вечеринку уезжающего в Японию Роба прерывает громогласный рык - нечто напало на Нью-Йорк, сея панику, разрушения и пожирая людей. Армия бессильна против гигантского монстра, Манхэттен объявлен закрытой зоной, но где-то неподалеку от Центрального парка в беду попала девушка Роба…

Качество: HDRipФормат: AVIВидео кодек: XviDАудио кодек: MP3 Видео: 688x384 (1.79:1), 23.976 fps, XviD build 50 ~1093 kbps avg, 0.17 bit/pixelАудио#1: 48 kHz, MPEG Layer 3, 2 ch, ~128.00 kbps avg

Скачать Монстро через торрент http://i10.fastpic.ru/big/2010/1002/00/fbc49fdbe54ff6d4f439ef8ebbd73a00.jpg Скачать фильм Монстро через торрент бесплантно в хорошем качестве Описание: Прощальную вечеринку уезжающего в Японию Роба прерывает громогласный рык - нечто напало на Нью-Йорк, сея панику, разрушения и ... 2012-03-30 20:18 10 10 1

Loading...

Loading...

Рекламный пират

30-03-2012 21:02 Монстро Скачать торрент  

первая часть ваще кал. уже достало! жду второй части

31-03-2012 05:29 Монстро Скачать торрент  

Меттерних К.В писал(а):

первая часть ваще кал. уже достало! жду второй части

странная логика у вас. первую часть опустили, но ждете второй.отличное кино, давно смотрел. очень зацепило. Дж.Дж.Абрамс знает как сжделать качественное, интересное, захватывающее.

31-03-2012 08:23 Монстро Скачать торрент  

ну про камеру второклассника я ваще молчу, а вот проконцовку - кал!!!все погибли отуда монстр взялся не понятно...

06-04-2012 10:25 Монстро Скачать торрент  

Если посмотреть на постер, то второй отзыв на нем вообще не в тему написан)))))

Дорогой пользователь! Огромная просьба, поблагодарите релизера, оцените раздачу и оставьте свои комментарий, если Вы скачали Монстро через торрент бесплатно! Внесите свою лепту в развитие PiratBit!

Комментировать посты могут только пользователи прошедшие не сложную регистрацию

Монстро через торрент Скачать бесплатно Монстро Монстро скачать торрент Монстро смотреть онлайн Cкачать фильм Монстро бесплатно Монстро скачать торрент в хорошем качестве Монстро смотреть онлайн бесплатно в хорошем качестве

Вы не можете начинать темыВы не можете отвечать на сообщенияВы не можете редактировать свои сообщенияВы не можете удалять свои сообщенияВы не можете голосовать в опросахВы не можете прикреплять файлы к сообщениямВы можете скачивать файлы

Скачать фильм Монстро через торрент в хорошем качестве бесплатно 1080p

GeneralUnique ID : 193824213387003250843160576755450097083 (0x91D12F86D1CE188FA16FFA8BCD55ADBB)Complete name : C:Загрузки с инетаCloverfield (2008) BDRip 1080p.mkvFormat : MatroskaFormat version : Version 4 / Version 2File size : 8.54 GiBDuration : 1h 24mnOverall bit rate : 14.4 MbpsMovie name : Монстро (2008) [BDRip 1080p]Encoded date : UTC 2013-04-06 22:56:55Writing application : mkvmerge v6.1.0 ('Old Devil') built on Mar 2 2013 14:32:37Writing library : libebml v1.3.0 + libmatroska v1.4.0

VideoID : 1Format : AVCFormat/Info : Advanced Video CodecFormat profile : [email protected] settings, CABAC : YesFormat settings, ReFrames : 4 framesCodec ID : V_MPEG4/ISO/AVCDuration : 1h 24mnBit rate : 11.4 MbpsWidth : 1 920 pixelsHeight : 1 080 pixelsDisplay aspect ratio : 16:9Frame rate mode : ConstantFrame rate : 23.976 fpsColor space : YUVChroma subsampling : 4:2:0Bit depth : 8 bitsScan type : ProgressiveBits/(Pixel*Frame) : 0.230Stream size : 6.59 GiB (77%)Title : CloverfieldWriting library : x264 core 104 r1713 c276662Encoding settings : cabac=1 / ref=4 / deblock=1:-3:-3 / analyse=0x3:0x113 / me=tesa / subme=10 / psy=1 / psy_rd=1.00:0.00 / mixed_ref=1 / me_range=32 / chroma_me=1 / trellis=2 / 8x8dct=1 / cqm=0 / deadzone=21,11 / fast_pskip=0 / chroma_qp_offset=-2 / threads=6 / sliced_threads=0 / nr=0 / decimate=0 / interlaced=0 / constrained_intra=0 / bframes=9 / b_pyramid=2 / b_adapt=2 / b_bias=0 / direct=3 / weightb=1 / open_gop=0 / weightp=2 / keyint=250 / keyint_min=23 / scenecut=40 / intra_refresh=0 / rc_lookahead=100 / rc=2pass / mbtree=1 / bitrate=11425 / ratetol=1.0 / qcomp=0.75 / qpmin=10 / qpmax=51 / qpstep=4 / cplxblur=20.0 / qblur=0.5 / vbv_maxrate=50000 / vbv_bufsize=62500 / ip_ratio=1.40 / aq=1:0.70 / zones=105979,121811,q=35 / nal_hrd=noneLanguage : RussianDefault : YesForced : NoMatrix coefficients : BT.709

Audio #1ID : 2Format : AC-3Format/Info : Audio Coding 3Mode extension : CM (complete main)Format settings, Endianness : BigCodec ID : A_AC3Duration : 1h 24mnBit rate mode : ConstantBit rate : 640 KbpsChannel(s) : 6 channelsChannel positions : Front: L C R, Side: L R, LFESampling rate : 48.0 KHzBit depth : 16 bitsCompression mode : LossyStream size : 388 MiB (4%)Title : AC3, 6ch, 640 Kbps (Дубляж) |BD CEE|Language : RussianDefault : YesForced : No

Audio #2ID : 3Format : AC-3Format/Info : Audio Coding 3Mode extension : CM (complete main)Format settings, Endianness : BigCodec ID : A_AC3Duration : 1h 24mnBit rate mode : ConstantBit rate : 640 KbpsChannel(s) : 6 channelsChannel positions : Front: L C R, Side: L R, LFESampling rate : 48.0 KHzBit depth : 16 bitsCompression mode : LossyStream size : 388 MiB (4%)Title : AC3, 6ch, 640 Kbps (MVO) |LostFilm|Language : RussianDefault : NoForced : No

Audio #3ID : 4Format : AC-3Format/Info : Audio Coding 3Mode extension : CM (complete main)Format settings, Endianness : BigCodec ID : A_AC3Duration : 1h 24mnBit rate mode : ConstantBit rate : 640 KbpsChannel(s) : 6 channelsChannel positions : Front: L C R, Side: L R, LFESampling rate : 48.0 KHzBit depth : 16 bitsCompression mode : LossyStream size : 388 MiB (4%)Title : AC3, 6ch, 640 Kbps (AVO) |Ю.Немахов|Language : RussianDefault : NoForced : No

Audio #4ID : 5Format : AC-3Format/Info : Audio Coding 3Mode extension : CM (complete main)Format settings, Endianness : BigCodec ID : A_AC3Duration : 1h 24mnBit rate mode : ConstantBit rate : 448 KbpsChannel(s) : 6 channelsChannel positions : Front: L C R, Side: L R, LFESampling rate : 48.0 KHzBit depth : 16 bitsCompression mode : LossyStream size : 271 MiB (3%)Title : AC3, 6ch, 448 Kbps (MVO) |Киномания|Language : RussianDefault : NoForced : No

Audio #5ID : 6Format : AC-3Format/Info : Audio Coding 3Mode extension : CM (complete main)Format settings, Endianness : BigCodec ID : A_AC3Duration : 1h 24mnBit rate mode : ConstantBit rate : 640 KbpsChannel(s) : 6 channelsChannel positions : Front: L C R, Side: L R, LFESampling rate : 48.0 KHzBit depth : 16 bitsCompression mode : LossyStream size : 388 MiB (4%)Title : AC3, 6ch, 640 Kbps (Дубляж) |BD CEE|Language : UkrainianDefault : NoForced : No

Text #1ID : 7Format : UTF-8Codec ID : S_TEXT/UTF8Codec ID/Info : UTF-8 Plain TextTitle : [надписи и пр.]Language : RussianDefault : YesForced : No

Text #2ID : 8Format : UTF-8Codec ID : S_TEXT/UTF8Codec ID/Info : UTF-8 Plain TextTitle : [полный] Blu-ray CEELanguage : RussianDefault : NoForced : No

Text #3ID : 9Format : UTF-8Codec ID : S_TEXT/UTF8Codec ID/Info : UTF-8 Plain TextTitle : [полный] -DaRkY-Language : RussianDefault : NoForced : No

Text #4ID : 10Format : UTF-8Codec ID : S_TEXT/UTF8Codec ID/Info : UTF-8 Plain TextTitle : [надписи и пр.]Language : UkrainianDefault : NoForced : No

Text #5ID : 11Format : UTF-8Codec ID : S_TEXT/UTF8Codec ID/Info : UTF-8 Plain TextTitle : [полный] Blu-ray CEELanguage : UkrainianDefault : NoForced : No

Text #6ID : 12Format : UTF-8Codec ID : S_TEXT/UTF8Codec ID/Info : UTF-8 Plain TextTitle : [полный]Language : EnglishDefault : NoForced : No

Menu00:00:00.000 : en:Chapter 0100:05:03.470 : en:Chapter 0200:09:41.372 : en:Chapter 0300:15:02.360 : en:Chapter 0400:19:25.831 : en:Chapter 0500:24:21.835 : en:Chapter 0600:29:22.719 : en:Chapter 0700:33:35.472 : en:Chapter 0800:36:22.639 : en:Chapter 0900:41:25.274 : en:Chapter 1000:45:28.434 : en:Chapter 1100:49:15.995 : en:Chapter 1200:53:34.545 : en:Chapter 1300:59:08.170 : en:Chapter 1401:06:55.553 : en:Chapter 1501:13:44.045 : en:Chapter 16

piratbit.ru

Скачать фильм Монстро через торрент в хорошем качестве бесплатно 720p] DUB

piratbit.ru

Размер: 4.2 GB | Добавлен: 2 года 6 мес. назад | Торрент скачан:305 раз
Реклама Дарим 3000 рублей за регистрацию, не упусти свой шанс получить шикарный бонус!!!

30-03-2015 13:52 Монстро Скачать торрент  

Монстро / Cloverfield

Год выпуска: 2008Страна: СШАЖанр: ужасы, фантастика, триллер, детективПродолжительность: 01:24:41Перевод: дублированный, профессиональный многоголосый, авторскийСубтитры: русские, русские (комментарий), английские

Режиссёр: Мэтт Ривз

В ролях: Майкл Сталь-Дэвид, Одетт Эннэйбл, Майк Фогель, Джессика Лукас, ТиДжей Миллер, Лиззи Каплан, Анжул Нигам, Марго Фарли, Тео Росси, Брайан Клагман, Келвин Ю, Лиза Лапира, Лили Мирожник, Бен Фельдман, Елена Карузо, Вакиша Коулмэн, Уилл Гринберг, Роб Керкович, Райан Ки, Хооман Халили, Расика Матур, Барон Вон, Шарлин Йи, Рома Торре, Рик Овертон, Мартин Коэн, Джейсон Кербоун, Павел Личникофф, Билли Браун, Скотт Лоуренс, Джеффри Де Серрано, Тим Гриффин, Крис Малки, Суссе Будде, Джейсон Ломбард, Джэми Мартц, Дон Абернати, Кэйли Оукс-Биссон

Описание: Прощальную вечеринку уезжающего в Японию Роба прерывает громогласный рык — нечто напало на Нью-Йорк, сея панику, разрушения и пожирая людей. Армия бессильна против гигантского монстра; Манхэттен объявлен закрытой зоной; но где-то неподалёку от Центрального парка в беду попала девушка Роба...

Качество: BDRip 720p Сравнение с исходникомФормат: MKVВидео кодек: H.264Аудио кодек: AC3Видео: 4719 Кбит/с, 1280x720, 23.976 кадра/с, 0.214 bppАудио 1: русский, AC3, 448 kbps, 6 ch, 48 kHz [дублированный]Аудио 2: русский, AC3, 448 kbps, 6 ch, 48 kHz [профессиональный многоголосый, Киномания]Аудио 3: русский, AC3, 448 kbps, 6 ch, 48 kHz [профессиональный многоголосый, Лостфильм]Аудио 4: русский, AC3, 448 kbps, 6 ch, 48 kHz [авторский, Юрий Немахов]Аудио 5: английский, AC3, 448 kbps, 6 ch, 48 kHz [оригинал]

Жорж, 2009 год Номинации (1):Лучший высокобюджетный/зрелищный фильм

Сатурн, 2008 год Победитель (1):Лучший научно-фантастический фильм

Номинации (1):Лучшая актриса второго плана (Лиззи Каплан)

frame I:567 Avg QP:14.73 size: 76291frame P:31040 Avg QP:17.77 size: 42080frame B:90205 Avg QP:20.50 size: 19236

ОбщееУникальный идентификатор : 214660665214136874761835426092742906167 (0xA17E23EAD19623C286BE2D01448C9137)Полное имя : D:VideoMonstro.2008.BDRip.720p.mkvФормат : MatroskaВерсия формата : Version 4 / Version 2Размер файла : 4,20 ГбайтПродолжительность : 1 ч. 24 м.Общий поток : 7100 Кбит/секДата кодирования : UTC 2015-03-30 11:07:05Программа кодирования : mkvmerge v7.8.0 ('River Man') 64bit built on Mar 27 2015 16:31:37Библиотека кодирования : libebml v1.3.1 + libmatroska v1.4.2_STATISTICS_WRITING_APP : mkvmerge v7.8.0 ('River Man') 64bit built on Mar 27 2015 16:31:37_STATISTICS_WRITING_DATE_UTC : 2015-03-30 11:07:05_STATISTICS_TAGS : BPS DURATION NUMBER_OF_FRAMES NUMBER_OF_BYTESDURATION : 01:11:44.133000000NUMBER_OF_FRAMES : 1168NUMBER_OF_BYTES : 48271

ВидеоИдентификатор : 1Формат : AVCФормат/Информация : Advanced Video CodecПрофиль формата : [email protected]Параметр CABAC формата : ДаПараметр ReFrames формата : 9 кадровИдентификатор кодека : V_MPEG4/ISO/AVCПродолжительность : 1 ч. 24 м.Битрейт : 4719 Кбит/секШирина : 1280 пикселейВысота : 720 пикселейСоотношение сторон : 16:9Режим частоты кадров : ПостоянныйЧастота кадров : 23,976 кадра/секЦветовое пространство : YUVСубдискретизация насыщенности : 4:2:0Битовая глубина : 8 битТип развёртки : ПрогрессивнаяБит/(Пиксели*Кадры) : 0.214Размер потока : 2,79 Гбайт (66%)Заголовок : BDRip -- STarankovБиблиотека кодирования : x264 core 142 r2431 ac76440Настройки программы : cabac=1 / ref=9 / deblock=1:-1:-1 / analyse=0x3:0x113 / me=umh / subme=10 / psy=1 / psy_rd=1.00:0.15 / mixed_ref=1 / me_range=32 / chroma_me=1 / trellis=2 / 8x8dct=1 / cqm=0 / deadzone=21,11 / fast_pskip=1 / chroma_qp_offset=-3 / threads=6 / lookahead_threads=1 / sliced_threads=0 / nr=0 / decimate=1 / interlaced=0 / bluray_compat=0 / constrained_intra=0 / bframes=8 / b_pyramid=2 / b_adapt=2 / b_bias=0 / direct=3 / weightb=1 / open_gop=0 / weightp=2 / keyint=230 / keyint_min=23 / scenecut=40 / intra_refresh=0 / rc_lookahead=40 / rc=crf / mbtree=0 / crf=19.5 / qcomp=0.60 / qpmin=0 / qpmax=69 / qpstep=4 / vbv_maxrate=40000 / vbv_bufsize=50000 / crf_max=0.0 / nal_hrd=none / filler=0 / ip_ratio=1.40 / pb_ratio=1.30 / aq=1:1.00Язык : EnglishDefault : ДаForced : НетDURATION : 01:24:40.576000000NUMBER_OF_FRAMES : 121812NUMBER_OF_BYTES : 3084553222_STATISTICS_WRITING_APP : mkvmerge v7.8.0 ('River Man') 64bit built on Mar 27 2015 16:31:37_STATISTICS_WRITING_DATE_UTC : 2015-03-30 11:07:05_STATISTICS_TAGS : BPS DURATION NUMBER_OF_FRAMES NUMBER_OF_BYTES

Аудио #1Идентификатор : 2Формат : AC-3Формат/Информация : Audio Coding 3Расширение режима : CM (complete main)Параметр Endianness формата : BigИдентификатор кодека : A_AC3Продолжительность : 1 ч. 24 м.Вид битрейта : ПостоянныйБитрейт : 448 Кбит/секКаналы : 6 каналовРасположение каналов : Front: L C R, Side: L R, LFEЧастота : 48,0 КГцБитовая глубина : 16 битМетод сжатия : С потерямиРазмер потока : 271 Мбайт (6%)Заголовок : DUBЯзык : RussianDefault : ДаForced : Нет

Аудио #2Идентификатор : 3Формат : AC-3Формат/Информация : Audio Coding 3Расширение режима : CM (complete main)Параметр Endianness формата : BigИдентификатор кодека : A_AC3Продолжительность : 1 ч. 24 м.Вид битрейта : ПостоянныйБитрейт : 448 Кбит/секКаналы : 6 каналовРасположение каналов : Front: L C R, Side: L R, LFEЧастота : 48,0 КГцБитовая глубина : 16 битМетод сжатия : С потерямиРазмер потока : 271 Мбайт (6%)Заголовок : MVO (Киномания)Язык : RussianDefault : НетForced : Нет

Аудио #3Идентификатор : 4Формат : AC-3Формат/Информация : Audio Coding 3Расширение режима : CM (complete main)Параметр Endianness формата : BigИдентификатор кодека : A_AC3Продолжительность : 1 ч. 24 м.Вид битрейта : ПостоянныйБитрейт : 448 Кбит/секКаналы : 6 каналовРасположение каналов : Front: L C R, Side: L R, LFEЧастота : 48,0 КГцБитовая глубина : 16 битМетод сжатия : С потерямиЗадержка видео : 1 с. 0 мс.Размер потока : 271 Мбайт (6%)Заголовок : MVO (Лостфильм)Язык : RussianDefault : НетForced : Нет

Аудио #4Идентификатор : 5Формат : AC-3Формат/Информация : Audio Coding 3Расширение режима : CM (complete main)Параметр Endianness формата : BigИдентификатор кодека : A_AC3Продолжительность : 1 ч. 24 м.Вид битрейта : ПостоянныйБитрейт : 448 Кбит/секКаналы : 6 каналовРасположение каналов : Front: L C R, Side: L R, LFEЧастота : 48,0 КГцБитовая глубина : 16 битМетод сжатия : С потерямиРазмер потока : 271 Мбайт (6%)Заголовок : AVO (Юрий Немахов)Язык : RussianDefault : НетForced : Нет

Аудио #5Идентификатор : 6Формат : AC-3Формат/Информация : Audio Coding 3Расширение режима : CM (complete main)Параметр Endianness формата : BigИдентификатор кодека : A_AC3Продолжительность : 1 ч. 24 м.Вид битрейта : ПостоянныйБитрейт : 448 Кбит/секКаналы : 6 каналовРасположение каналов : Front: L C R, Side: L R, LFEЧастота : 48,0 КГцБитовая глубина : 16 битМетод сжатия : С потерямиРазмер потока : 271 Мбайт (6%)Заголовок : OriginalЯзык : EnglishDefault : НетForced : Нет

Текст #1Идентификатор : 7Формат : UTF-8Идентификатор кодека : S_TEXT/UTF8Идентификатор кодека/Информация : UTF-8 Plain TextЗаголовок : русскиеЯзык : RussianDefault : НетForced : Нет

Текст #2Идентификатор : 8Формат : UTF-8Идентификатор кодека : S_TEXT/UTF8Идентификатор кодека/Информация : UTF-8 Plain TextЗаголовок : русские (комментарий)Язык : RussianDefault : НетForced : Нет

Текст #3Идентификатор : 9Формат : UTF-8Идентификатор кодека : S_TEXT/UTF8Идентификатор кодека/Информация : UTF-8 Plain TextЗаголовок : английскиеDefault : НетForced : Нет

Скачать Монстро через торрент http://i65.fastpic.ru/big/2015/0330/f9/83f278e26b3e495120684a52259885f9.jpg Скачать фильм Монстро через торрент бесплантно в хорошем качестве Описание: Прощальную вечеринку уезжающего в Японию Роба прерывает громогласный рык — нечто напало на Нью-Йорк, сея панику, разрушения и ... 2015-03-30 13:52 10 10 13

Loading...

Loading...

Последний раз редактировалось: msltel (2015-03-30 15:24), всего редактировалось 1 раз

Рекламный пират

30-03-2015 15:12 Монстро Скачать торрент  

Ссылка, на Кинопоиск. От Другого Фильма(

30-03-2015 15:25 Монстро Скачать торрент  

Sheyker, исправлено. Спасибо.

30-03-2015 16:36 Монстро Скачать торрент  

ноздри, пятки, уши, стены, мелькание,опять стены, пол, потолок.. в общем фильм както так...

Дорогой пользователь! Огромная просьба, поблагодарите релизера, оцените раздачу и оставьте свои комментарий, если Вы скачали Монстро через торрент бесплатно! Внесите свою лепту в развитие PiratBit!

Комментировать посты могут только пользователи прошедшие не сложную регистрацию

Монстро через торрент Скачать бесплатно Монстро Монстро скачать торрент Монстро смотреть онлайн Cкачать фильм Монстро бесплатно Монстро скачать торрент в хорошем качестве Монстро смотреть онлайн бесплатно в хорошем качестве

Вы не можете начинать темыВы не можете отвечать на сообщенияВы не можете редактировать свои сообщенияВы не можете удалять свои сообщенияВы не можете голосовать в опросахВы не можете прикреплять файлы к сообщениямВы можете скачивать файлы


Смотрите также