Скачать место встречи изменить нельзя через торрент в хорошем качестве


Место встречи изменить нельзя 1979

www.kinovit.net

Название: Место встречи изменить нельзя (1979) DVDRip-AVC от ExKinoRay
Качество видео: DVDRip-AVC
Перевод: не требуется
Видео: x264 MPEG-4 AVC, ~ 2450 Кбит/с, [email protected]
Аудио: AC3, 6 ch, 384 Кбит/с
Скачать

Загрузка начнется в течение 5 сек.

7.20 GB

Название: Место встречи изменить нельзя [01-05 из 05] (1979) DVDRip от GeneralFilm
Качество видео: DVDRip
Перевод: Не требуется
Видео: XviD XviD, 704x544 (1.29:4), 25 fps, ~ 1300 kbps
Аудио: AC3, 48 kHz, 3/2 (L,C,R,l,r) + LFE ch, ~384.00 kbps
Скачать

Загрузка начнется в течение 5 сек.

4.35 GB

Название: Место встречи изменить нельзя (1979) DVDRip-AVC
Качество видео: DVDRip-AVC
Видео: H.264 744x572, 25 fps, H.264 AVC 2100 kbps
Аудио: 48 kHz, AC3 5.1, 384 kbps
Скачать

Загрузка начнется в течение 5 сек.

6.30 GB

Название: Место встречи изменить нельзя (1979) ВDRip-AVC от New-Team
Перевод: не требуется
Видео: 768x576 (4:3), 23,976 fps, h364 ~ 2027 kbps avg, 0.191 bit/pixel
Аудио: 48 kHz, Dolby AC3 5.1, 448 kbps
Скачать

Загрузка начнется в течение 5 сек.

6.55 GB

Название: Место встречи изменить нельзя (1979) ВDRip от New-Team
Перевод: не требуется
Видео: 720x544 (4:3), 23,976 fps, XviD ~ 2022 kbps avg, 0.215 bit/pixel
Аудио: 48 kHz, Dolby AC3 5.1, 448 kbps
Скачать

Загрузка начнется в течение 5 сек.

6.56 GB

Название: Место встречи изменить нельзя (1979) BDRemux 1080p от Youtracker
Перевод: не требуется
Видео: 1920x1080, MPEG-4 AVC Video 14499 kbps 1080p / 23,976 fps / 16:9 / High Profile 4.1
Аудио: 48 kHz, Dolby AC3 5.1, 640 kbps, русский
Скачать

Загрузка начнется в течение 5 сек.

40.06 GB

Название: Место встречи изменить нельзя (1979) ВDRip от New-team
Перевод: не требуется
Видео: 704x528 (4:3), 23,976 fps, XviD ~ 1515 kbps avg, 0.170 bit/pixel
Аудио: 48 kHz, MP3 2.0, 128 kbps
Скачать

Загрузка начнется в течение 5 сек.

4.37 GB

Название: Место встречи изменить нельзя [01-05 из 05] (1979) BDRip от GeneralFilm
Качество видео: BDRip [исдодник: Blu-Ray Disc 1080p]
Формат видео: AVI
Видео: 720x544, 4:3, 23,976 fps, ~1800 kbps avg, 0.195 bit/pixel
Аудио: AC3, 48 kHz, 6 ch, 384 kbps avg
Скачать

Загрузка начнется в течение 5 сек.

5.70 GB

Название: Место встречи изменить нельзя (1979) Blu-ray 1080p
Качество видео: Blu-Ray
Видео: AVC MPEG-4 1.33:1, 1920x1080
Аудио: Русский Dolby Digital 5.1 (640 kbps)
Скачать

Загрузка начнется в течение 5 сек.

42.45 GB

rutor.org :: Место встречи изменить нельзя [01-05 из 05] (1979) DVDRip от GeneralFilm ::: Скачать торрент

main-rutor.org

Информация о фильмеНазвание: Место встречи изменить нельзяГод выхода: 1979Жанр: боевик, криминал, детектив, приключенияРежиссер: Станислав ГоворухинВ ролях: Владимир Высоцкий, Евгений Евстигнеев, Владимир Конкин, Армен Джигарханян, Александр Белявский, Зиновий Гердт, Иван Бортник, Андрей Градов, Екатерина Градова, Наталья Данилова, Всеволод Абдулов, Евгений Леонов-Гладышев, Лев Перфилов, Станислав Садальский, Евгений Шутов, Лариса Удовиченко, Сергей Юрский, Наталья Фатеева, Виктор Павлов, Леонид Куравлев, Александр Абдулов, Светлана Светличная, Наталья Крачковская, Валерия Заклунная

О фильме: Убийства, засады, погони, перестрелки — на фоне послевоенной Москвы. Сотрудники МУРа против таинственной и неуловимой банды «Черная кошка». Демобилизовавшийся офицер разведки Володя Шарапов начинает работать в отделе по борьбе с бандитизмом. Одно из первых дел, в расследовании которых он участвует, — убийство Ларисы Груздевой…

Страна: СССРПродолжительность: 5 x ~ 01:15:00Перевод: Не требуется

ФайлКодек: XviDКачество: DVDRipВидео: XviD, 704x544 (1.29:4), 25 fps, ~ 1300 kbpsЗвук: AC3, 48 kHz, 3/2 (L,C,R,l,r) + LFE ch, ~384.00 kbps

МедиаИнфо

Общее Полное имя : Mesto.vstrechi.izmenitj.neljzja.1979.XviD.DVDRip.by.GeneralFilmserija.01.avi Формат : AVI Формат/Информация : Audio Video Interleave Размер файла : 890 Мбайт Продолжительность : 1 ч. 6 м. Общий поток : 1865 Кбит/сек Программа кодирования : VirtualDubMod 1.5.10.3 | www.virtualdub-fr.org || (build 2550/release) Библиотека кодирования : VirtualDubMod build 2550/release

Видео Идентификатор : 0 Формат : MPEG-4 Visual Профиль формата : Advanced [email protected] Параметр BVOP формата : 1 Параметр QPel формата : Нет Параметр GMC формата : Без точки перехода Параметр матрицы формата : Выборочная Идентификатор кодека : XVID Идентификатор кодека/Подсказка : XviD Продолжительность : 1 ч. 6 м. Битрейт : 1471 Кбит/сек Ширина : 704 пикселя Высота : 544 пикселя Соотношение сторон : 1,294 Частота кадров : 25,000 кадров/сек Цветовое пространство : YUV Субдискретизация насыщенности : 4:2:0 Битовая глубина : 8 бит Тип развёртки : Прогрессивная Метод сжатия : С потерями Бит/(Пиксели*Кадры) : 0.154 Размер потока : 702 Мбайт (79%) Библиотека кодирования : XviD 73

Аудио Идентификатор : 1 Формат : AC-3 Формат/Информация : Audio Coding 3 Расширение режима : CM (complete main) Параметр Endianness формата : Big Идентификатор кодека : 2000 Продолжительность : 1 ч. 6 м. Вид битрейта : Постоянный Битрейт : 384 Кбит/сек Каналы : 6 каналов Расположение каналов : Front: L C R, Side: L R, LFE Частота : 48,0 КГц Метод сжатия : С потерями Размер потока : 183 Мбайт (21%) Выравнивание : Разделение по промежуткам Продолжительность промежутка : 40 мс. (1,00 видеокадр) Время предзагрузки промежутка : 500 мс.

Релиз от:

Место встречи изменить нельзя [1979 BDRip-AVC] скачать через торрент

piratbit.ru

Размер: 6.55 GB | Добавлен: 1 год 2 мес. назад | Торрент скачан:90 раз
Реклама Дарим 3000 рублей за регистрацию, не упусти свой шанс получить шикарный бонус!!!

19-08-2016 18:46 Место встречи изменить нельзя Скачать торрент  

Место встречи изменить нельзя

Год выпуска: 1979Страна: СССРЖанр: Боевик, приключения, криминал, детективПродолжительность: 5 x ~ 01:15:00Перевод:ОригиналСубтитры: Нет

Режиссер: Станислав Говорухин

В ролях: Владимир Высоцкий, Владимир Конкин, Сергей Юрский, Виктор Павлов, Наталья Фатеева, Леонид Куравлёв, Светлана Светличная, Александр Белявский, Евгений Евстигнеев, Армен Джигарханян, Лариса Удовиченко, Станислав Садальский, Валерия Заклунная, Зиновий Гердт, Евгений Леонов-Гладышев, Евгений Шутов, Наталья Данилова (I), Александр Абдулов, Екатерина Градова, Иван Бортник, Лев Перфилов, Наталья Крачковская, Александр Милютин, Алексей Миронов, Всеволод Абдулов, Владлен Паулус, Юнона Карева, Наталья Петрова-Серуш, Нина Озорнина, Аркадий Свидерский, Людмила Давыдова (I), Павел Махотин, Олег Федулов

Описание: Лето 1945 года. Отгремел салют Великой Победы и страна постепенно возвращается к мирной жизни. Послевоенная Москва только начинает приходить в себя, но преступники уже вовсю развернули свою бурную деятельность. В городе появляется неуловимая банда «Черная кошка», наводя ужас на москвичей. Недавно демобилизовавшийся молодой командир разведроты офицер Володя Шарапов, придя по распределению в МУР, приступает к работе в отделе по борьбе с бандитизмом. Начальник отдела капитан Глеб Жеглов и Шарапов вступают в схватку с бандитами. Первое дело Шарапова – убийство Ларисы Груздевой, но за ними последует череда других дерзких преступлений.

Качество: BDRip-AVCФормат: MKVВидео кодек: AVCАудио кодек: AC3Видео: MPEG-4 AVC, (1024x768),2027 Кбит/с, 23.976 кадра/секАудио#1: AC3, 6 ch,448 kbps (Rus) 48.0 KHz Оригинал

Тип потока: ВидеоДлительность: 01:09:38Кодек: AVCКодек/описание: Advanced Video CodecКодек/профиль: [email protected]Кодек/ID: V_MPEG4/ISO/AVCКодек/CABAC: YesКодек/ReFrames: 6 framesРазмеры изображения: 1024 x 768 (4:3)Частота кадров: 23.976 fpsЧастота кадров/тип: ConstantРазмер потока: 986 MiB (80%)Битрейт: 2 027 KbpsБиблиотека кодирования: x264 core 138 r2356 a1d3d17Цветовое пространство: YUVТип развёртки: ProgressiveКолориметрия: 4:2:0Глубина: 8 bitsНастройки кодирования: cabac=1 / ref=6 / deblock=1:-3:-2 / analyse=0x3:0x113 / me=umh / subme=10 / psy=1 / psy_rd=1.00:0.05 / mixed_ref=1 / me_range=32 / chroma_me=1 / trellis=2 / 8x8dct=1 / cqm=0 / deadzone=21,11 / fast_pskip=0 / chroma_qp_offset=-3 / threads=3 / lookahead_threads=1 / sliced_threads=0 / nr=0 / decimate=0 / interlaced=0 / bluray_compat=0 / constrained_intra=0 / bframes=8 / b_pyramid=2 / b_adapt=2 / b_bias=0 / direct=3 / weightb=1 / open_gop=0 / weightp=2 / keyint=240 / keyint_min=24 / scenecut=40 / intra_refresh=0 / rc_lookahead=40 / rc=2pass / mbtree=1 / bitrate=2027 / ratetol=1.0 / qcomp=0.60 / qpmin=0 / qpmax=69 / qpstep=4 / cplxblur=20.0 / qblur=0.5 / ip_ratio=1.40 / aq=1:1.00: Тип потока: Звук #1Длительность: 01:09:38.400Кодек: AC-3Кодек/описание: Audio Coding 3Кодек/ID: A_AC3Частота дискретизации: 48.0 KHzКаналов: 6 channelsБитрейт: 448 KbpsБитрейт/тип: ConstantРазмер потока: 223 MiB (18%)Глубина: 16 bitsМетод сжатия: Lossy

Скачать Место встречи изменить нельзя через торрент http://pic1.pb.wtf/images/10/hmwdq.jpg Скачать фильм Место встречи изменить нельзя через торрент бесплантно в хорошем качестве Описание: Лето 1945 года. Отгремел салют Великой Победы и страна постепенно возвращается к мирной жизни. Послевоенная Москва только ... 2016-08-19 18:46 10 10 12

Loading...

Loading...

Последний раз редактировалось: Бумер (2016-08-19 19:40), всего редактировалось 2 раз(а)

Рекламный пират

20-08-2016 04:19 Место встречи изменить нельзя Скачать торрент  

20-08-2016 09:24 Место встречи изменить нельзя Скачать торрент  

Вау!Не часто встречаешь отличный фильм!Респект!

Дорогой пользователь! Огромная просьба, поблагодарите релизера, оцените раздачу и оставьте свои комментарий, если Вы скачали Место встречи изменить нельзя через торрент бесплатно! Внесите свою лепту в развитие PiratBit!

Комментировать посты могут только пользователи прошедшие не сложную регистрацию

Место встречи изменить нельзя через торрент Скачать бесплатно Место встречи изменить нельзя Место встречи изменить нельзя скачать торрент Место встречи изменить нельзя смотреть онлайн Cкачать фильм Место встречи изменить нельзя бесплатно Место встречи изменить нельзя скачать торрент в хорошем качестве Место встречи изменить нельзя смотреть онлайн бесплатно в хорошем качестве

Вы не можете начинать темыВы не можете отвечать на сообщенияВы не можете редактировать свои сообщенияВы не можете удалять свои сообщенияВы не можете голосовать в опросахВы не можете прикреплять файлы к сообщениямВы можете скачивать файлы

Место встречи изменить нельзя / / [1979 BDRip] скачать через торрент

piratbit.ru

Размер: 5.7 GB | Добавлен: 4 года 9 мес. назад | Торрент скачан:618 раз
Реклама Дарим 3000 рублей за регистрацию, не упусти свой шанс получить шикарный бонус!!!

05-01-2013 08:11 Место встречи изменить нельзя Скачать торрент  

Место встречи изменить нельзя Год выхода в эфир:1979Страна: СССРЖанр: ДетективПродолжительность: 06:18:45Перевод:ОригиналСубтитры: ОтсутствуютРежиссер:Станислав Говорухин В ролях: Владимир Высоцкий, Владимир Конкин, Сергей Юрский, Виктор Павлов, Наталья Фатеева, Леонид Куравлев, Светлана Светличная, Александр Белявский, Евгений Евстигнеев, Армен Джигарханян, Лариса Удовиченко, Станислав Садальский, Валерия Заклунная, Зиновий Гердт, Евгений Леонов-Гладышев, Евгений Шутов, Наталья Данилова, Александр Абдулов, Екатерина Градова, Иван Бортник, Лев Перфилов, Наталья Крачковская, Александр Милютин, Алексей Миронов, Всеволод Абдулов, Владлен Паулус, Юнона Карева, Наталья Петрова, Нина Озорнина, Аркадий Свидерский, Людмила Давыдова, Павел Махотин, Олег ФедуловОписание: Убийства, засады, погони, перестрелки — на фоне послевоенной Москвы. Сотрудники МУРа против таинственной и неуловимой банды «Черная кошка». Демобилизовавшийся офицер разведки Володя Шарапов начинает работать в отделе по борьбе с бандитизмом. Одно из первых дел, в расследовании которых он участвует, — убийство Ларисы Груздевой…Качество: BDRipФормат:AVIВидео кодек: XviDАудио кодек: AC3Видео: 720x544, 4:3, 23,976 fps, ~1800 kbps avg, 0.195 bit/pixel Аудио: AC3, 48 kHz, 3/2 (L,C,R,l,r) + LFE ch, ~384.00 kbps                Скачать Место встречи изменить нельзя через торрент http://pic.pb.wtf/images/1/evsi6jwt4p.jpg Скачать фильм Место встречи изменить нельзя через торрент бесплантно в хорошем качестве Описание: Убийства, засады, погони, перестрелки — на фоне послевоенной Москвы. Сотрудники МУРа против таинственной и неуловимой банды ... 2013-01-05 08:11 9.9 10 12

Loading...

Loading...

Рекламный пират

Дорогой пользователь! Огромная просьба, поблагодарите релизера, оцените раздачу и оставьте свои комментарий, если Вы скачали Место встречи изменить нельзя через торрент бесплатно! Внесите свою лепту в развитие PiratBit!

Комментировать посты могут только пользователи прошедшие не сложную регистрацию

Место встречи изменить нельзя через торрент Скачать бесплатно Место встречи изменить нельзя Место встречи изменить нельзя скачать торрент Место встречи изменить нельзя смотреть онлайн Cкачать фильм Место встречи изменить нельзя бесплатно Место встречи изменить нельзя скачать торрент в хорошем качестве Место встречи изменить нельзя смотреть онлайн бесплатно в хорошем качестве

Вы не можете начинать темыВы не можете отвечать на сообщенияВы не можете редактировать свои сообщенияВы не можете удалять свои сообщенияВы не можете голосовать в опросахВы не можете прикреплять файлы к сообщениямВы можете скачивать файлы


Смотрите также