Скачать марли и я через торрент в хорошем качестве


Марли и я (2008) скачать торрент в хорошем качестве бесплатно

Описание фильма "Марли и я"

Американский режиссер Дэвид Фрэнкел, известный как создатель мотивирующей мелодрамы "Дьявол носит Prada", в 2008 году снял трогательную картину о семье и собаке. Фильм основан на бестселлере писателя Джона Грогэна «Марли и мы: удивительная история и любви и жизни с самой ужасной в мире собакой». Несмотря на то, что картину раскручивают, как забавную историю одной семьи с невыносимым псом, на самом деле "Марли и я", это вариация на драматичную тему "Белый Бим Черное Ухо". Молодая семейная пара планирует в ближайшем будущем завести детей, а пока решает потренироваться на собаках, и заводит щенка лабрадора по имени Марли.

Итак, Джон и Дженни Гроган круто изменили свою жизнь. Они переехали в другой город, и нашли другую работу. Джон становится репортером популярного печатного издания во Флориде, и вместе с женой поселяется в дом их мечты. Они задумываются о детях, но мужчина, как и большинство молодых мужей, боится ответственности. Друг советует ему купить щенка, полагая, что атмосфера в доме станет активной при минимальной заботе. Щенка всего-то нужно покормить, выгулять, купать раз в месяц ну и все. Но не тут-то было, ведь собака тоже требует внимания и ведет себя, как маленький. Героям предстоит столкнуться с погрызанными подушками и диваном, разбитой посудой и даже покусанным почтальоном. Идея обзавестись собакой станет для молодых супругов настоящим испытанием. Чтобы узнать, удалось ли им справиться с этим, рекомендуем посмотреть фильм со скрытым смыслом Марли и я.

Картина на выходе получилась очень добротной и семейной, рассказывающей о важных ценностях в жизни – счастье, любви и о том, как один удивительный лабрадор сплотил семью. Нельзя не отметить великолепный актерский состав из таких голливудских звезд, как Дженнифер Энистон, Оуэн Уилсон и другие.

Скачать Марли и я через торрент

Сиды Качество Перевод Размер Видео Аудио
Скачать Загрузка... BDRip1080 Профессиональный (полное дублирование) Blu-ray EUR 9,85 Гб 1280x544 at 23.976 fps, English: 48 kHz, DTS, 3/2 (L,C,R,l,r) + LFE ch, ~1509.00 kbps avg
Скачать Загрузка... BDRip1080 Дублированный 8,33 Гб 1920x816, 8 519 Кбит/сек, 23.976 кадр/сек, AVC, x264, AC3 5.1 48 kHz 640 kbps -
Скачать Загрузка... WEB-DL Дублированный 3,78 Гб MPEG-4 AVC, 3013 Кбит/с, 1024x436 Аудио №1: Русский (AC3, 6 ch, 448 Кбит/с) - Дублированный Аудио №2: Украинский (AC3, 6 ch, 448 Кбит/с) - Дублированный Аудио №3: Английский (AC3, 6 ch, 448 Кбит/с) MediaInfoОбщееУникальный идентификатор : 200620398173705501862464563211442022520 (0x96EE154E8BB6081BAA5A616A848F6878)Полное имя : D:фильмыMarli.i.ja.2008.x264.BDRip.(AVC).ExKinoRay.mkvФормат : MatroskaРазмер файла : 3,52 ГбайтПродолжительность : 1 ч. 55 м.Общий поток : 4359 Кбит/секНазвание фильма : Marli.i.ja.2008.x264.BDRip.(AVC).ExKinoRayДата кодирования : UTC 2014-11-09 17:41:36Программа кодирования : mkvmerge v4.0.0 ('The Stars were mine') сборка от Jun 6 2010 16:18:42Библиотека кодирования : libebml v1.0.0 + libmatroska v1.0.0 ВидеоИдентификатор : 1Формат : AVCФормат/Информация : Advanced Video CodecПрофиль формата : [email protected]Параметр CABAC формата : ДаПараметр ReFrames формата : 8 кадровИдентификатор кодека : V_MPEG4/ISO/AVCПродолжительность : 1 ч. 55 м.Битрейт : 3013 Кбит/секШирина : 1024 пикс.Высота : 436 пикс.Соотношение сторон : 2,35:1Частота кадров : 23,976 кадр/секЦветовое пространство : YUVПодвыборка цветности : 4:2:0Битовая глубина : 8 битТип развёртки : ПрогрессивнаяБит/(Пиксели*Кадры) : 0.281Размер потока : 2,36 Гбайт (67%)Заголовок : Rip by EnigmaБиблиотека кодирования : x264 core 125 r2208 d9d2288Настройки программы : cabac=1 / ref=8 / deblock=1:-2:-2 / analyse=0x3:0x133 / me=umh / subme=11 / psy=1 / psy_rd=1.00:0.00 / mixed_ref=1 / me_range=48 / chroma_me=1 / trellis=2 / 8x8dct=1 / cqm=0 / deadzone=21,11 / fast_pskip=0 / chroma_qp_offset=-2 / threads=3 / lookahead_threads=1 / sliced_threads=0 / nr=0 / decimate=0 / interlaced=0 / bluray_compat=0 / constrained_intra=0 / bframes=8 / b_pyramid=2 / b_adapt=2 / b_bias=0 / direct=3 / weightb=1 / open_gop=0 / weightp=2 / keyint=240 / keyint_min=23 / scenecut=40 / intra_refresh=0 / rc=2pass / mbtree=0 / bitrate=3013 / ratetol=1.0 / qcomp=0.60 / qpmin=10 / qpmax=51 / qpstep=4 / cplxblur=20.0 / qblur=0.5 / ip_ratio=1.40 / pb_ratio=1.30 / aq=1:1.00Язык : English Аудио #1Идентификатор : 2Формат : AC-3Формат/Информация : Audio Coding 3Расширение режима : CM (complete main)Идентификатор кодека : A_AC3Продолжительность : 1 ч. 55 м.Вид битрейта : ПостоянныйБитрейт : 448 Кбит/секКаналы : 6 каналовРасположение каналов : Front: L C R, Side: L R, LFEЧастота : 48,0 КГцБитовая глубина : 16 битМетод сжатия : С потерямиРазмер потока : 370 Мбайт (10%)Заголовок : ДублированныйЯзык : Russian Аудио #2Идентификатор : 3Формат : AC-3Формат/Информация : Audio Coding 3Расширение режима : CM (complete main)Идентификатор кодека : A_AC3Продолжительность : 1 ч. 55 м.Вид битрейта : ПостоянныйБитрейт : 448 Кбит/секКаналы : 6 каналовРасположение каналов : Front: L C R, Side: L R, LFEЧастота : 48,0 КГцБитовая глубина : 16 битМетод сжатия : С потерямиРазмер потока : 370 Мбайт (10%)Заголовок : Дублированный (Украинский)Язык : Ukrainian Аудио #3Идентификатор : 4Формат : AC-3Формат/Информация : Audio Coding 3Расширение режима : CM (complete main)Идентификатор кодека : A_AC3Продолжительность : 1 ч. 55 м.Вид битрейта : ПостоянныйБитрейт : 448 Кбит/секКаналы : 6 каналовРасположение каналов : Front: L C R, Side: L R, LFEЧастота : 48,0 КГцБитовая глубина : 16 битМетод сжатия : С потерямиРазмер потока : 370 Мбайт (10%)Заголовок : АнглийскийЯзык : English Текст #1Идентификатор : 5Формат : UTF-8Идентификатор кодека : S_TEXT/UTF8Идентификатор кодека/Информация : UTF-8 Plain TextЯзык : Russian Текст #2Идентификатор : 6Формат : UTF-8Идентификатор кодека : S_TEXT/UTF8Идентификатор кодека/Информация : UTF-8 Plain TextЯзык : Ukrainian Текст #3Идентификатор : 7Формат : UTF-8Идентификатор кодека : S_TEXT/UTF8Идентификатор кодека/Информация : UTF-8 Plain TextЯзык : English Меню00:00:00.000 : :00:00:00.00000:03:49.729 : :00:03:49.72900:06:25.802 : :00:06:25.80200:10:12.737 : :00:10:12.73700:12:03.598 : :00:12:03.59800:15:56.247 : :00:15:56.24700:17:46.565 : :00:17:46.56500:20:49.165 : :00:20:49.16500:22:48.200 : :00:22:48.20000:26:09.109 : :00:26:09.10900:27:51.628 : :00:27:51.62800:32:16.017 : :00:32:16.01700:38:29.140 : :00:38:29.14000:40:13.995 : :00:40:13.99500:44:12.984 : :00:44:12.98400:46:35.126 : :00:46:35.12600:50:00.706 : :00:50:00.70600:54:45.324 : :00:54:45.32400:57:08.967 : :00:57:08.96701:00:57.487 : :01:00:57.48701:06:18.099 : :01:06:18.09901:10:12.500 : :01:10:12.50001:10:13.793 : :01:10:13.79301:12:26.092 : :01:12:26.09201:12:27.385 : :01:12:27.38501:15:23.310 : :01:15:23.31001:15:24.603 : :01:15:24.60301:18:09.727 : :01:18:09.72701:18:11.020 : :01:18:11.02001:21:53.909 : :01:21:53.90901:21:55.202 : :01:21:55.20201:27:39.087 : :01:27:39.08701:27:40.380 : :01:27:40.38001:37:44.192 : :01:37:44.19201:37:45.485 : :01:37:45.48501:40:14.508 : :01:40:14.50801:40:15.801 : :01:40:15.80101:44:09.702 : :01:44:09.70201:44:10.995 : :01:44:10.99501:48:34.049 : :01:48:34.04901:48:35.342 : :01:48:35.34201:52:14.353 : :01:52:14.35301:52:15.354 : :01:52:15.354 Скриншоты

У нас вы можете легко скачать Марли и я через торрент бесплатно в хорошем качестве, оставляйте комментарии и делитесь впечатлениями!

kino.kak.to

Скачать фильм Марли и я через торрент в хорошем качестве бесплатно BDRip

Раздают: 2 [ 0 KB/s ]
Размер: 2.18 GB | Добавлен: 3 года 11 мес. назад | Торрент скачан:480 раз
Реклама Дарим 3000 рублей за регистрацию, не упусти свой шанс получить шикарный бонус!!!

Марли и я / Marley & Me Год выпуска: 2008Страна: СШАЖанр: Драма, комедия, семейныйПродолжительность: 01:55:33Озвучивание: Профессиональное (полное дублирование)Режиссер: Дэвид Фрэнкел / David FrankelПродюссер: Джил Неттер, Карен Розенфельт, Джозеф М. Карачиоло мл.Сценарий: Скотт Фрэнк, Дон Рус, Джон ГроганБюджет: $60 000 000Премьера в мире: 25 декабря 2008 В ролях: Оуэн Уилсон, Дженнифер Энистон, Эрик Дэйн, Алан Аркин, Кэтлин Тёрнер, Нэйтан Гэмбл, Хейли Беннетт, Энн Дауд, Кларк Питерс, Финли ЯкобсенОписание: Молодой журналист со своей женой переезжает в другой город на новое место работы. У них грандиозные планы: покупка дома, дети. Но сначала они заводят собаку. Кто бы мог подумать, что именно она станет главным испытанием в их жизни...Качество: BDRipФормат: AVIВидео кодек: XviDАудио кодек: AC3Видео: XviD 720x304 23.976fps 1801 kbpsАудио 1: Dolby AC3 48000Hz 6ch 448 kbps |Rus|Аудио 2: Dolby AC3 48000Hz 6ch 448 kbps |Eng|Субтитры: русские|отдельным файлом|Сэмпл Скачать Марли и я через торрент http://i58.fastpic.ru/big/2013/1105/ab/13b895347f7ad201c637c98587ba38ab.jpg Скачать фильм Марли и я через торрент бесплантно в хорошем качестве Описание: Молодой журналист со своей женой переезжает в другой город на новое место работы. У них грандиозные планы: покупка дома, дети. Но ... 2013-11-06 03:44 10 10 11

Loading...

Loading...

Рекламный пират

очень хорошое кино

Ревел как сучка.

Дорогой пользователь! Огромная просьба, поблагодарите релизера, оцените раздачу и оставьте свои комментарий, если Вы скачали Марли и я через торрент бесплатно! Внесите свою лепту в развитие PiratBit!

Комментировать посты могут только пользователи прошедшие не сложную регистрацию

Марли и я через торрент Скачать бесплатно Марли и я Марли и я скачать торрент Марли и я смотреть онлайн Cкачать фильм Марли и я бесплатно Марли и я скачать торрент в хорошем качестве Марли и я смотреть онлайн бесплатно в хорошем качестве

Вы не можете начинать темыВы не можете отвечать на сообщенияВы не можете редактировать свои сообщенияВы не можете удалять свои сообщенияВы не можете голосовать в опросахВы не можете прикреплять файлы к сообщениямВы можете скачивать файлы

piratbit.ru

Скачать фильм Марли и я через торрент в хорошем качестве бесплатно 720p

Размер: 9.43 GB | Добавлен: 2 года 11 мес. назад | Торрент скачан:30 раз
Реклама Дарим 3000 рублей за регистрацию, не упусти свой шанс получить шикарный бонус!!!

19-11-2014 17:06 Марли и я Скачать торрент  

Марли и я / Marley & Me

Год выпуска: 2008Страна: СШАЖанр: драма, мелодрама, комедия, семейныйПродолжительность: 01:55:34Перевод: Дубляж |Blu-ray EUR|Субтитры: Russian, Ukrainian, English, Bulgarian, Czech, English, Greek, Romanian, Spanish, Swedish

Режиссер: Дэвид ФрэнкелПродюссер: Джил Неттер, Карен Розенфельт, Джозеф М. Карачиоло мл.Сценарий: Скотт Фрэнк, Дон Рус, Джон ГроганБюджет: $60 000 000Премьера в мире: 25 декабря 2008

IMDB 7.10 (97 937)

В ролях: Оуэн Уилсон, Дженнифер Энистон, Эрик Дэйн, Алан Аркин, Кэтлин Тёрнер, Нэйтан Гэмбл, Хейли Беннетт, Энн Дауд, Кларк Питерс, Финли Якобсен, Александр Лушин, Мария Цветкова-Овсянникова, Олег Алмазов, Борис Улитин, Любовь Тищенко

Описание: Молодой журналист со своей женой переезжает в другой город на новое место работы. У них грандиозные планы: покупка дома, дети... Но сначала они заводят собаку. Кто бы мог подумать, что именно она станет главным испытанием в их жизни.

Качество: BDRip 720pФормат: MKVВидео кодек: AVCАудио кодек: AC3 / DTSВидео: AVC, 1280x544 (2.35:1), 23.976 fps, 8 763 Kbps (0.525 bit/pixel)Аудио#1: Russian: 48 kHz, AC3, 3/2 (L,C,R,l,r) + LFE ch, ~448.00 kbps avg |Дубляж, Blu-ray EUR|Аудио#2: Ukrainian : 48 kHz, AC3, 3/2 (L,C,R,l,r) + LFE ch, ~448.00 kbps avg |Дубляж, Blu-ray EUR|Аудио#3: English: 48 kHz, DTS, 3/2 (L,C,R,l,r) + LFE ch, ~1509.00 kbps avg

GeneralUnique ID : 196022492818059467257769636164593319532 (0x93788F120CD5E5F0B84D8D042924FE6C)Complete name : /home/sb1855/files/Marley&Me.2008.REPACK.720p.BluRay.Rus.Ukr.Eng.HDCLUB.mkvFormat : MatroskaFormat version : Version 2File size : 9.43 GiBDuration : 1h 55mnOverall bit rate : 11.7 MbpsMovie name : Marley & Me (2008) - Release for HDCLUBEncoded date : UTC 2014-11-18 11:29:59Writing application : mkvmerge v5.7.0 ('The Whirlwind') built on Jul 8 2012 20:08:51Writing library : libebml v1.2.3 + libmatroska v1.3.0

VideoID : 1Format : AVCFormat/Info : Advanced Video CodecFormat profile : [email protected] settings, CABAC : YesFormat settings, ReFrames : 12 framesCodec ID : V_MPEG4/ISO/AVCDuration : 1h 55mnBit rate : 9 041 KbpsWidth : 1 280 pixelsHeight : 544 pixelsDisplay aspect ratio : 2.35:1Frame rate : 23.976 fpsColor space : YUVChroma subsampling : 4:2:0Bit depth : 8 bitsScan type : ProgressiveBits/(Pixel*Frame) : 0.542Stream size : 7.30 GiB (77%)Writing library : x264 core 142 r2431+42 c69a006 tMod [[email protected]:2:0 X86_64]Encoding settings : cabac=1 / ref=12 / deblock=1:-3:-3 / analyse=0x3:0x133 / me=umh / subme=10 / psy=1 / fade_compensate=0.00 / psy_rd=1.00:0.00 / mixed_ref=1 / me_range=24 / chroma_me=1 / trellis=2 / 8x8dct=1 / cqm=0 / deadzone=21,11 / fast_pskip=1 / chroma_qp_offset=-2 / threads=12 / lookahead_threads=2 / sliced_threads=0 / nr=0 / decimate=1 / interlaced=0 / bluray_compat=0 / constrained_intra=0 / fgo=0 / bframes=8 / b_pyramid=2 / b_adapt=2 / b_bias=0 / direct=3 / weightb=1 / open_gop=0 / weightp=2 / keyint=250 / keyint_min=23 / scenecut=40 / intra_refresh=0 / rc_lookahead=60 / rc=crf / mbtree=0 / crf=16.3000 / qcomp=0.65 / qpmin=0:0:0 / qpmax=69:69:69 / qpstep=4 / vbv_maxrate=62500 / vbv_bufsize=78125 / crf_max=0.0 / nal_hrd=none / filler=0 / ip_ratio=1.30 / pb_ratio=1.20 / aq=4:0.85 / aq-sensitivity=10.00 / aq-factor=1.00:1.00:1.00 / aq2=0 / aq3=0Language : EnglishDefault : YesForced : NoMatrix coefficients : BT.709-5, BT.1361, IEC 61966-2-4 709, SMPTE RP177

Audio #1ID : 2Format : AC-3Format/Info : Audio Coding 3Mode extension : CM (complete main)Format settings, Endianness : BigCodec ID : A_AC3Duration : 1h 55mnBit rate mode : ConstantBit rate : 448 KbpsChannel(s) : 6 channelsChannel positions : Front: L C R, Side: L R, LFESampling rate : 48.0 KHzBit depth : 16 bitsCompression mode : LossyStream size : 370 MiB (4%)Title : |??????, Blu-ray EUR|Language : RussianDefault : YesForced : No

Audio #2ID : 3Format : AC-3Format/Info : Audio Coding 3Mode extension : CM (complete main)Format settings, Endianness : BigCodec ID : A_AC3Duration : 1h 55mnBit rate mode : ConstantBit rate : 448 KbpsChannel(s) : 6 channelsChannel positions : Front: L C R, Side: L R, LFESampling rate : 48.0 KHzBit depth : 16 bitsCompression mode : LossyStream size : 370 MiB (4%)Title : |??????, Blu-ray EUR|Language : UkrainianDefault : NoForced : No

Audio #3ID : 4Format : DTSFormat/Info : Digital Theater SystemsCodec ID : A_DTSDuration : 1h 55mnBit rate mode : ConstantBit rate : 1 510 KbpsChannel(s) : 6 channelsChannel positions : Front: L C R, Side: L R, LFESampling rate : 48.0 KHzBit depth : 24 bitsCompression mode : LossyStream size : 1.22 GiB (13%)Language : EnglishDefault : NoForced : No

Text #1ID : 5Format : UTF-8Codec ID : S_TEXT/UTF8Codec ID/Info : UTF-8 Plain TextLanguage : RussianDefault : NoForced : No

Text #2ID : 6Format : UTF-8Codec ID : S_TEXT/UTF8Codec ID/Info : UTF-8 Plain TextLanguage : UkrainianDefault : NoForced : No

Text #3ID : 7Format : UTF-8Codec ID : S_TEXT/UTF8Codec ID/Info : UTF-8 Plain TextTitle : SDHLanguage : EnglishDefault : NoForced : No

Text #4ID : 8Format : UTF-8Codec ID : S_TEXT/UTF8Codec ID/Info : UTF-8 Plain TextLanguage : BulgarianDefault : NoForced : No

Text #5ID : 9Format : UTF-8Codec ID : S_TEXT/UTF8Codec ID/Info : UTF-8 Plain TextLanguage : EnglishDefault : NoForced : No

Text #6ID : 10Format : UTF-8Codec ID : S_TEXT/UTF8Codec ID/Info : UTF-8 Plain TextLanguage : GreekDefault : NoForced : No

Text #7ID : 11Format : UTF-8Codec ID : S_TEXT/UTF8Codec ID/Info : UTF-8 Plain TextLanguage : RomanianDefault : NoForced : No

Text #8ID : 12Format : UTF-8Codec ID : S_TEXT/UTF8Codec ID/Info : UTF-8 Plain TextLanguage : SpanishDefault : NoForced : No

Text #9ID : 13Format : UTF-8Codec ID : S_TEXT/UTF8Codec ID/Info : UTF-8 Plain TextLanguage : SwedishDefault : NoForced : No

Text #10ID : 14Format : UTF-8Codec ID : S_TEXT/UTF8Codec ID/Info : UTF-8 Plain TextLanguage : CzechDefault : NoForced : No

         Скачать Марли и я через торрент http://pic.pb.wtf/images/8/l2q4t.jpg Скачать фильм Марли и я через торрент бесплантно в хорошем качестве Описание: Молодой журналист со своей женой переезжает в другой город на новое место работы. У них грандиозные планы: покупка дома, дети... ... 2014-11-19 17:06 10 10 4

Loading...

Loading...

Рекламный пират

19-11-2014 18:49 Марли и я Скачать торрент  

отличный фильм.

Дорогой пользователь! Огромная просьба, поблагодарите релизера, оцените раздачу и оставьте свои комментарий, если Вы скачали Марли и я через торрент бесплатно! Внесите свою лепту в развитие PiratBit!

Комментировать посты могут только пользователи прошедшие не сложную регистрацию

Марли и я через торрент Скачать бесплатно Марли и я Марли и я скачать торрент Марли и я смотреть онлайн Cкачать фильм Марли и я бесплатно Марли и я скачать торрент в хорошем качестве Марли и я смотреть онлайн бесплатно в хорошем качестве

Вы не можете начинать темыВы не можете отвечать на сообщенияВы не можете редактировать свои сообщенияВы не можете удалять свои сообщенияВы не можете голосовать в опросахВы не можете прикреплять файлы к сообщениямВы можете скачивать файлы

piratbit.ru

Скачать фильм Марли и я 2 (2011) через торрент

25 августа 2016 06:19 Марли и я: Щенячьи годы / Марли и я 2 / Marley & Me: The Puppy Years (2011) BDRip-AVC от ExKinoRay | P | Лицензия.torrent   [Информация о файле (нажмите для просмотра)] Перевод: Профессиональный многоголосый (Лицензия R5)Субтитры: Русские, английскиеКодек: H.264Качество: BDRip (AVC)Видео: MPEG-4 AVC, 3429 Кбит/с, 1024x576Звук: Русский (AC3, 6 ch, 384 Кбит/с), английский (AC3, 2 ch, 192 Кбит/с)Видео: Идентификатор : 1 Формат : AVC Формат/Информация : Advanced Video Codec Профиль формата : [email protected] Параметр CABAC формата : Да Параметр ReFrames формата : 8 кадров Идентификатор кодека : V_MPEG4/ISO/AVC Продолжительность : 1 ч. 26 м. Битрейт : 3429 Кбит/сек Ширина : 1024 пикс. Высота : 576 пикс. Соотношение сторон : 16:9 Частота кадров : 23,976 кадр/сек Цветовое пространство : YUV Подвыборка цветности : 4:2:0 Битовая глубина : 8 бит Тип развёртки : Прогрессивная Бит/(Пиксели*Кадры) : 0.242 Размер потока : 2,01 Гбайт (84%) Заголовок : Rip by Enigma Библиотека кодирования : x264 core 125 r2208 d9d2288 Настройки программы : cabac=1 / ref=8 / deblock=1:-2:-2 / analyse=0x3:0x133 / me=umh / subme=11 / psy=1 / psy_rd=1.00:0.00 / mixed_ref=1 / me_range=48 / chroma_me=1 / trellis=2 / 8x8dct=1 / cqm=0 / deadzone=21,11 / fast_pskip=0 / chroma_qp_offset=-2 / threads=3 / lookahead_threads=1 / sliced_threads=0 / nr=0 / decimate=0 / interlaced=0 / bluray_compat=0 / constrained_intra=0 / bframes=8 / b_pyramid=2 / b_adapt=2 / b_bias=0 / direct=3 / weightb=1 / open_gop=0 / weightp=2 / keyint=240 / keyint_min=23 / scenecut=40 / intra_refresh=0 / rc=2pass / mbtree=0 / bitrate=3429 / ratetol=1.0 / qcomp=0.60 / qpmin=10 / qpmax=51 / qpstep=4 / cplxblur=20.0 / qblur=0.5 / ip_ratio=1.40 / pb_ratio=1.30 / aq=1:1.00 Язык : EnglishАудио #1: Идентификатор : 2 Формат : AC-3 Формат/Информация : Audio Coding 3 Расширение режима : CM (complete main) Идентификатор кодека : A_AC3 Продолжительность : 1 ч. 26 м. Вид битрейта : Постоянный Битрейт : 384 Кбит/сек Каналы : 6 каналов Расположение каналов : Front: L C R, Side: L R, LFE Частота : 48,0 КГц Битовая глубина : 16 бит Метод сжатия : С потерями Размер потока : 236 Мбайт (10%) Заголовок : Профессиональный многоголосый Язык : RussianАудио #2: Идентификатор : 3 Формат : AC-3 Формат/Информация : Audio Coding 3 Расширение режима : CM (complete main) Идентификатор кодека : A_AC3 Продолжительность : 1 ч. 26 м. Вид битрейта : Постоянный Битрейт : 192 Кбит/сек Каналы : 2 канала Расположение каналов : Front: L R Частота : 48,0 КГц Битовая глубина : 16 бит Метод сжатия : С потерями Размер потока : 118 Мбайт (5%) Язык : English 2,4 Gb 5 2 25 августа 2016 06:19 Марли и я: Щенячьи годы / Марли и я 2 / Marley & Me: The Puppy Years (2011) BDRip-AVC.torrent   [Информация о файле (нажмите для просмотра)] Перевод: Профессиональный многоголосый (Лицензия R5)Контейнер: .mkvКачество: BDRipВидео: MPEG-4 AVC, 913 Кбит/сек, 852x480, 23.976 кадр/сАудио: Русский (AC3, 6 ch, 384 Кбит/c, 48,0 КГц), английский (AC3, 2 ch, 192 Кбит/c, 48,0 КГц)Субтитры: Русские (R5), английские (Full + SDH) 935,13 Mb 3 1 25 августа 2016 06:19 Марли и я: Щенячьи годы / Марли и я 2 / Marley & Me: The Puppy Years (2011) BDRip 1080p.torrent   [Информация о файле (нажмите для просмотра)] Перевод: Профессиональный многоголосый (Лицензия R5)Контейнер: .mkvКачество: BDRipВидео: MPEG-4 AVC, 11,7 Мбит/сек, 1920x1078, 23.976 кадр/сАудио: Русский (AC3, 6 ch, 384 Кбит/c, 48,0 КГц), английский (AC3, 2 ch, 192 Кбит/c, 48,0 КГц)Субтитры: Русские (R5), английские (Full + SDH) 7,37 Gb 2 1 25 августа 2016 06:19 Марли и я: Щенячьи годы / Марли и я 2 / Marley & Me: The Puppy Years (2011) BDRip 720p | Лицензия R5.torrent   [Информация о файле (нажмите для просмотра)] Перевод: Профессиональный многоголосый (Лицензия R5)Контейнер: .mkvКачество: BDRip (720p)Видео: MPEG-4 AVC, 5752 Кбит/с, 1280x720, 23.976 кадр/сАудио: Русский (AC3, 6 ch, 384 Кбит/c, 48,0 КГц), английский (AC3, 2 ch, 192 Кбит/c, 48,0 КГц)Субтитры: Русские (R5), английские (Full + SDH) 3,81 Gb 5 5 25 августа 2016 06:19 Марли и я 2 / Marley & Me: The Puppy Years (2011) HDRip | Лицензия.torrent   [Информация о файле (нажмите для просмотра)] Качество: HDRipВидео: MPEG4, XviD, 640x368 (16:9), 23.976 fps, 946 Kbps (0.167 bit/pixel)Аудио: MP3, 44.1 KHz, 2 ch, 128 Kbps, CBRПеревод: Профессиональный (многоголосный) [лицензия] 694,05 Mb 3 1 25 августа 2016 06:19 Марли и я 2 / Marley & Me: The Puppy Years (2011) HDRip | Лицензия.torrent   [Информация о файле (нажмите для просмотра)] Качество: HDRipВидео: MPEG4, XviD, 720x400 (16:9), 23.976 fps, 1 821 Kbps (0.264 bit/pixel)Аудио: AC-3, 48.0 KHz, 6 ch, 448 Kbps, CBRПеревод: Профессиональное (многоголосое) [лицензия] 1,37 Gb 6 3

gig-torrent.net


Смотрите также