Скачать малефисента через торрент в хорошем качестве


Скачать Малефисента через торрент - фильм в хорошем качестве

Категория: Фильмы 7710 0 Торрент добавлен: 23-04-2015 Рейтинг:

2014 / драма, мелодрама, боевик, семейный, приключение / 135 мин.Оригинальное название: MaleficentРежиссер: Роберт СтромбергВ ролях: Анджелина Джоли, Элли Фэннинг, Джуно Темпл, Индия Айсли, Шолто Копли, Миранда Ричардсон, Сэм Райли, Имельда Стонтон, Лесли Мэнвилл, Кеннет Крэнем, Питер Капальди, Брентон Туэйтс

Молодая чародейка по имени Малефисента жила одна в огромном лесу, который был населен необычными существами. Уединённый образ жизни ее вполне устраивал, пока не пожаловали люди в ее тихие и спокойные земли, принесшие хаос. Малефисента была вынуждена защищать свой мир и его обитателей, поэтому она воспользовалась темными силами. В процессе борьбы Малефинеста в пылу ярости наложила могущественной силы заклятие на единственную дочь короля Аврору. Однако видя то, как растет эта маленькая девочка, Малефинеста приходит к выводу, что возможно она поспешила с наложением заклятия, ведь ей показалось, что именно маленькая принцесса Аврора способна привнести в угасшее лесное царство новую жизнь.

Трейлер к фильму Малефисента

Малефисента скачать торрент

Качество: BDRemux 1080p Формат: MKVВидео: 1920x1080, MPEG-4 AVC Video 28212 kbps 1080p / 23,976 fps / 16:9 / High Profile 4.1Аудио 1: DTS-HD Master Audio English 4858 kbps 7.1Профессиональный (дублированный)

24,68 Gb

Качество видео: BDRip 1080p Формат видео: MKVВидео: x.264, 1920x800 (2.40:1), ~12993 kbps avg, 23,976 fpsАудио #1: AC3 Dolby Digital, 48 KHz, ~640 kbps, Профессиональный дублированный

9,72 Gb

3D

Качество: BDRip (by Ash61)Контейнер: MKVФормат 3D: Half OverUnder / Вертикальная анаморфная стереопараПорядок ракурсов: левый ракурс первыйВидео: AVC / 23,976 fps / 1920х1080p / ~7.0 MbpsАудио: Русский / AC3 / 48 KHz / 5.1 ch / 640 Kbps (Дубляж - BD 3D Eur)

5,80 Gb

Кодек: H.264Качество: BDRip [720p]Видео: 1280x534, 2.40:1, 4 400 Kbps, 23.976 fpsЗвук: АAС 2.0 152 kbps - Русский дублированный

3,90 Gb

Качество видео: HDRipФормат видео: AVIВидео: 720x304 (2.37:1), 23.976 fps, XviD build 73 ~1670 kbps avg, 0.32 bit/pixelАудио: 48 kHz, AC3 Dolby Digital, 3/2 (L,C,R,l,r) + LFE ch, ~448 kbpsПрофессиональный (дублированный)

Вы находитесь на странице, где можете совершенно бесплатно скачать фильм Малефисента в хорошем качестве через торрент, в любом формате, который больше всего вам на данный момент подходит. Скачивание осуществляется через торрент, что означает максимально высокую скорость загрузки. Желаем Вам приятного просмотра!. Не забудь поделиться своими впечатлениями после того как посмотришь фильм Малефисента.

Информация Посетители, находящиеся в группе Гости, не могут оставлять комментарии к данной публикации.

psp-gu.ru

Скачать фильм Малефисента через торрент в хорошем качестве бесплатно 720p

Раздают: 1 [ 0 KB/s ]
Размер: 3.61 GB | Добавлен: 3 года 1 мес. назад | Торрент скачан:682 раза
Реклама Дарим 3000 рублей за регистрацию, не упусти свой шанс получить шикарный бонус!!!

17-09-2014 11:03 Малефисента Скачать торрент  

Малефисента / Maleficent«Не верьте сказкам» Год выпуска: 2014Страна: США, ВеликобританияЖанр: фэнтези, семейный, мелодрама, приключенияПродолжительность: 01:37:28Перевод: Дубляж - [Лицензия]Субтитры: Отсутствует Режиссер: Роберт Стромберг / Robert StrombergВ ролях: Анджелина Джоли (Maleficent), Эль Фаннинг (Aurora), Шарлто Копли (Stefan), Лесли Мэнвилл (Flittle), Имелда Стонтон (Knotgrass), Джуно Темпл (Thistletwit), Сэм Райли (Diaval), Брентон Туэйтс (Prince Phillip), Кеннет Крэнэм (King Henry), Сара Флинд (Princess Leila's Handmaiden), Ханна Нью (Queen Leah), Изобель Моллой (Young Maleficent)Описание: Юная волшебница Малефисента вела уединенную жизнь в зачарованном лесу, окруженная сказочными существами, но однажды все изменилось... В её мир вторглись люди, которые принесли с собой разрушение и хаос, и Малефисенте пришлось встать на защиту своих подданных, призвав на помощь могущественные тёмные силы. В пылу борьбы Малефисента наложила страшное заклятие на новорожденную дочь короля, прекрасную Аврору. Но, наблюдая за тем, как растет маленькая принцесса, Малефисента начинает сомневаться в правильности своего поступка - ведь, возможно, именно Аврора может вдохнуть новую жизнь в волшебное лесное царство.Рейтинг: Бюджет:$180 000 000 MPAA: PG - Рекомендуется присутствие родителейКачество: BDRip 720p [hand made 60fps]Формат: MKVВидео кодек:AVCАудио кодек:AC3Видео: AVC, 1280x544 (2.35:1), 4550 kbps, 59,940 fps, 0,109 bppАудио: русский / AC3 / 5.1 / 48 kHz / 640 kbps / 16 bit GeneralUnique ID : 226519072929716856790953862994779930421 (0xAA69FC8EBD1323889EB9164A31D77F35)Complete name : D:\Users\_KaisiK_\uTorrent\КИНО\Maleficent 60fps.mkvFormat : MatroskaFormat version : Version 2File size : 3.61 GiBDuration : 1h 37mnOverall bit rate : 5 295 KbpsMovie name : Maleficent (2014) Blu-ray EUR 1080p AVC DD5.1Encoded date : UTC 2014-09-14 09:37:48Writing application : mkvmerge v6.9.1 ('Blue Panther') 64bit built on Apr 18 2014 18:23:38Writing library : libebml v1.3.0 + libmatroska v1.4.1

VideoID : 1Format : AVCFormat/Info : Advanced Video CodecFormat profile : [email protected] settings, CABAC : YesFormat settings, ReFrames : 6 framesCodec ID : V_MPEG4/ISO/AVCDuration : 1h 37mnBit rate : 4 550 KbpsWidth : 1 280 pixelsHeight : 544 pixelsDisplay aspect ratio : 2.35:1Frame rate : 59.940 fpsColor space : YUVChroma subsampling : 4:2:0Bit depth : 8 bitsScan type : ProgressiveBits/(Pixel*Frame) : 0.109Stream size : 3.10 GiB (86%)Title : Release by mimokWriting library : x264 core 125 r2208 d9d2288Encoding settings : cabac=1 / ref=6 / deblock=0:0:0 / analyse=0x3:0x133 / me=umh / subme=8 / psy=1 / psy_rd=0.80:0.15 / mixed_ref=1 / me_range=20 / chroma_me=1 / trellis=2 / 8x8dct=1 / cqm=0 / deadzone=21,11 / fast_pskip=0 / chroma_qp_offset=-3 / threads=6 / lookahead_threads=1 / sliced_threads=0 / nr=0 / decimate=0 / interlaced=0 / bluray_compat=0 / constrained_intra=0 / bframes=7 / b_pyramid=2 / b_adapt=2 / b_bias=0 / direct=1 / weightb=1 / open_gop=0 / weightp=2 / keyint=600 / keyint_min=59 / scenecut=40 / intra_refresh=0 / rc=crf / mbtree=0 / crf=18.0 / qcomp=0.63 / qpmin=10 / qpmax=51 / qpstep=4 / ip_ratio=1.40 / pb_ratio=1.30 / aq=1:0.70Default : YesForced : No

AudioID : 2Format : AC-3Format/Info : Audio Coding 3Mode extension : CM (complete main)Codec ID : A_AC3Duration : 1h 37mnBit rate mode : ConstantBit rate : 640 KbpsChannel(s) : 6 channelsChannel positions : Front: L C R, Side: L R, LFESampling rate : 48.0 KHzBit depth : 16 bitsCompression mode : LossyStream size : 446 MiB (12%)Title : ЛицензияLanguage : RussianDefault : YesForced : No

[/code]

Скачать Малефисента через торрент http://i5.imageban.ru/out/2014/09/17/dd34de9db18bfb9e97f3cc76cddef8cc.jpg Скачать фильм Малефисента через торрент бесплантно в хорошем качестве Описание: Юная волшебница Малефисента вела уединенную жизнь в зачарованном лесу, окруженная сказочными существами, но однажды все ... 2014-09-17 11:03 9.7 10 15

Loading...

Loading...

Рекламный пират

Дорогой пользователь! Огромная просьба, поблагодарите релизера, оцените раздачу и оставьте свои комментарий, если Вы скачали Малефисента через торрент бесплатно! Внесите свою лепту в развитие PiratBit!

Комментировать посты могут только пользователи прошедшие не сложную регистрацию

Малефисента через торрент Скачать бесплатно Малефисента Малефисента скачать торрент Малефисента смотреть онлайн Cкачать фильм Малефисента бесплатно Малефисента скачать торрент в хорошем качестве Малефисента смотреть онлайн бесплатно в хорошем качестве

Вы не можете начинать темыВы не можете отвечать на сообщенияВы не можете редактировать свои сообщенияВы не можете удалять свои сообщенияВы не можете голосовать в опросахВы не можете прикреплять файлы к сообщениямВы можете скачивать файлы

piratbit.ru

Скачать фильм Малефисента через торрент в хорошем качестве бесплатно 1080p

GeneralUnique ID                                : 230211594082684750908660912285031490500 (0xAD3123E801CC222AAD02C0B3A46E63C4)Complete name                            : E:\Малефисента (2014) BDRip 1080p.mkvFormat                                   : MatroskaFormat version                           : Version 4 / Version 2File size                                : 11.8 GiBDuration                                 : 1h 37mnOverall bit rate                         : 17.3 MbpsEncoded date                             : UTC 2014-09-13 14:31:55Writing application                      : mkvmerge v6.9.1 ('Blue Panther') 64bit built on Apr 18 2014 18:23:38Writing library                          : libebml v1.3.0 + libmatroska v1.4.1Attachment                               : Yes

VideoID                                       : 1Format                                   : AVCFormat/Info                              : Advanced Video CodecFormat profile                           : [email protected] settings, CABAC                   : YesFormat settings, ReFrames                : 5 framesCodec ID                                 : V_MPEG4/ISO/AVCDuration                                 : 1h 37mnBit rate                                 : 14.8 MbpsWidth                                    : 1 920 pixelsHeight                                   : 800 pixelsDisplay aspect ratio                     : 2.40:1Frame rate                               : 23.976 fpsColor space                              : YUVChroma subsampling                       : 4:2:0Bit depth                                : 8 bitsScan type                                : ProgressiveBits/(Pixel*Frame)                       : 0.402Stream size                              : 10.1 GiB (86%)Writing library                          : x264 core 142 r2479kMod dd79a61Encoding settings                        : cabac=1 / ref=5 / deblock=1:-3:-3 / analyse=0x3:0x133 / me=umh / subme=10 / psy=1 / fade_compensate=0.00 / psy_rd=1.05:0.00 / mixed_ref=1 / me_range=24 / chroma_me=1 / trellis=2 / 8x8dct=1 / cqm=0 / deadzone=21,11 / fast_pskip=0 / chroma_qp_offset=-2 / threads=24 / lookahead_threads=6 / sliced_threads=0 / nr=0 / decimate=0 / interlaced=0 / bluray_compat=0 / constrained_intra=0 / fgo=0 / bframes=10 / b_pyramid=2 / b_adapt=2 / b_bias=0 / direct=3 / weightb=1 / open_gop=0 / weightp=2 / keyint=250 / keyint_min=23 / scenecut=40 / intra_refresh=0 / rc=crf / mbtree=0 / crf=16.0000 / qcomp=0.75 / qpmin=0 / qpmax=69 / qpstep=4 / ip_ratio=1.30 / pb_ratio=1.20 / aq=1:0.75Language                                 : EnglishDefault                                  : YesForced                                   : No

Audio #1ID                                       : 2Format                                   : AC-3Format/Info                              : Audio Coding 3Mode extension                           : CM (complete main)Codec ID                                 : A_AC3Duration                                 : 1h 37mnBit rate mode                            : ConstantBit rate                                 : 640 KbpsChannel(s)                               : 6 channelsChannel positions                        : Front: L C R, Side: L R, LFESampling rate                            : 48.0 KHzBit depth                                : 16 bitsCompression mode                         : LossyStream size                              : 446 MiB (4%)Language                                 : RussianDefault                                  : YesForced                                   : Yes

Audio #2ID                                       : 3Format                                   : DTSFormat/Info                              : Digital Theater SystemsCodec ID                                 : A_DTSDuration                                 : 1h 37mnBit rate mode                            : ConstantBit rate                                 : 1 510 KbpsChannel(s)                               : 6 channelsChannel positions                        : Front: L C R, Side: L R, LFESampling rate                            : 48.0 KHzBit depth                                : 24 bitsCompression mode                         : LossyStream size                              : 1.03 GiB (9%)Language                                 : EnglishDefault                                  : NoForced                                   : No

TextID                                       : 4Format                                   : UTF-8Codec ID                                 : S_TEXT/UTF8Codec ID/Info                            : UTF-8 Plain TextTitle                                    : ПолныеLanguage                                 : RussianDefault                                  : NoForced                                   : No

Menu00:00:00.000                             : en:00:00:00.00000:03:00.597                             : en:00:03:00.59700:08:10.949                             : en:00:08:10.94900:14:00.757                             : en:00:14:00.75700:19:10.608                             : en:00:19:10.60800:25:59.057                             : en:00:25:59.05700:33:09.738                             : en:00:33:09.73800:38:30.808                             : en:00:38:30.80800:43:21.140                             : en:00:43:21.14000:46:56.105                             : en:00:46:56.10500:51:11.944                             : en:00:51:11.94400:54:18.797                             : en:00:54:18.79700:58:37.723                             : en:00:58:37.72301:01:58.048                             : en:01:01:58.04801:05:09.989                             : en:01:05:09.98901:09:56.776                             : en:01:09:56.77601:15:40.619                             : en:01:15:40.61901:17:43.659                             : en:01:17:43.65901:25:44.931                             : en:01:25:44.93101:28:38.647                             : en:01:28:38.647

piratbit.ru

Скачать фильм Малефисента через торрент в хорошем качестве бесплатно 1080p 3D

GeneralUnique ID                                : 242211794911546122004013049088888322948 (0xB6384B7CA0450867AB5BC1A5F3A4BB84)Complete name                            : D:\Торенты\Maleficent.2014.3D.Half-OU.x264.mkvFormat                                   : MatroskaFormat version                           : Version 4 / Version 2File size                                : 12.7 GiBDuration                                 : 1h 37mnOverall bit rate                         : 18.7 MbpsEncoded date                             : UTC 2014-09-13 06:47:44Writing application                      : mkvmerge v6.1.0 ('Old Devil') built on Mar  4 2013 09:10:42Writing library                          : libebml v1.3.0 + libmatroska v1.4.0

VideoID                                       : 1Format                                   : AVCFormat/Info                              : Advanced Video CodecFormat profile                           : [email protected] settings, CABAC                   : YesFormat settings, ReFrames                : 2 framesCodec ID                                 : V_MPEG4/ISO/AVCDuration                                 : 1h 37mnBit rate                                 : 16.8 MbpsWidth                                    : 1 920 pixelsHeight                                   : 1 080 pixelsDisplay aspect ratio                     : 16:9Frame rate                               : 23.976 fpsColor space                              : YUVChroma subsampling                       : 4:2:0Bit depth                                : 8 bitsScan type                                : ProgressiveBits/(Pixel*Frame)                       : 0.338Stream size                              : 11.0 GiB (86%)Writing library                          : x264 core 142Encoding settings                        : cabac=1 / ref=1 / deblock=1:-1:-1 / analyse=0x3:0 / me=hex / subme=7/ psy=0 / mixed_ref=0 / me_range=16 / chroma_me=1 / trellis=0 / 8x8dct=1 / cqm=0 / deadzone=21,11 / fast_pskip=1 / chroma_qp_offset=0 / threads=8 / lookahead_threads=2 / sliced_threads=0 / nr=0 / decimate=1 / interlaced=0 / bluray_compat=0 / constrained_intra=0 / bframes=3 / b_pyramid=0 / b_adapt=1 / b_bias=0 / direct=1 / weightb=1 / open_gop=0 / weightp=0 / keyint=24 / keyint_min=13 / scenecut=40 / intra_refresh=0 / rc=abr / mbtree=0 / bitrate=16800 / ratetol=1.0 / qcomp=0.60 / qpmin=0 / qpmax=69 / qpstep=4 / ip_ratio=1.40 / pb_ratio=1.30 / aq=1:1.00Default                                  : YesForced                                   : NoColor primaries                          : BT.709-5, BT.1361, IEC 61966-2-4, SMPTE RP177Transfer characteristics                 : BT.709-5, BT.1361Matrix coefficients                      : BT.709-5, BT.1361, IEC 61966-2-4 709, SMPTE RP177

Audio #1ID                                       : 2Format                                   : AC-3Format/Info                              : Audio Coding 3Mode extension                           : CM (complete main)Codec ID                                 : A_AC3Duration                                 : 1h 37mnBit rate mode                            : ConstantBit rate                                 : 640 KbpsChannel(s)                               : 6 channelsChannel positions                        : Front: L C R, Side: L R, LFESampling rate                            : 48.0 KHzBit depth                                : 16 bitsCompression mode                         : LossyStream size                              : 446 MiB (3%)Title                                    : Дубляж, Blu-ray CEELanguage                                 : RussianDefault                                  : YesForced                                   : No

Audio #2ID                                       : 3Format                                   : DTSFormat/Info                              : Digital Theater SystemsCodec ID                                 : A_DTSDuration                                 : 1h 37mnBit rate mode                            : ConstantBit rate                                 : 1 510 KbpsChannel(s)                               : 6 channelsChannel positions                        : Front: L C R, Side: L R, LFESampling rate                            : 48.0 KHzBit depth                                : 24 bitsCompression mode                         : LossyStream size                              : 1.03 GiB (8%)Language                                 : EnglishDefault                                  : NoForced                                   : No

Text #1ID                                       : 4Format                                   : PGSMuxing mode                              : zlibCodec ID                                 : S_HDMV/PGSCodec ID/Info                            : The same subtitle format used on BDs/HD-DVDsLanguage                                 : RussianDefault                                  : NoForced                                   : No

Text #2ID                                       : 5Format                                   : PGSMuxing mode                              : zlibCodec ID                                 : S_HDMV/PGSCodec ID/Info                            : The same subtitle format used on BDs/HD-DVDsLanguage                                 : EnglishDefault                                  : NoForced                                   : No

Menu00:00:00.000                             : en:(01)00:00:00:00000:03:00.597                             : en:(02)00:03:00:59700:08:10.948                             : en:(03)00:08:10:94800:14:00.756                             : en:(04)00:14:00:75600:19:10.607                             : en:(05)00:19:10:60700:25:59.057                             : en:(06)00:25:59:05700:33:09.737                             : en:(07)00:33:09:73700:38:30.808                             : en:(08)00:38:30:80800:43:21.140                             : en:(09)00:43:21:14000:46:56.104                             : en:(10)00:46:56:10400:51:11.943                             : en:(11)00:51:11:94300:54:18.797                             : en:(12)00:54:18:79700:58:37.722                             : en:(13)00:58:37:72201:01:58.047                             : en:(14)01:01:58:04701:05:09.989                             : en:(15)01:05:09:98901:09:56.775                             : en:(16)01:09:56:77501:15:40.619                             : en:(17)01:15:40:61901:17:43.659                             : en:(18)01:17:43:65901:25:44.931                             : en:(19)01:25:44:93101:28:38.646                             : en:(20)01:28:38:64601:37:27.842                             : en:(21)01:37:27:842

piratbit.ru

Скачать фильм Малефисента через торрент в хорошем качестве бесплатно HDRip

Раздают: 1 [ 0 KB/s ]
Размер: 2.06 GB | Добавлен: 3 года 1 мес. назад | Торрент скачан:1386 раз
Реклама Дарим 3000 рублей за регистрацию, не упусти свой шанс получить шикарный бонус!!!

15-09-2014 08:23 Малефисента Скачать торрент  

Малефисента / Maleficent«Не верьте сказкам» Год выпуска: 2014Страна: США, ВеликобританияЖанр: фэнтези, семейный, мелодрама, приключенияПродолжительность: 01:37:28Перевод: Дубляж - [Лицензия]Субтитры: Отсутствует Режиссер: Роберт Стромберг / Robert StrombergВ ролях: Анджелина Джоли (Maleficent), Эль Фаннинг (Aurora), Шарлто Копли (Stefan), Лесли Мэнвилл (Flittle), Имелда Стонтон (Knotgrass), Джуно Темпл (Thistletwit), Сэм Райли (Diaval), Брентон Туэйтс (Prince Phillip), Кеннет Крэнэм (King Henry), Сара Флинд (Princess Leila's Handmaiden), Ханна Нью (Queen Leah), Изобель Моллой (Young Maleficent)Описание: Юная волшебница Малефисента вела уединенную жизнь в зачарованном лесу, окруженная сказочными существами, но однажды все изменилось... В её мир вторглись люди, которые принесли с собой разрушение и хаос, и Малефисенте пришлось встать на защиту своих подданных, призвав на помощь могущественные тёмные силы. В пылу борьбы Малефисента наложила страшное заклятие на новорожденную дочь короля, прекрасную Аврору. Но, наблюдая за тем, как растет маленькая принцесса, Малефисента начинает сомневаться в правильности своего поступка - ведь, возможно, именно Аврора может вдохнуть новую жизнь в волшебное лесное царство.Рейтинг: Бюджет: $180 000 000MPAA: PG - Рекомендуется присутствие родителейКачество: HDRipФормат: AVIВидео кодек:XviDАудио кодек:AC3Видео: XviD, 720x304 (2.35:1), 2106 kbps, 23,976 fps, 0,401 bppАудио №1: AC3 / 5.1 / 48 kHz / 448 kbps / 16 bitАудио №2: AC3 / 5.1 / 48 kHz / 448 kbps / 16 bit GeneralComplete name : D:\Users\_KaisiK_\Bitcomet\КИНО\Malefisenta.2014.D.HDRip.2100.ExKinoRay.aviFormat : AVIFormat/Info : Audio Video InterleaveFormat profile : OpenDMLFile size : 2.06 GiBDuration : 1h 37mnOverall bit rate : 3 021 KbpsWriting application : VirtualDubMod 1.5.10.2 (build 2540/release)Writing library : VirtualDubMod build 2540/releaseCopyright : ExKinoRay

VideoID : 0Format : MPEG-4 VisualFormat profile : Advanced [email protected] settings, BVOP : 1Format settings, QPel : NoFormat settings, GMC : No warppointsFormat settings, Matrix : CustomCodec ID : XVIDCodec ID/Hint : XviDDuration : 1h 37mnBit rate : 2 107 KbpsWidth : 720 pixelsHeight : 304 pixelsDisplay aspect ratio : 2.35:1Frame rate : 23.976 fpsColor space : YUVChroma subsampling : 4:2:0Bit depth : 8 bitsScan type : ProgressiveCompression mode : LossyBits/(Pixel*Frame) : 0.401Stream size : 1.43 GiB (70%)Writing library : XviD 1.2.1 (UTC 2008-12-04)

Audio #1ID : 1Format : AC-3Format/Info : Audio Coding 3Mode extension : CM (complete main)Codec ID : 2000Duration : 1h 37mnBit rate mode : ConstantBit rate : 448 KbpsChannel(s) : 6 channelsChannel positions : Front: L C R, Side: L R, LFESampling rate : 48.0 KHzBit depth : 16 bitsCompression mode : LossyStream size : 312 MiB (15%)Alignment : Split accross interleavesInterleave, duration : 42 ms (1.00 video frame)Interleave, preload duration : 500 ms

Audio #2ID : 2Format : AC-3Format/Info : Audio Coding 3Mode extension : CM (complete main)Codec ID : 2000Duration : 1h 37mnBit rate mode : ConstantBit rate : 448 KbpsChannel(s) : 6 channelsChannel positions : Front: L C R, Side: L R, LFESampling rate : 48.0 KHzBit depth : 16 bitsCompression mode : LossyStream size : 312 MiB (15%)Alignment : Split accross interleavesInterleave, duration : 42 ms (1.00 video frame)Interleave, preload duration : 500 ms

[/code]

Скачать Малефисента через торрент http://i5.imageban.ru/out/2014/09/15/b28c3a0ae9e7c4a573e953ab899a53eb.jpg Скачать фильм Малефисента через торрент бесплантно в хорошем качестве Описание: Юная волшебница Малефисента вела уединенную жизнь в зачарованном лесу, окруженная сказочными существами, но однажды все ... 2014-09-15 08:23 9.9 10 16

Loading...

Loading...

Рекламный пират

Дорогой пользователь! Огромная просьба, поблагодарите релизера, оцените раздачу и оставьте свои комментарий, если Вы скачали Малефисента через торрент бесплатно! Внесите свою лепту в развитие PiratBit!

Комментировать посты могут только пользователи прошедшие не сложную регистрацию

Малефисента через торрент Скачать бесплатно Малефисента Малефисента скачать торрент Малефисента смотреть онлайн Cкачать фильм Малефисента бесплатно Малефисента скачать торрент в хорошем качестве Малефисента смотреть онлайн бесплатно в хорошем качестве

Вы не можете начинать темыВы не можете отвечать на сообщенияВы не можете редактировать свои сообщенияВы не можете удалять свои сообщенияВы не можете голосовать в опросахВы не можете прикреплять файлы к сообщениямВы можете скачивать файлы

piratbit.ru


Смотрите также