Скачать мальчишник в вегасе 2 скачать торрент в хорошем качестве


Мальчишник 2: Из Вегаса в Бангкок 2011

www.kinovit.net

Название: Мальчишник 2: Из Вегаса в Бангкок / The Hangover Part II (2011) HDRip | КПК
Качество видео: HDRip
Перевод: Дублированное [лицензия]
Видео: MPEG-4 AVC, 320x240, 24.000 fps, 256 Kbps
Аудио: AAC LC, 48.0 KHz, 2 channels, 128 Kbps
Скачать

Загрузка начнется в течение 5 сек.

283.11 MB

Название: Мальчишник 2: Из Вегаса в Бангкок / The Hangover Part II (2011) BDRemux 1080p
Качество видео: BDRemux 1080p
Перевод: Профессиональный (полное дублирование)
Видео: 19,5 Mbps / 1920x1080 / 23.976 fps / 16:9 / L4.1Идентификатор : 1
Аудио: Русский AC3 / 640 kbps / 48 kHzАнглийский AC3 / 640 kbps / 48 kHzИдентификатор : 2Идентификатор : 6
Скачать

Загрузка начнется в течение 5 сек.

15.10 GB

Название: Мальчишник 2: Из Вегаса в Бангкок / The Hangover Part II (2011) BDRip 1080p
Качество видео: BDRip (источник: Blu-ray Disc)
Перевод: Дублированный + Украинский + Оригинал
Видео: x264 1920x800 (2,40:1), 23.976 fps, 8983 kbps
Аудио: AC-3, 6 ch, 640 kbps (Rus)AC-3, 6 ch, 640 kbps (Ukr)AC-3, 6 ch, 640 kbps (Eng)
Скачать

Загрузка начнется в течение 5 сек.

7.75 GB

Название: Мальчишник 2: Из Вегаса в Бангкок / The Hangover Part II (2011) BDRip-AVC | iPad | Лицензия
Качество видео: BDRip / 576p
Перевод: Дублированный
Формат видео: MP4 (контейнер m4v)
Видео: H.264/AVC 1024x426 (2.40:1) at 23.976 fps, AVC at 2426 kbps avg, 0.232 bit/pixel
Аудио: английская
Скачать

Загрузка начнется в течение 5 сек.

2.01 GB

Название: Мальчишник 2: Из Вегаса в Бангкок / The Hangover Part II (2011) HDRip от Scarabey | Лицензия
Качество видео: HDRip
Перевод: Профессиональный (дублированный)
Видео: 720x304 (2.37:1), 23.976 fps, XviD build 50 ~1584 kbps avg, 0.30 bit/pixel
Аудио: 48 kHz, AC3 Dolby Digital, 3/2 (L,C,R,l,r) + LFE ch, ~448.00 kbps avg
Скачать

Загрузка начнется в течение 5 сек.

1.45 GB

Название: Мальчишник 2: Из Вегаса в Бангкок / The Hangover Part II (2011) BDRip 1080p
Качество видео: BDRip 1080p
Перевод: Дубляж
Видео: h364 1920x800, 5691 Kbps, 23.976 fps
Аудио: 48 kHz, AC3, 6c, 448 kbps
Скачать

Загрузка начнется в течение 5 сек.

4.36 GB

Название: Мальчишник 2: Из Вегаса в Бангкок / The Hangover Part II (2011) DVDRip | КПК от Generalfilm
Качество видео: DVDRip | КПК
Перевод: Профессиональный (полное дублирование)
Формат видео: x264
Видео: mp4, размер кадра: 480x208, битрейт: 400 кб/с
Аудио: кодек: AAC LC 2.0, битрейт: 101 кб/с
Скачать

Загрузка начнется в течение 5 сек.

367.27 MB

Название: Мальчишник 2: Из Вегаса в Бангкок / The Hangover Part II (2011) DVD9 | Лицензия
Качество видео: DVD9 R5
Формат видео: DVD Video
Видео: PAL 16x9 (720х576) VBR ~ 5604 kbps, Auto Letterboxed
Аудио: 48 kHz, Dolby AC3 5.1 384 kbps Английский48 kHz, Dolby AC3 5,1 384 kbps Чешский48 kHz, Dolby AC3 5.1 384 kbps Русский48 kHz, Dolby AC3 5.1 384 kbps Украинский48 kHz, Dolby AC3 2.0 192 kbps Английский (комментарий)
Скачать

Загрузка начнется в течение 5 сек.

5.12 GB

Название: Мальчишник 2: Из Вегаса в Бангкок / The Hangover Part II (2011) BDRip-AVC
Качество видео: BDRip (AVC)
Перевод: Дублированный (Лицензия, Blu-ray)
Видео: MPEG-4 AVC, 2090 Кбит/с, 1280x536, 23.976 кадр/с
Аудио: Русский / Украинский (AC3, 6 ch, 448 Кбит/c, 48,0 КГц), английский (AC3, 2 ch, 192 Кбит/c, 48,0 КГц)
Скачать

Загрузка начнется в течение 5 сек.

2.26 GB

Название: Мальчишник 2: Из Вегаса в Бангкок / The Hangover Part II (2011) BDRip 720p | Лицензия Blu-ray
Качество видео: BDRip (AVC)
Перевод: Дублированный (Лицензия, Blu-ray)
Видео: MPEG-4 AVC, 4632 Кбит/с, 1280x536, 23.976 кадр/с
Аудио: Русский / Украинский (AC3, 6 ch, 448 Кбит/c, 48,0 КГц), английский (AC3, 2 ch, 192 Кбит/c, 48,0 КГц)
Скачать

Загрузка начнется в течение 5 сек.

4.07 GB

Название: Мальчишник 2: Из Вегаса в Бангкок / The Hangover Part II (2011) HDRip-AVC от potroks | Лицензия
Качество видео: HDRip-AVC
Перевод: Профессиональный (полное дублирование) лицензия (Blu-Ray CEE)
Видео: H.264 1056x440 (2,40:1), 23,976 кадр/сек, 1655 Кбит/сек, 0.149 bit/pixel
Аудио: AC3, 6 ch., 48 kHz, ~384.00 kbps (RUS/ENG)
Скачать

Загрузка начнется в течение 5 сек.

1.72 GB

Название: Мальчишник 2: Из Вегаса в Бангкок / The Hangover Part II (2011) BDRip-AVC
Качество видео: BDRip (AVC)
Перевод: Дублированный (Лицензия, Blu-ray)
Видео: MPEG-4 AVC, 3359 Кбит/с, 1152x480, 23.976 кадр/с
Аудио: Русский / Украинский (AC3, 6 ch, 448 Кбит/c, 48,0 КГц), английский (AC3, 2 ch, 192 Кбит/c, 48,0 КГц)
Скачать

Загрузка начнется в течение 5 сек.

3.16 GB

Название: Мальчишник 2: Из Вегаса в Бангкок / The Hangover Part II (2011) BDRip от HQCLUB
Качество видео: BDRip (источник: / Blu-Ray Disc / 1080p)
Перевод: Профессиональный (полное дублирование) BD CEE + Оригинальная звуковая дорожка + Профессиональный (полное дублирование) Украинский отдельно на narod.ru
Формат видео: AVI
Видео: 720x304 (2.37:1), 23.976 fps, XviD build 64 ~2166 kbps avg, 0.41 bit/pixel
Аудио: 48 kHz, AC3, 3/2 (L,C,R,l,r) + LFE ch, ~448.00 kbps avg (RUS)48 kHz, AC3, 3/2 (L,C,R,l,r) + LFE ch, ~448.00 kbps avg (ENG)48 kHz, AC3, 3/2 (L,C,R,l,r) + LFE ch, ~448.00 kbps avg (UKR) отдельно на narod.ru
Скачать

Загрузка начнется в течение 5 сек.

2.18 GB

Название: Мальчишник 2: Из Вегаса в Бангкок / The Hangover Part II (2011) Blu-Ray
Качество видео: Blu-Ray (1080p)
Перевод: Дублированный
Видео: MPEG-4 AVC, 19.95 Мбит/с, 1920x1080, 23.976 кадр/с
Аудио: Русский, украинский (AC3, 6 ch, 640 Кбит/с) / Английский (DTS-HD MA, 6 ch, 4002 Кбит/с), (AC3, 6 ch, 640 Кбит/с) / Чешский, французский, немецкий, венгерский, польский, испанский (AC3, 6 ch, 640 Кбит/с) / Турецкий (AC3, 2 ch, 192 Кбит/с)
Скачать

Загрузка начнется в течение 5 сек.

30.42 GB

Название: Мальчишник 2: Из Вегаса в Бангкок / The Hangover Part II (2011) BDRip от HQ-ViDEO | Лицензия
Качество видео: BDRip (Source: Blu-Ray @ СHDBits)
Перевод: Русский дублированный (Лицензия CEE) + Оригинальная дорожка (Английская) + Украинская дорожка (отдельно)
Видео: XviD / 720 x 304 / 2.37:1 / 2287 kbps / 23,976 fps
Аудио: Русский / AC3 Dolby Digital / 48 KHz / 384 kbps / 3/2 (L,C,R,l,r) + LFE chАнглийский / AC3 Dolby Digital / 48 KHz / 384 kbps / 3/2 (L,C,R,l,r) + LFE chУкраинский / AC3 Dolby Digital / 48 KHz / 384 kbps / 3/2 (L,C,R,l,r) + LFE ch | narod.ru
Скачать

Загрузка начнется в течение 5 сек.

2.19 GB

Название: Мальчишник 2: Из Вегаса в Бангкок / The Hangover Part II (2011) BDRip-AVC от HQ-ViDEO | Лицензия
Качество видео: BDRip-AVC (Source: Blu-Ray @ СHDBits)
Перевод: Русский дублированный (Лицензия CEE) + Оригинальная дорожка (Английская) + Украинская дорожка (отдельно)
Видео: H.264 / 1032 x 430 / 2.40:1 / 2300 kbps / 23,976 fps
Аудио: Русский / AC3 Dolby Digital / 48 KHz / 384 kbps / 3/2 (L,C,R,l,r) + LFE chАнглийский / AC3 Dolby Digital / 48 KHz / 384 kbps / 3/2 (L,C,R,l,r) + LFE chУкраинский / AC3 Dolby Digital / 48 KHz / 384 kbps / 3/2 (L,C,R,l,r) + LFE ch | narod.ru
Скачать

Загрузка начнется в течение 5 сек.

2.18 GB

Название: Мальчишник 2: Из Вегаса в Бангкок / The Hangover Part II (2011) BDRip от HELLYWOOD | Лицензия
Качество видео: BDRip (источник: /Blu-ray Disc /1080p)
Перевод: Профессиональный (полное дублирование)
Формат видео: AVI
Видео: 720x304 (2.37:1), 23.976 fps, XviD build 65, 2295 kbps avg, 0.44 bit/pixel
Аудио: 48 kHz, AC3 Dolby Digital, 3/2 (L,C,R,l,r) + LFE ch, ~384 kbps|DUB|48 kHz, AC3 Dolby Digital, 3/2 (L,C,R,l,r) + LFE ch, ~384 kbps|ENG|
Скачать

Загрузка начнется в течение 5 сек.

2.18 GB

Название: Мальчишник 2: Из Вегаса в Бангкок / The Hangover Part II (2011) BDRip 720p
Качество видео: BDRip 720p
Формат видео: MKV
Видео: 1280x536p (2.35:1), 23.976 fps, 4632 Kbps
Аудио: AC3 5.1, 48.0 KHz, 448 KbpsDTS 5.1, 48.0 KHz, 1510 KbpsMediaInfoGeneral
Скачать

Загрузка начнется в течение 5 сек.

4.69 GB

Название: Мальчишник 2: Из Вегаса в Бангкок / The Hangover Part II (2011) BDRip 1080p
Качество видео: BDRip 1080p
Формат видео: MKV
Видео: MPEG-4 AVC, 9 246 Kbps, 1920x800, 23.976 кадр/с
Аудио: AC3 5.1, 48 kHz, 448 kbps, 16-bitDTS 5.1, 48 kHz, 1510 kbps, 24-bitMediaInfoКод
Скачать

Загрузка начнется в течение 5 сек.

7.97 GB

Название: Мальчишник 2: Из Вегаса в Бангкок / The Hangover Part II (2011) Blu-Ray Remux
Перевод: Дублированный
Видео: MPEG-4 AVC, 19.9 Мбит/с, 1920x1080, 23.976 кадр/с
Аудио: Русский, AC3, 6 ch, 384 Кбит/сАнглийский, DTS-HD MA, 6 ch, 4002 Кбит/с
Скачать

Загрузка начнется в течение 5 сек.

18.42 GB

Название: Мальчишник 2: Из Вегаса в Бангкок / The Hangover Part II (2011) BDRip [720p] от HELLYWOOD
Качество видео: BDRip
Перевод: Профессиональный (полное дублирование)
Формат видео: MKV
Видео: AVC, 1280x536 (2.35:1), 23.976 fps, 4632 Kbps
Аудио: AC3, 48.0 KHz, 6 ch, ~448 kbps,|Дубляж|AC3, 48.0 KHz, 6 ch, ~448 kbps,|Оригинал|
Скачать

Загрузка начнется в течение 5 сек.

3.93 GB

Название: Мальчишник 2: Из Вегаса в Бангкок / The Hangover Part II (2011) HDRip | Лицензия
Качество видео: HDRip
Перевод: Профессиональный (полное дублирование) [лицензия]
Формат видео: AVI
Видео: 1971 Кбит/сек, 720 x 304 (2.368) at 23.976 fps
Аудио: AC-3 at 448 Кбит/сек, 6 канала(ов), 48,0 КГц | Russian |
Скачать

Загрузка начнется в течение 5 сек.

2.05 GB

Название: Мальчишник 2: Из Вегаса в Бангкок / The Hangover Part II (2011) HDRip
Качество видео: HDRip [Рип с BDRip 720p]
Формат видео: AVI (XviD)
Видео: 1468 kb/s, 720x304
Аудио: AC3, 448 kb/s (6 ch)
Скачать

Загрузка начнется в течение 5 сек.

1.37 GB

Название: Мальчишник 2: Из Вегаса в Бангкок / The Hangover Part II (2011) BDRip 720p от R.G. GoldenShara
Качество видео: BDRip [720p]
Перевод: Дублированное [чистый звук]
Видео: 1280x528, 2610 Кбит/сек, 23,976 кадр/сек, AVC, x264, 2,40:1, 0.161 Бит/[Пиксели*Кадры], 2pass
Аудио: AC-3, 448 Кбит/сек, 6 канала(ов), 48,0 КГц
Скачать

Загрузка начнется в течение 5 сек.

2.18 GB

Название: Мальчишник 2: Из Вегаса в Бангкок / The Hangover Part II (2011) BDRip 1080p от R.G. GoldenShara
Качество видео: BDRip [1080p]
Перевод: Дублированное [чистый звук]
Видео: 1920x800, 5694 Кбит/сек, 23,976 кадр/сек, AVC, x264, 2,40:1, 0.155 Бит/[Пиксели*Кадры], 2pass
Аудио: AC-3, 448 Кбит/сек, 6 канала(ов), 48,0 КГц
Скачать

Загрузка начнется в течение 5 сек.

4.37 GB

Название: Мальчишник 2: Из Вегаса в Бангкок / The Hangover Part II (2011) HDRip | Лицензия
Качество видео: HDRip [Larceny]
Формат видео: AVI (XviD)
Видео: 813 kb/s, 640х272
Аудио: MP3, 128 kb/s (2 ch)
Скачать

Загрузка начнется в течение 5 сек.

691.76 MB

rutor.org :: Мальчишник 2: Из Вегаса в Бангкок / The Hangover Part II (2011) BDRemux 1080p ::: Скачать торрент

main-rutor.org

Информация о фильмеСтрана: СШАЖанр: комедияГод выпуска: 2011Режиссёр: Тодд ФиллипсВ ролях: Брэдли Купер, Эд Хелмс, Зак Галифианакис, Майк Тайсон, Джастин Барта, Кен Жонг, Пол Джаматти, Джефри Тэмбор, Мэйсон С. Ли, Джеми Чун

Описание: В продолжении культовой комедии «Мальчишник в Вегасе» четверо друзей Фил, Стю, Алан и Даг отправляются в экзотический Тайланд на свадьбу Стю. После безумного мальчишника в Лас-Вегасе, они решают не испытывать судьбу во второй раз, а потому в Бангкоке планируют очень спокойное и безопасное празднество. Но как обычно, все идет совсем не по плану… Что происходит в Вегасе, остается в Вегасе. Но то, что происходит в Бангкоке — это просто настоящее безумие!

Продолжительность: 01:41:48Перевод: Профессиональный (полное дублирование)

ФайлКачество: BDRemux 1080pКонтейнер: MKVВидео: 19,5 Mbps / 1920x1080 / 23.976 fps / 16:9 / L4.1Аудио 1: Русский AC3 / 640 kbps / 48 kHzАудио 2: Английский AC3 / 640 kbps / 48 kHzCубтитры 1: Русские (форсированные)Cубтитры 2: Русские (из Blu-ray)Cубтитры 3: АнглийскиеМеню: 12

Media Info

Общее Формат : Matroska Версия формата : Version 4 / Version 2 Размер файла : 15,1 Гбайт Продолжительность : 1 ч. 41 м. Режим общего битрейта : Переменный Общий поток : 21,2 Мбит/сек Название фильма : -Talian- Дата кодирования : UTC 2013-06-11 13:38:04 Программа кодирования : mkvmerge v6.2.0 ('Promised Land') built on Apr 28 2013 12:22:01 Библиотека кодирования : libebml v1.3.0 + libmatroska v1.4.0

Видео Идентификатор : 1 Формат : AVC Формат/Информация : Advanced Video Codec Профиль формата : [email protected] Параметр CABAC формата : Да Параметр ReFrames формата : 2 кадра Параметр GOP формата : M=1, N=10 Идентификатор кодека : V_MPEG4/ISO/AVC Продолжительность : 1 ч. 41 м. Вид битрейта : Переменный Битрейт : 19,5 Мбит/сек Ширина : 1920 пикселей Высота : 1080 пикселей Соотношение сторон : 16:9 Режим частоты кадров : Постоянный Частота кадров : 23,976 кадра/сек Цветовое пространство : YUV Субдискретизация насыщенности : 4:2:0 Битовая глубина : 8 бит Тип развёртки : Прогрессивная Бит/(Пиксели*Кадры) : 0.393 Размер потока : 13,9 Гбайт (92%) Заголовок : The Hangover Part II 2011 BluRay REMUX 1080p Язык : English Default : Нет Forced : Нет

Аудио #1 Идентификатор : 2 Формат : AC-3 Формат/Информация : Audio Coding 3 Расширение режима : CM (complete main) Параметр Endianness формата : Big Идентификатор кодека : A_AC3 Продолжительность : 1 ч. 41 м. Вид битрейта : Постоянный Битрейт : 640 Кбит/сек Каналы : 6 каналов Расположение каналов : Front: L C R, Side: L R, LFE Частота : 48,0 КГц Битовая глубина : 16 бит Метод сжатия : С потерями Размер потока : 466 Мбайт (3%) Заголовок : DUB-DUB-Blu-ray Язык : Russian Default : Да Forced : Нет

Аудио #2 Идентификатор : 6 Формат : AC-3 Формат/Информация : Audio Coding 3 Расширение режима : CM (complete main) Параметр Endianness формата : Big Идентификатор кодека : A_AC3 Продолжительность : 1 ч. 41 м. Вид битрейта : Постоянный Битрейт : 640 Кбит/сек Каналы : 6 каналов Расположение каналов : Front: L C R, Side: L R, LFE Частота : 48,0 КГц Битовая глубина : 16 бит Метод сжатия : С потерями Размер потока : 466 Мбайт (3%) Заголовок : Eng Язык : English Default : Нет Forced : Нет

Текст #1 Идентификатор : 3 Формат : UTF-8 Идентификатор кодека : S_TEXT/UTF8 Идентификатор кодека/Информация : UTF-8 Plain Text Заголовок : Sub-forced Язык : Russian Default : Да Forced : Нет

Текст #2 Идентификатор : 4 Формат : UTF-8 Идентификатор кодека : S_TEXT/UTF8 Идентификатор кодека/Информация : UTF-8 Plain Text Заголовок : Sub Язык : Russian Default : Нет Forced : Нет

Текст #3 Идентификатор : 5 Формат : UTF-8 Идентификатор кодека : S_TEXT/UTF8 Идентификатор кодека/Информация : UTF-8 Plain Text Заголовок : Sub Язык : English Default : Нет Forced : Нет

Меню 00:00:00.000 : :00:00:00.000 00:09:00.081 : :00:09:00.081 00:17:02.813 : :00:17:02.813 00:24:20.542 : :00:24:20.542 00:34:00.413 : :00:34:00.413 00:44:21.993 : :00:44:21.993 00:54:58.545 : :00:54:58.545 01:04:56.267 : :01:04:56.267 01:13:42.918 : :01:13:42.918 01:23:35.302 : :01:23:35.302 01:33:01.576 : :01:33:01.576 01:37:07.113 : :01:37:07.113

.:Предыдущая раздача:.

Из Вегаса в Бангкок через торрент в хорошем качестве бесплатно BDRip лицензия

piratbit.ru

Размер: 1.37 GB | Добавлен: 5 лет 11 мес. назад | Торрент скачан:4417 раз
Реклама Дарим 3000 рублей за регистрацию, не упусти свой шанс получить шикарный бонус!!!

17-11-2011 01:14 Мальчишник 2: Из Вегаса в Бангкок Скачать торрент  

Мальчишник 2: Из Вегаса в Бангкок / The Hangover Part II Год выпуска: 2011Страна: США / Warner Bros. Pictures, Legendary Pictures, Green Hat FilmsЖанр: комедияПродолжительность: 01:41:48Перевод: Профессиональный (полное дублирование) [Лицензия]

Режиссер: Тодд ФиллипсПродюссер: Дэниэл Голдберг, Тодд Филлипс, Скотт БудникСценарий: Крэйг Мазин, Скот Армстронг, Тодд Филлипс

Бюджет: $80 000 000Премьера в мире: 25 мая 2011Премьера (РФ): 2 июня 2011, «Каро-Премьер» Релиз на DVD: Декабрь 2011, «CP-Digital» Релиз на Blu-Ray: Декабрь 2011, «CP-Digital»

В ролях: Брэдли Купер, Эд Хелмс, Зак Галифианакис, Майк Тайсон, Джастин Барта, Кен Жонг, Пол Джаматти, Джефри Тэмбор, Мэйсон С. Ли, Джеми Чунг

Описание: В продолжении культовой комедии «Мальчишник в Вегасе» четверо друзей Фил, Стю, Алан и Даг отправляются в экзотический Тайланд на свадьбу Стю. После безумного мальчишника в Лас-Вегасе, они решают не испытывать судьбу во второй раз, а потому в Бангкоке планируют очень спокойное и безопасное празднество. Но как обычно, все идет совсем не по плану… Что происходит в Вегасе, остается в Вегасе. Но то, что происходит в Бангкоке — это просто настоящее безумие

Качество: BDRip [Рип с BDRip 1080p]Формат: AVIВидео кодек: XviDАудио кодек: AC3Видео: 720x304 (2.37:1), 23 fps, XviD build 50 ~1470 kbps avg, 0.29 bit/pixelАудио: 48 kHz, AC3 Dolby Digital, 3/2 (L,C,R,l,r) + LFE ch, ~448 kbps

Скачать Мальчишник 2: Из Вегаса в Бангкок через торрент http://i29.fastpic.ru/big/2011/1117/98/92b3326ccda7ef520808f23254cc9798.png Скачать фильм Мальчишник 2: Из Вегаса в Бангкок через торрент бесплантно в хорошем качестве Описание: В продолжении культовой комедии «Мальчишник в Вегасе» четверо друзей Фил, Стю, Алан и Даг отправляются в экзотический Тайланд на ... 2011-11-17 01:28 9.6 10 51

Loading...

Loading...

Последний раз редактировалось: coc900 (2017-06-15 17:16), всего редактировалось 1 раз

Рекламный пират

20-11-2011 09:00 Мальчишник 2: Из Вегаса в Бангкок Скачать торрент  

Товарищи говорят, что второй фильм повтор первого, с небольшими изменениями. Значит должно понравиться...

21-11-2011 19:42 Мальчишник 2: Из Вегаса в Бангкок Скачать торрент  

Пару раз улыбнулся, и ВСЁ! Нет искры в фильме... Разочарован... С натяжкой - средне.

22-11-2011 13:46 Мальчишник 2: Из Вегаса в Бангкок Скачать торрент  

это похоже на гриб ШИИТАКИ))))

22-11-2011 19:36 Мальчишник 2: Из Вегаса в Бангкок Скачать торрент  

Весь прикол фильма - что он повторяет почти первый! В начале и гововорит гл. герой Купера, что дубль два! С удовольствием посмотрел! Только для настоящих мужиков! Спасибо!

22-11-2011 19:55 Мальчишник 2: Из Вегаса в Бангкок Скачать торрент  

slavapapik писал(а):

Весь прикол фильма - что он повторяет почти первый! В начале и гововорит гл. герой Купера, что дубль два! С удовольствием посмотрел! Только для настоящих мужиков! Спасибо!

Вы фильм внимательно смотрели??? Настоящих мужиков блин...

26-03-2012 05:47 Мальчишник 2: Из Вегаса в Бангкок Скачать торрент  

12-07-2013 05:28 Мальчишник 2: Из Вегаса в Бангкок Скачать торрент  

Офигенный фильм.Что вам не понрвилось?Все в стиле первого.В этом и есть вся фишка фильма!!!

Дорогой пользователь! Огромная просьба, поблагодарите релизера, оцените раздачу и оставьте свои комментарий, если Вы скачали Мальчишник 2: Из Вегаса в Бангкок через торрент бесплатно! Внесите свою лепту в развитие PiratBit!

Комментировать посты могут только пользователи прошедшие не сложную регистрацию

Мальчишник 2: Из Вегаса в Бангкок через торрент Скачать бесплатно Мальчишник 2: Из Вегаса в Бангкок Мальчишник 2: Из Вегаса в Бангкок скачать торрент Мальчишник 2: Из Вегаса в Бангкок смотреть онлайн Cкачать фильм Мальчишник 2: Из Вегаса в Бангкок бесплатно Мальчишник 2: Из Вегаса в Бангкок скачать торрент в хорошем качестве Мальчишник 2: Из Вегаса в Бангкок смотреть онлайн бесплатно в хорошем качестве

Вы не можете начинать темыВы не можете отвечать на сообщенияВы не можете редактировать свои сообщенияВы не можете удалять свои сообщенияВы не можете голосовать в опросахВы не можете прикреплять файлы к сообщениямВы можете скачивать файлы

Из Вегаса в Бангкок через торрент в хорошем качестве бесплатно BDRip-AVC

piratbit.ru

Раздают: 1 [ 0 KB/s ]
Размер: 2.18 GB | Добавлен: 5 лет 10 мес. назад | Торрент скачан:2454 раза
Реклама Дарим 3000 рублей за регистрацию, не упусти свой шанс получить шикарный бонус!!!

26-11-2011 15:36 Мальчишник 2: Из Вегаса в Бангкок Скачать торрент  

The Hangover Part IIМальчишник 2: Из Вегаса в Бангкок Информация о фильме
  • Год выхода: 2011
  • Продолжительность: 01:41:48
  • Перевод: Профессиональный (полное дублирование) |Лицензия|
  • Субтитры: Русские (форсированные + полные), английские
  • Режиссер: Тодд Филлипс / Todd Phillips
  • В ролях: Брэдли Купер / Bradley Cooper, Эд Хелмс / Ed Helms, Зак Галифианакис / Zach Galifianakis, Джастин Барта / Justin Bartha, Кен Жонг / Ken Jeong, Пол Джаматти / Paul Giamatti, Майк Тайсон / Mike Tyson, Джефри Тэмбор / Jeffrey Tambor, Мэйсон Ли / Mason Lee, Джеми Чунг / Jamie Chung
Описание
  • В продолжении культовой комедии «Мальчишник в Вегасе» четверо друзей Фил, Стю, Алан и Даг отправляются в экзотический Тайланд на свадьбу Стю. После безумного мальчишника в Лас-Вегасе, они решают не испытывать судьбу во второй раз, а потому в Бангкоке планируют очень спокойное и безопасное празднество. Но как обычно, все идет совсем не по плану… Что происходит в Вегасе, остается в Вегасе. Но то, что происходит в Бангкоке - это просто настоящее безумие!
Технические данные
  • Качество: BDRip-AVC
  • Видео кодек: H.264
  • Аудио кодек: АС3
  • Видео: H.264 / 1032 x 430 / 2.40:1 / 2300 kbps / 23,976 fps
  • Аудио 1: Русский Дублированный; AC3 Dolby Digital / 48 KHz / 384 kbps / 3/2 (L,C,R,l,r) + LFE ch
  • Аудио 2: Английский; AC3 Dolby Digital / 48 KHz / 384 kbps / 3/2 (L,C,R,l,r) + LFE ch
Бюджет: $80 000 000 | Cборы в мире: $581 464 305 , , Постер и оформление от RaSSeLBeatZ Скачать Мальчишник 2: Из Вегаса в Бангкок через торрент http://i30.fastpic.ru/big/2011/1126/74/4842985b35568653887edc01f3ab6274.png Скачать фильм Мальчишник 2: Из Вегаса в Бангкок через торрент бесплантно в хорошем качестве ОписаниеВ продолжении культовой комедии «Мальчишник в Вегасе» четверо друзей Фил, Стю, Алан и Даг отправляются в экзотический Тайланд на ... 2011-11-26 15:36 9.6 10 20

Loading...

Loading...

Последний раз редактировалось: RaSSeLBeatZ (2011-11-26 15:51), всего редактировалось 1 раз

Рекламный пират

26-11-2011 15:50 Мальчишник 2: Из Вегаса в Бангкок Скачать торрент  

Оформление чёткое, спасибо за фильм!

26-11-2011 15:53 Мальчишник 2: Из Вегаса в Бангкок Скачать торрент  

sasoru8Cпасибо! но раздам завтра, ухожу спать)

АртёмБелоусов

26-11-2011 18:47 Мальчишник 2: Из Вегаса в Бангкок Скачать торрент  

Встаю на раздачу

30-11-2011 18:01 Мальчишник 2: Из Вегаса в Бангкок Скачать торрент  

Дайте скорости..... !!!!!

26-02-2012 19:46 Мальчишник 2: Из Вегаса в Бангкок Скачать торрент  

Охренительный фильм, ещё раз задумался о том , что бы бросить пить ))) А то тоже схвачу как нить)))

02-09-2012 11:15 Мальчишник 2: Из Вегаса в Бангкок Скачать торрент  

самый тупой фильм

24-06-2013 15:30 Мальчишник 2: Из Вегаса в Бангкок Скачать торрент  

NSX писал(а):

самый тупой фильм

Ты тупой,сасай лалка,азаза :D

Дорогой пользователь! Огромная просьба, поблагодарите релизера, оцените раздачу и оставьте свои комментарий, если Вы скачали Мальчишник 2: Из Вегаса в Бангкок через торрент бесплатно! Внесите свою лепту в развитие PiratBit!

Комментировать посты могут только пользователи прошедшие не сложную регистрацию

Мальчишник 2: Из Вегаса в Бангкок через торрент Скачать бесплатно Мальчишник 2: Из Вегаса в Бангкок Мальчишник 2: Из Вегаса в Бангкок скачать торрент Мальчишник 2: Из Вегаса в Бангкок смотреть онлайн Cкачать фильм Мальчишник 2: Из Вегаса в Бангкок бесплатно Мальчишник 2: Из Вегаса в Бангкок скачать торрент в хорошем качестве Мальчишник 2: Из Вегаса в Бангкок смотреть онлайн бесплатно в хорошем качестве

Вы не можете начинать темыВы не можете отвечать на сообщенияВы не можете редактировать свои сообщенияВы не можете удалять свои сообщенияВы не можете голосовать в опросахВы не можете прикреплять файлы к сообщениямВы можете скачивать файлы

Скачать фильм Мальчишник в Вегасе через торрент в хорошем качестве бесплатно BDRip

piratbit.ru

Раздают: 1 [ 0 KB/s ]
Размер: 2.19 GB | Добавлен: 6 лет 7 мес. назад | Торрент скачан:3581 раз
Реклама Дарим 3000 рублей за регистрацию, не упусти свой шанс получить шикарный бонус!!!

01-03-2011 13:57 Мальчишник в Вегасе Скачать торрент  

Мальчишник в Вегасе / The Hangover[Unrated] Год выпуска: 2009Жанр: Комедия, КриминалПродолжительность: 01:47:53Перевод: Дублированный, Многоголосый, ОдноголосыйОписание фильма:Они мечтали устроить незабываемый мальчишник в Вегасе.Но теперь им действительно необходимо вспомнить, что именно происходило! Чей ребенок сидит в шкафу шикарного номера отеля? Как в ванную попал тигр? Почему у одного из них нет зуба? И, самое главное, куда делся жених?!То, что парни вытворяли на вечеринке, не идет ни в какое сравнение с тем, что им придется сделать на трезвую голову, когда они будут шаг за шагом восстанавливать события прошлой ночи, каждый раз — новая зацепка.Режиссер: Тодд Филлипс / Todd PhillipsАктеры: Брэдли Купер (Phil Wenneck), Эд Хелмс (Stu Price), Зак Галифианакис (Alan Garner), Джастин Барта (Doug Billings), Хэзер Грэм (Jade), Александра Баррези (Tracy Garner), Джефри Тэмбор (Sid Garner), Кен Жонг (Mr. Chow), Рэйчел Харрис (Melissa), Майк Тайсон (играет самого себя), Майк Еппс (Black Doug), Джернард Буркс (Leonard), Роб Риггл (Officer Franklin), Клио Кинг (Officer Garden), Брайан Коллен (Eddie Palermo), Мэтт Уолш (Dr. Valsh), Йен Энтони Дэйл (Chow's #1), Майкл Ли (Chow's #2), Сондра Карри (Linda Garner), Джиллиан Вигмэн (Stephanie)Дублёры: Пётр Иващенко (Phil Wenneck), Борис Шувалов (Stu Price), Вячеслав Гришечкин (Alan Garner), Александр Рахленко (Doug Billings), Татьяна Шитова (Jade), Диомид Виноградов (Mr. Chow), Рамиля Искандер (Melissa), Сергей Степанченко (Mike Tyson), Дмитрий Курта (Black Doug), Андрей Ярославцев (Leonard), Александр Комлев (Eddie Palermo), Борис Токарев (Dr. Valsh)Дата мировой премьеры: 30 мая 2009Дата российской премьеры: 11 июня 2009 Качество: BDRipИсходник: BDRip 1080Автор Рипа: Wegas DigitalФормат: AVIВидео кодек: XviDАудио кодек: AC3Видео: 720x304 (2.37:1), 23.976 fps, XviD MPEG-4, 1744 kbps, 0.34 bit/pixelАудио #1: Русский AC3 5.1, 48 KHz, 384 kbps - Профессиональный (Дублированный) - на места без перевода наложен Профессиональный (многоголосый, закадровый) от КиноманииАудио #2: Русский 48 kHz, AC3, 3/2 (L,C,R,l,r) + LFE ch, 384.00 kbps avg - Профессиональный (многоголосый, закадровый) (Киномания)Аудио #3: Русский: 48 kHz, AC3, 3/2 (L,C,R,l,r) + LFE ch, 384.00 kbps avg - Авторский (Одноголосый) (Юрий Немахов)Размер: 2240.10 Mb (1/2 DVD-R)Релиз: uwZv3KiuvrUСемпл: Скачать Мальчишник в Вегасе через торрент http://i17.fastpic.ru/big/2011/0301/cc/fa67ab2a61d0adcc3c7d3521694d3fcc.jpg Скачать фильм Мальчишник в Вегасе через торрент бесплантно в хорошем качестве Описание фильма:Они мечтали устроить незабываемый мальчишник в Вегасе.Но теперь им действительно необходимо вспомнить, что именно ... 2011-03-01 13:57 9.7 10 33

Loading...

Loading...

Последний раз редактировалось: Wegas Digital (2011-03-02 06:49), всего редактировалось 1 раз

Рекламный пират

01-03-2011 17:19 Мальчишник в Вегасе Скачать торрент  

Wegas Digitalопределитесь с качеством HDRip или BDRip.

30-10-2011 04:30 Мальчишник в Вегасе Скачать торрент  

Спасибо автору!

16-11-2011 17:16 Мальчишник в Вегасе Скачать торрент  

Хороший фильмец.

12-05-2012 09:34 Мальчишник в Вегасе Скачать торрент  

Где скорость?!!!!!!!!!!!!!!!!!!!!!!!!!!!!!!!!!!!!!!!!!!!!!!!!!!

22-06-2013 17:18 Мальчишник в Вегасе Скачать торрент  

Дорогой пользователь! Огромная просьба, поблагодарите релизера, оцените раздачу и оставьте свои комментарий, если Вы скачали Мальчишник в Вегасе через торрент бесплатно! Внесите свою лепту в развитие PiratBit!

Комментировать посты могут только пользователи прошедшие не сложную регистрацию

Мальчишник в Вегасе через торрент Скачать бесплатно Мальчишник в Вегасе Мальчишник в Вегасе скачать торрент Мальчишник в Вегасе смотреть онлайн Cкачать фильм Мальчишник в Вегасе бесплатно Мальчишник в Вегасе скачать торрент в хорошем качестве Мальчишник в Вегасе смотреть онлайн бесплатно в хорошем качестве

Вы не можете начинать темыВы не можете отвечать на сообщенияВы не можете редактировать свои сообщенияВы не можете удалять свои сообщенияВы не можете голосовать в опросахВы не можете прикреплять файлы к сообщениямВы можете скачивать файлы

rutor.org :: Мальчишник в Вегасе / The Hangover (2009) BDRip 1080p

main-rutor.org

Информация о фильмеНазвание: Мальчишник в ВегасеОригинальное название: The HangoverГод выхода: 2009Жанр: комедия, криминалРежиссер: Тодд ФиллипсВ ролях: Брэдли Купер, Эд Хелмс, Зэк Галифианакис, Джастин Барта, Хизер Грэм, Александра Баррези, Джеффри Тэмбор, Кен Жонг, Рэйчел Харрис, Майк Тайсон, Майк Еппс, Джернард Буркс, Роб Риггл, Клео Кинг, Bryan Callen, Мэтт Уолш, Йен Энтони Дэйл, Майкл Ли, Сондра Карри, Джиллиан Вигмэн, Натали Фэй

О фильме: Они мечтали устроить незабываемый мальчишник в Вегасе. Но теперь им действительно необходимо вспомнить, что именно происходило! Чей ребенок сидит в шкафу шикарного номера отеля? Как в ванную попал тигр? Почему у одного из них нет зуба? И, самое главное, куда делся жених?! То, что парни вытворяли на вечеринке, не идет ни в какое сравнение с тем, что им придется сделать на трезвую голову, когда они будут шаг за шагом восстанавливать события прошлой ночи, каждый раз - новая зацепка.

Выпущено: СШАСтудия: Warner Bros.Продолжительность: 01:39:46Перевод: Дублированный + Украинский + Оригинал

ФайлКодек: x264Качество: BDRip (источник: Blu-ray Disc)Видео: 1920x800 (2,40:1), 23.976 fps, 9207 kbpsАудио #1: AC-3, 6 ch, 640 kbps (Rus)Аудио #2: AC-3, 6 ch, 640 kbps (Ukr)Аудио #3: AC-3, 6 ch, 640 kbps (Eng)Субтитры: Русские (Forced), Русские, АнглийскиеСкачать: семпл

MI

Общее Уникальный идентификатор : 180534312009221021226269928309049091827 (0x87D1A4CCB882DD62A088A5151E1966F3) Полное имя : E:The Hangover.2009.BDRip.1080p.Rus.Ukr.Eng.mkv Формат : Matroska Версия формата : Version 4 / Version 2 Размер файла : 7,75 Гбайт Продолжительность : 1 ч. 39 м. Общий поток : 11,1 Мбит/сек Название фильма : Мальчишник в Вегасе / The Hangover (2009) | Theatrical Cut Дата кодирования : UTC 2013-06-09 09:56:40 Программа кодирования : mkvmerge v6.2.0 ('Promised Land') built on Apr 28 2013 12:22:01 Библиотека кодирования : libebml v1.3.0 + libmatroska v1.4.0

Видео Идентификатор : 1 Формат : AVC Формат/Информация : Advanced Video Codec Профиль формата : [email protected] Параметр CABAC формата : Да Параметр ReFrames формата : 5 кадров Идентификатор кодека : V_MPEG4/ISO/AVC Продолжительность : 1 ч. 39 м. Битрейт : 9207 Кбит/сек Ширина : 1920 пикселей Высота : 800 пикселей Соотношение сторон : 2,40:1 Режим частоты кадров : Постоянный Частота кадров : 23,976 кадра/сек Цветовое пространство : YUV Субдискретизация насыщенности : 4:2:0 Битовая глубина : 8 бит Тип развёртки : Прогрессивная Бит/(Пиксели*Кадры) : 0.250 Размер потока : 6,26 Гбайт (81%) Заголовок : Release by N1NT3NDO Библиотека кодирования : x264 core 130 r2273 b3065e6 Настройки программы : cabac=1 / ref=5 / deblock=1:-3:-3 / analyse=0x3:0x113 / me=umh / subme=10 / psy=1 / psy_rd=1.00:0.00 / mixed_ref=1 / me_range=32 / chroma_me=1 / trellis=2 / 8x8dct=1 / cqm=0 / deadzone=21,11 / fast_pskip=0 / chroma_qp_offset=-2 / threads=12 / lookahead_threads=1 / sliced_threads=0 / nr=0 / decimate=0 / interlaced=0 / bluray_compat=0 / constrained_intra=0 / bframes=6 / b_pyramid=2 / b_adapt=2 / b_bias=0 / direct=2 / weightb=1 / open_gop=0 / weightp=2 / keyint=240 / keyint_min=23 / scenecut=40 / intra_refresh=0 / rc_lookahead=80 / rc=2pass / mbtree=1 / bitrate=9207 / ratetol=1.0 / qcomp=0.60 / qpmin=0 / qpmax=69 / qpstep=4 / cplxblur=20.0 / qblur=0.5 / vbv_maxrate=70000 / vbv_bufsize=100000 / nal_hrd=none / ip_ratio=1.40 / aq=2:0.70 Язык : English Default : Да Forced : Нет

Аудио #1 Идентификатор : 2 Формат : AC-3 Формат/Информация : Audio Coding 3 Расширение режима : CM (complete main) Параметр Endianness формата : Big Идентификатор кодека : A_AC3 Продолжительность : 1 ч. 39 м. Вид битрейта : Постоянный Битрейт : 640 Кбит/сек Каналы : 6 каналов Расположение каналов : Front: L C R, Side: L R, LFE Частота : 48,0 КГц Битовая глубина : 16 бит Метод сжатия : С потерями Размер потока : 457 Мбайт (6%) Заголовок : Rus Язык : Russian Default : Да Forced : Нет

Аудио #2 Идентификатор : 3 Формат : AC-3 Формат/Информация : Audio Coding 3 Расширение режима : CM (complete main) Параметр Endianness формата : Big Идентификатор кодека : A_AC3 Продолжительность : 1 ч. 39 м. Вид битрейта : Постоянный Битрейт : 640 Кбит/сек Каналы : 6 каналов Расположение каналов : Front: L C R, Side: L R, LFE Частота : 48,0 КГц Битовая глубина : 16 бит Метод сжатия : С потерями Размер потока : 457 Мбайт (6%) Заголовок : Ukr Язык : Ukrainian Default : Нет Forced : Нет

Аудио #3 Идентификатор : 4 Формат : AC-3 Формат/Информация : Audio Coding 3 Расширение режима : CM (complete main) Параметр Endianness формата : Big Идентификатор кодека : A_AC3 Продолжительность : 1 ч. 39 м. Вид битрейта : Постоянный Битрейт : 640 Кбит/сек Каналы : 6 каналов Расположение каналов : Front: L C R, Side: L R, LFE Частота : 48,0 КГц Битовая глубина : 16 бит Метод сжатия : С потерями Размер потока : 457 Мбайт (6%) Заголовок : Eng Язык : English Default : Нет Forced : Нет

Текст #1 Идентификатор : 5 Формат : UTF-8 Идентификатор кодека : S_TEXT/UTF8 Идентификатор кодека/Информация : UTF-8 Plain Text Заголовок : Rus (Forced) Язык : Russian Default : Нет Forced : Нет

Текст #2 Идентификатор : 6 Формат : UTF-8 Идентификатор кодека : S_TEXT/UTF8 Идентификатор кодека/Информация : UTF-8 Plain Text Заголовок : Rus Язык : Russian Default : Нет Forced : Нет

Текст #3 Идентификатор : 7 Формат : UTF-8 Идентификатор кодека : S_TEXT/UTF8 Идентификатор кодека/Информация : UTF-8 Plain Text Заголовок : Eng Язык : English Default : Нет Forced : Нет

Меню 00:00:00.000 : en:00:00:00.000 00:03:43.390 : en:00:03:43.390 00:09:15.013 : en:00:09:15.013 00:14:10.183 : en:00:14:10.183 00:18:59.221 : en:00:18:59.221 00:23:19.023 : en:00:23:19.023 00:28:59.696 : en:00:28:59.696 00:34:03.375 : en:00:34:03.375 00:37:03.596 : en:00:37:03.596 00:39:53.975 : en:00:39:53.975 00:42:51.194 : en:00:42:51.194 00:47:34.977 : en:00:47:34.977 00:52:08.375 : en:00:52:08.375 00:57:48.173 : en:00:57:48.173 01:01:08.999 : en:01:01:08.999 01:05:28.258 : en:01:05:28.258 01:07:57.991 : en:01:07:57.991 01:12:32.431 : en:01:12:32.431 01:16:24.079 : en:01:16:24.079 01:22:40.164 : en:01:22:40.164 01:25:50.062 : en:01:25:50.062 01:30:21.625 : en:01:30:21.625 01:32:48.188 : en:01:32:48.188 01:36:00.880 : en:01:36:00.880


Смотрите также