Скачать крик совы 2013 через торрент бесплатно в хорошем качестве


Крик совы / Особые полномочия скачать сериал торрент 2013 -

hokit.ru

Коротко о сериале "Крик совы" - Действие фильма разворачивается в 1957 году. В центре сюжета - происходящие в маленьком городке загадочные преступления, расследованием которых занимаются милиционер Балахнин и сотрудник КГБ Митин.

Добавлена 10 серия из 10.

Крик совы

Другое название: Особые полномочия
Сериал выпущен: 2013
Страна (кинокомпания): кинокомпании "Щука"
Режиссер: Олег Погодин
Сценарий сериала: Вячеслав Рогожкин, Олег Погодин
Продюсер сериала: Олег Газе, Дмитрий Черкасов, Лилия Ковалевич
Оператор: Владимир Башта
Композитор: Александр Соколов (IV)
Художники: Алим Матвейчук
Монтаж:
Жанр сериала: детектив, криминал
Премьера (мир):
премьера (Pоссия): 5 ноября 2013 (Первый канал)
продолжительность
В главных ролях:
Сергей Пускепалис
Андрей Мерзликин
Мария Миронова (II)
Евгений Дятлов
Андрей Феськов
Анатолий Васильев (II)
Игорь Савочкин
Серафима Низовская
и другие ...

 

Cериал Крик совы скачать торрент - новинка кино 2013

Скачать файлы .torrent Крик совы (сериал)

на сайте Вы можете получить ссылку на торрент файлы или скачать сами торрент файлы, в которых находится информация о местонахождении фильмов, сериалов у пользователей.

В сериале "Крик совы" - милиционер Балахнин и сотрудник КГБ Митин занимаются расследованием загадочных преступлений, происходящих в маленьком городке



Параметры: 21.01.2017 [2013, Детектив, криминал, WEB-DL (720p)], 9,73 Гб -

Формат: WEB-DL (720p), MKV, AVC, AC3, размер файла: 9,73 ГбВидео: 1280x714, AVC - ~ 2500 Кбит/сАудио: Русский: AC3, 2 канала, 192 Кбит/сПеревод (озвучивание):

Параметры: 21.01.2017 WEB-DL 720p от ExKinoRay, 999 Мб

Формат: WEB-DL (720p), MKV, AVC, АС3, размер файла: 999 МбВидео: , AVC -Аудио: АС3, 2 канала, ~192 Кбит/сПеревод (озвучивание): Не требуется

Параметры: 27.08.2015 [2013, детектив, DVDRip], 7,25 Гб -

Формат: DVDRip / 3 x DVD9 R5 - лицензионные диски от компании "CINEMA Prestige", AVI, XviD, AC3, размер файла: 7,25 ГбВидео: 720x400, XviD - ~ 1800 Кбит/сАудио: Русский: AC3, 2 канала, 192 Кбит/сПеревод (озвучивание): Не требуется

Параметры: 23.08.2015 HDTVRip-AVC, 5,92 Гб

Формат: HDTVRip-AVC (HDTV 1080i), MKV, AVC, AC3, размер файла: 5,92 ГбВидео: 1024x576, AVC -Аудио: AC3, 2 канала, 192 Кбит/сПеревод (озвучивание):

Параметры: 22.08.2015 WEB-DLRip от Generalfilm, 4,36 Гб

Формат: WEB-DLRip, AVI, XviD, MP3, размер файла: 4,36 ГбВидео: 688x384, XviD - ~1060 Кбит/сАудио: MP3, 2 канала, 128 Кбит/сПеревод (озвучивание): Не требуется

Параметры: 18.10.2014 7,25 Гб -

Формат: DVDRip-AVC / 3 x DVD9 R5 - лицензионные диски от компании "CINEMA Prestige", AVI, AVC, AC3, размер файла: 7,25 ГбВидео: [email protected], AVC - AVC ~ 1809 Кбит/сАудио: Русский: AC3, 2 канала, 192 Кбит/сПеревод (озвучивание): Не требуется

Параметры: 22.09.2014 DVDRip-AVC от New-Team | лицензия, 746 Мб

Формат: DVDRip-AVC / 3 x DVD9 R5 - лицензионные диски от компании "CINEMA Prestige", MKV, AVC, AC3, размер файла: 746 МбВидео: [email protected], AVC - AVC ~ 1809 Кбит/сАудио: Русский: AC3, 2 канала, 192 Кбит/сПеревод (озвучивание): Не требуется

Параметры: 29.11.2013 WEB-DL 1080p, 15,20 Гб

Формат: WEB-DL (1080p), MKV, AVC, AC3, размер файла: 15,20 ГбВидео: 1920x1080, AVC - ~ 4000 Кбит/сАудио: AC3, 2 канала, 192 Кбит/сПеревод (озвучивание):

Параметры: 14.11.2013 HDTVRip, 4,12 Гб

Формат: HDTVRip [исх. HDTV 1080i] (AVI), XviD, MPEG Layer 3, размер файла: 4,12 ГбВидео: 720x400, XviD - MPEG-4 ~1010 Кбит/сАудио: MPEG Layer 3, 2 канала, 128 Кбит/сПеревод (озвучивание): оригинал

Как скачать (докачать) одну серию из торрента

1. В броузере (для uTorrent, FlashGet)

- Нажмите кнопку скачать (или на ссылку), в окне для сохранения (запуска) файла проверьте выбранную программу по умолчанию (uTorrent, FlashGet и пр.), нажмите "Открыть" - После закачки торрент файла на экране откроется окно, которое содержит список серий в пакете - Если списка нет, то найдите кнопку (две галочки вниз), которая включает сведения о торренте в расширенном режиме - Вы можете путем установки или снятия галочки у каждой серии выбрать необходимые Вам серии для скачивания - Список может быть большим, поэтому прокрутите окно до конца списка или вначале отмените выбор всех, а затем выбирайте нужные серии по одной.

2. В самом торрент-клиенте

- Остановите скачивание - Удалите старый торрент файл, ранее принятые серии удалять не следует - Скачайте новый торрент файл и запустите его для скачивания, указав при этом ту папку, где уже находятся ранее принятые серии - Торрент клиент проведет хеширование файлов и докачает недостающие - Если ранее принятые серии уже удалены, то необходимо снять галочки у соответствующих серий при запуске нового торрента

Скачать Крик совы, сериал бесплатно скачать торрент, детектив, криминал, новинка кино

 

Скачать торрент Крик совы [01-10 из 10] (2013) WEB-DLRip от Generalfilm

Информация о фильмеОригинальное название: Крик совы / Особые полномочияГод выпуска: 2013Жанр: ДетективРежиссер: Олег ПогодинВ ролях: Сергей Пускепалис, Андрей Мерзликин, Мария Миронова, Евгений Дятлов, Андрей Феськов, Анатолий Васильев, Игорь Савочкин, Серафима Низовская, Василий Бочкарёв, Сергей Юшкевич, Наталья Высочанская, Александр Марушев, Евгения Дмитриева, Эрнст Романов, Эра Зиганшина, Евгений Ганелин, Николай Харитонов, Владимир Матвеев, Анна Уколова, Олег Алмазов, Александр Нестеров, Наталья Данилова, Аркадий Волгин, Сергей Барковский, Наталья Ткаченко, Анатолий Горин, Геннадий Алимпиев и др.

О фильме: 1957 год, время хрущевской "оттепели". Городок Остров Псковской области сотрясает череда дерзких преступлений. При стычке бандитов с правоохранительными органами тяжело ранен один из лучших сотрудников местной милиции – капитан Юрий Сиротин. В бессознательном состоянии он разговаривает по-немецки, что приводит к служебному расследованию, которое поручено вести сотруднику областного ГБ Ивану Митину. В Острове ему приходится взаимодействовать с майором милиции Андреем Балахниным – лучшим другом подозреваемого Сиротина. Балахнин и Митин, не слишком симпатизирующие друг другу, влюбляются в одну женщину – работницу почты Нину. Расследование вытаскивает на свет множество мучительных тайн, которыми пронизана жизнь обитателей Острова со времен войны.

Страна: РоссияСтудия: "Щука", ФАБЕРЖЕ ПРОДАКШНПродолжительность: 10 х ~00:51:30Перевод: Не требуется

ФайлФормат: aviКачество: WEB-DLRipВидео: XviD, 688x384, ~1060 kbps, 25.000 fpsАудио: MP3, 44.1 KHz, 2 ch, 128 Kbps

МедиаИнфо

Общее Полное имя : D:Kinozal.TVKrik.Sovy.2013.XviD.WEB-DLRip.by.GeneralFilm1.seriya.avi Формат : AVI Формат/Информация : Audio Video Interleave Размер файла : 446 Мбайт Продолжительность : 51 м. Общий поток : 1198 Кбит/сек Программа кодирования : VirtualDubMod 1.5.10.3 | www.virtualdub-fr.org || (build 2550/release) Библиотека кодирования : VirtualDubMod build 2550/release

Видео Идентификатор : 0 Формат : MPEG-4 Visual Профиль формата : Advanced [email protected] Параметр BVOP формата : 1 Параметр QPel формата : Нет Параметр GMC формата : Без точки перехода Параметр матрицы формата : Выборочная Идентификатор кодека : XVID Идентификатор кодека/Подсказка : XviD Продолжительность : 51 м. Битрейт : 1061 Кбит/сек Ширина : 688 пикселей Высота : 384 пикселя Соотношение сторон : 16:9 Частота кадров : 25,000 кадров/сек Цветовое пространство : YUV Субдискретизация насыщенности : 4:2:0 Битовая глубина : 8 бит Тип развёртки : Прогрессивная Метод сжатия : С потерями Бит/(Пиксели*Кадры) : 0.161 Размер потока : 394 Мбайт (89%) Библиотека кодирования : XviD 73

Аудио Идентификатор : 1 Формат : MPEG Audio Версия формата : Version 1 Профиль формата : Layer 3 Идентификатор кодека : 55 Идентификатор кодека/Подсказка : MP3 Продолжительность : 51 м. Вид битрейта : Постоянный Битрейт : 128 Кбит/сек Каналы : 2 канала Частота : 44,1 КГц Метод сжатия : С потерями Размер потока : 47,6 Мбайт (11%) Выравнивание : Разделение по промежуткам Продолжительность промежутка : 40 мс. (1,00 видеокадр) Время предзагрузки промежутка : 500 мс. Библиотека кодирования : LAME3.99r Настройки программы : -m s -V 4 -q 0 -lowpass 17 -b 128

Релиз от:

krutor.org

Крик совы (сериал, 2013) скачать торрент -

hotkit.ru

Коротко о сериале "Крик совы" - Действие фильма разворачивается в 1957 году. В центре сюжета - происходящие в маленьком городке загадочные преступления, расследованием которых занимаются милиционер Балахнин и сотрудник КГБ Митин.

Добавлена 10 серия из 10.

Крик совы

Другое название: Особые полномочия
Сериал выпущен: 2013
Страна (кинокомпания): кинокомпании "Щука"
Pежиссер: Олег Погодин
Сценарий сериала: Вячеслав Рогожкин, Олег Погодин
Продюсер сериала: Олег Газе, Дмитрий Черкасов, Лилия Ковалевич
Оператор: Владимир Башта
Композитор: Александр Соколов (IV)
Художники: Алим Матвейчук
Монтаж:
Жанр сериала: детектив, криминал
Премьера (мир):
премьера (Pоссия): 5 ноября 2013 (Первый канал)
продолжительность
В главных ролях:
Сергей Пускепалис
Андрей Мерзликин
Мария Миронова (II)
Евгений Дятлов
Андрей Феськов
Анатолий Васильев (II)
Игорь Савочкин
Серафима Низовская
и другие ...

 

Скачать сериал Крик совы - новинка кино 2013

В сериале "Крик совы" - милиционер Балахнин и сотрудник КГБ Митин занимаются расследованием загадочных преступлений, происходящих в маленьком городке

Скачать файлы .torrent Крик совы (сериал)

на сайте Вы можете получить ссылку на торрент файлы или скачать сами торрент файлы, в которых находится информация о местонахождении фильмов, сериалов у пользователей.

--> Всего 9

Параметры: 21.01.2017 [2013, Детектив, криминал, WEB-DL (720p)], 9,73 Гб -

Формат: WEB-DL (720p), MKV, AVC, AC3, размер файла: 9,73 ГбВидео: 1280x714, AVC - ~ 2500 Кбит/сАудио: Русский: AC3, 2 канала, 192 Кбит/сПеревод (озвучивание):

Параметры: 21.01.2017 WEB-DL 720p от ExKinoRay, 999 Мб

Формат: WEB-DL (720p), MKV, AVC, АС3, размер файла: 999 МбВидео: , AVC -Аудио: АС3, 2 канала, ~192 Кбит/сПеревод (озвучивание): Не требуется

Параметры: 27.08.2015 [2013, детектив, DVDRip], 7,25 Гб -

Формат: DVDRip / 3 x DVD9 R5 - лицензионные диски от компании "CINEMA Prestige", AVI, XviD, AC3, размер файла: 7,25 ГбВидео: 720x400, XviD - ~ 1800 Кбит/сАудио: Русский: AC3, 2 канала, 192 Кбит/сПеревод (озвучивание): Не требуется

Параметры: 23.08.2015 HDTVRip-AVC, 5,92 Гб

Формат: HDTVRip-AVC (HDTV 1080i), MKV, AVC, AC3, размер файла: 5,92 ГбВидео: 1024x576, AVC -Аудио: AC3, 2 канала, 192 Кбит/сПеревод (озвучивание):

Параметры: 22.08.2015 WEB-DLRip от Generalfilm, 4,36 Гб

Формат: WEB-DLRip, AVI, XviD, MP3, размер файла: 4,36 ГбВидео: 688x384, XviD - ~1060 Кбит/сАудио: MP3, 2 канала, 128 Кбит/сПеревод (озвучивание): Не требуется

Параметры: 18.10.2014 7,25 Гб -

Формат: DVDRip-AVC / 3 x DVD9 R5 - лицензионные диски от компании "CINEMA Prestige", AVI, AVC, AC3, размер файла: 7,25 ГбВидео: [email protected], AVC - AVC ~ 1809 Кбит/сАудио: Русский: AC3, 2 канала, 192 Кбит/сПеревод (озвучивание): Не требуется

Параметры: 22.09.2014 DVDRip-AVC от New-Team | лицензия, 746 Мб

Формат: DVDRip-AVC / 3 x DVD9 R5 - лицензионные диски от компании "CINEMA Prestige", MKV, AVC, AC3, размер файла: 746 МбВидео: [email protected], AVC - AVC ~ 1809 Кбит/сАудио: Русский: AC3, 2 канала, 192 Кбит/сПеревод (озвучивание): Не требуется

Параметры: 29.11.2013 WEB-DL 1080p, 15,20 Гб

Формат: WEB-DL (1080p), MKV, AVC, AC3, размер файла: 15,20 ГбВидео: 1920x1080, AVC - ~ 4000 Кбит/сАудио: AC3, 2 канала, 192 Кбит/сПеревод (озвучивание):

Параметры: 14.11.2013 HDTVRip, 4,12 Гб

Формат: HDTVRip [исх. HDTV 1080i] (AVI), XviD, MPEG Layer 3, размер файла: 4,12 ГбВидео: 720x400, XviD - MPEG-4 ~1010 Кбит/сАудио: MPEG Layer 3, 2 канала, 128 Кбит/сПеревод (озвучивание): оригинал

Как скачать (докачать) одну серию из торрента

1. В броузере (для uTorrent, FlashGet)

- Нажмите кнопку скачать (или на ссылку), в окне для сохранения (запуска) файла проверьте выбранную программу по умолчанию (uTorrent, FlashGet и пр.), нажмите "Открыть" - После закачки торрент файла на экране откроется окно, которое содержит список серий в пакете - Если списка нет, то найдите кнопку (две галочки вниз), которая включает сведения о торренте в расширенном режиме - Вы можете путем установки или снятия галочки у каждой серии выбрать необходимые Вам серии для скачивания - Список может быть большим, поэтому прокрутите окно до конца списка или вначале отмените выбор всех, а затем выбирайте нужные серии по одной.

2. В самом торрент-клиенте

- Остановите скачивание - Удалите старый торрент файл, ранее принятые серии удалять не следует - Скачайте новый торрент файл и запустите его для скачивания, указав при этом ту папку, где уже находятся ранее принятые серии - Торрент клиент проведет хеширование файлов и докачает недостающие - Если ранее принятые серии уже удалены, то необходимо снять галочки у соответствующих серий при запуске нового торрента

 

Крик совы / Особые полномочия / 10 серий из 10 [2013 SATRip] скачать через торрент

piratbit.ru

Размер: 6.04 GB | Добавлен: 3 года 11 мес. назад | Торрент скачан:3904 раза
Реклама Дарим 3000 рублей за регистрацию, не упусти свой шанс получить шикарный бонус!!!

05-11-2013 14:43 Крик совы Скачать торрент  

Крик совы

Год выпуска: 2013 Страна: РоссияВыпущено: "Щука", ФАБЕРЖЕ ПРОДАКШНЖанр: ДетективПродолжительность: ~10 х 00:51:16Перевод: ОригиналПремьера: 5 ноября 2013 (Первый канал)

Режиссер: Олег ПогодинСценаристы: Вячеслав Рогожкин, Олег ПогодинОператор: Владимир БаштаКомпозитор: Александр Соколов (IV)Художник: Алим МатвейчукПродюсеры: Олег Газе, Дмитрий Черкасов, Лилия Ковалевич

В ролях: Сергей Пускепалис, Андрей Мерзликин, Мария Миронова, Евгений Дятлов, Андрей Феськов, Анатолий Васильев, Игорь Савочкин, Серафима Низовская, Василий Бочкарёв, Сергей Юшкевич, Наталья Высочанская, Александр Марушев, Евгения Дмитриева, Эрнст Романов, Эра Зиганшина, Евгений Ганелин, Николай Харитонов, Владимир Матвеев, Анна Уколова, Олег Алмазов, Александр Нестеров, Наталья Данилова, Аркадий Волгин, Сергей Барковский, Наталья Ткаченко, Анатолий Горин, Геннадий Алимпиев

Описание: 1957 год, время хрущевской "оттепели". Городок Остров Псковской области сотрясает череда дерзких преступлений. При стычке бандитов с правоохранительными органами тяжело ранен один из лучших сотрудников местной милиции – капитан Юрий Сиротин. В бессознательном состоянии он разговаривает по-немецки, что приводит к служебному расследованию, которое поручено вести сотруднику областного ГБ Ивану Митину. В Острове ему приходится взаимодействовать с майором милиции Андреем Балахниным – лучшим другом подозреваемого Сиротина. Балахнин и Митин, не слишком симпатизирующие друг другу, влюбляются в одну женщину – работницу почты Нину. Расследование вытаскивает на свет множество мучительных тайн, которыми пронизана жизнь обитателей Острова со времен войны.

Качество: SATRipФормат: AVIВидео кодек: DivX 5Аудио кодек: MP2Видео: MPEG4, DivX 5, 704x400 (16:9), 25.000 fps, 1 500 Kbps (0.213 bit/pixel)Аудио: MP2, 48.0 KHz, 2 ch, 192 Kbps, CBR

Внимание! Раздача ведётся путём добавления новых серий; при каждом добавлении создётся новый торрент. Чтобы начать докачку новой серии, пользователям необходимо сделать следующее:(1) остановить скачивание,(2) удалить старый торрент у себя из клиента (старые серии удалять не надо),(3) скачать новый торрент и запустить его у себя в клиенте вместо старого, при этом указать клиенту путь в старую папку куда и должно происходить скачивание новых серий.

Ваш клиент при этом должен произвести хеширование (проверку) старой папки (если не производит сам - помогите ему сделать это), и будет докачивать только те серии которых у вас ещё нет. Старые серии при этом не удаляются, а продолжают раздаваться!

Eсли вы уже удалили старые серии, то предотвратить повторную закачку старых серий можно, отжав галочку в соответсвующих местах при запуске нового торрента. По возможности, желательно не удалять старые серии как можно дольше чтобы релизёр не столько продолжал раздавать старые серии, а смог сконцентрироваться на новых.

Формат : AVIФормат/Информация : Audio Video InterleaveРазмер файла : 624 МбайтПродолжительность : 51 м.Общий поток : 1701 Кбит/секПрограмма кодирования : VirtualDubModRus 1.5.10.1 (build 2439/release)Библиотека кодирования : VirtualDubMod build 2439/release

ВидеоИдентификатор : 0Формат : MPEG-4 VisualПараметр BVOP формата : 1Параметр QPel формата : НетПараметр GMC формата : Без точки переходаПараметр матрицы формата : Default (H.263)Режим смешивания : Сжатый битовый потокИдентификатор кодека : DX50Идентификатор кодека/Подсказка : DivX 5Продолжительность : 51 м.Битрейт : 1500 Кбит/секШирина : 704 пикселяВысота : 400 пикселейСоотношение сторон : 16:9Частота кадров : 25,000 кадров/секЦветовое пространство : YUVСубдискретизация насыщенности : 4:2:0Битовая глубина : 8 битТип развёртки : ПрогрессивнаяМетод сжатия : С потерямиБит/(Пиксели*Кадры) : 0.213Размер потока : 550 Мбайт (88%)Библиотека кодирования : DivX 6.8.5 (UTC 2009-08-20)

АудиоИдентификатор : 1Формат : MPEG AudioВерсия формата : Version 1Профиль формата : Layer 2Идентификатор кодека : 50Продолжительность : 51 м.Вид битрейта : ПостоянныйБитрейт : 192 Кбит/секКаналы : 2 каналаЧастота : 48,0 КГцМетод сжатия : С потерямиРазмер потока : 70,4 Мбайт (11%)Выравнивание : Соединение по промежуткамПродолжительность промежутка : 40 мс. (1,00 видеокадр)Время предзагрузки промежутка : 504 мс.

Добавлены 9 и 10 - серии!!! Скачать Крик совы через торрент http://i2.imageban.ru/out/2013/11/11/39ab439d8b61c94bab3ab07e5f072948.png Скачать фильм Крик совы через торрент бесплантно в хорошем качестве Описание: 1957 год, время хрущевской "оттепели". Городок Остров Псковской области сотрясает череда дерзких преступлений. При стычке ... 2013-11-12 14:41 9.6 10 181

Loading...

Loading...

Последний раз редактировалось: Neftannik (2013-11-12 14:41), всего редактировалось 7 раз(а)

Рекламный пират

06-11-2013 20:23 Крик совы Скачать торрент  

А сериал то, неплох.

07-11-2013 16:33 Крик совы Скачать торрент  

Спасибо большое хороший сериал

07-11-2013 16:56 Крик совы Скачать торрент  

Пепел,Убить Сталина теперь Крик совы, вот это да, я понимаю разошлись ребята,что не может не радовать.Так держать...

07-11-2013 19:35 Крик совы Скачать торрент  

А, Юрию Анатольевичу из "Сватов" роль "Вора в законе" не идет. "Котя" - ему больше подходит.

08-11-2013 00:20 Крик совы Скачать торрент  

wind80 писал(а):

Пепел,Убить Сталина теперь Крик совы, вот это да, я понимаю разошлись ребята,что не может не радовать.Так держать...

и Красные горы хороший свежий сериал !!!

08-11-2013 19:09 Крик совы Скачать торрент  

спасибо.жду полной версии.буду на раздачи.

09-11-2013 13:36 Крик совы Скачать торрент  

Спасибо за инфу!)

11-11-2013 15:59 Крик совы Скачать торрент  

Спасибо автору за раздачу!!!! Классный сериал!!!! Постою на раздаче!!!! :hmmm

Pекламный агент PB

12-11-2013 16:26 Крик совы Скачать торрент  

кэп писал(а):

А, Юрию Анатольевичу из "Сватов" роль "Вора в законе" не идет. "Котя" - ему больше подходит.

Сваты - это треш хоум видео для неадекватных домохозяек. По мне Васильев нормально вжился в роль и сыграл достойно

12-11-2013 17:34 Крик совы Скачать торрент  

Достойный сериал!!!

12-11-2013 20:50 Крик совы Скачать торрент  

ща оценим   Оскорбления в чате!, выдал Ворон

12-11-2013 21:06 Крик совы Скачать торрент  

и Красные горы хороший свежий сериал !!! Да спасибо за информацию уже скачал

14-11-2013 18:36 Крик совы Скачать торрент  

Отличный сериал!

17-11-2013 15:09 Крик совы Скачать торрент  

Очень интересный сериал,правда кажется что это не 57 а 47год.

18-11-2013 22:24 Крик совы Скачать торрент  

Красные горы и Пепел, сырые, нет изюминки. Особ.полномочия и Убить Сталина реально шикарные фильмы. Данный фильм очень захватывает тем, что вроде, вот она концовка, нашли гада, а фиг там, только 6-я серия... еще ищут, вроде как опять поймали... 8-я серия, очень завораживает расследование.Но при всех плюсах сериала в целом, концовку смазали на нет, единственный человек, чья судьба нарисована, это персонаж Мерзликина.Ляпов в спешке то же наделали кучу, как маленький пример: 1-я серия, солдат обращается к Старшине, товарищ Сержант:)

22-11-2013 15:09 Крик совы Скачать торрент  

А что в сериале делает Гарри Поттер))))? А так сериал норм, до конца держит в неведении.

Pекламный агент PB

23-11-2013 20:17 Крик совы Скачать торрент  

25-09-2014 15:27 Крик совы Скачать торрент  

Спасибо автору за раздачу!!!! Классный сериал!!!! Постою на раздаче!!

16-12-2014 15:22 Крик совы Скачать торрент  

Фильм хороший... Синдром дракона -тож в копилку..Спасибо за раздачу...актёры молодцы...ХОРОШИЕ фильмы и смотреть приятно

Дорогой пользователь! Огромная просьба, поблагодарите релизера, оцените раздачу и оставьте свои комментарий, если Вы скачали Крик совы через торрент бесплатно! Внесите свою лепту в развитие PiratBit!

Комментировать посты могут только пользователи прошедшие не сложную регистрацию

Крик совы через торрент Скачать бесплатно Крик совы Крик совы скачать торрент Крик совы смотреть онлайн Cкачать фильм Крик совы бесплатно Крик совы скачать торрент в хорошем качестве Крик совы смотреть онлайн бесплатно в хорошем качестве

Вы не можете начинать темыВы не можете отвечать на сообщенияВы не можете редактировать свои сообщенияВы не можете удалять свои сообщенияВы не можете голосовать в опросахВы не можете прикреплять файлы к сообщениямВы можете скачивать файлы


Смотрите также