Скачать коммандос торрент в хорошем качестве


Скачать фильм Коммандос (1985) через торрент

gig-torrent.net

25 июля 2016 11:38 Коммандос / Commando (1985) BDRip 1080p | D, P, P2, A | Режиссёрская версия .torrent   [Информация о файле (нажмите для просмотра)] Перевод: Профессиональный (полное дублирование), "Хлопушка"Перевод: Профессиональный (многоголосый закадровый), R5Перевод: Профессиональный (многоголосый закадровый), КиноманияПеревод: Профессиональный (многоголосый закадровый), ОРТПеревод: Профессиональный (двухголосый закадровый), ПремьерПеревод: Профессиональный (двухголосый закадровый), П. Гланц и И. КоролёваПеревод: Авторский (одноголосый закадровый), Ю. ЖивовПеревод: Авторский (одноголосый закадровый), А. Гаврилов (поздний) + (ранний)Перевод: Авторский (одноголосый закадровый), Д. Пучков (Гоблин)Перевод: Авторский (одноголосый закадровый), В. ГорчаковПеревод: Авторский (одноголосый закадровый), Ю. Товбин (ранний) + (поздний)Перевод: Авторский (одноголосый закадровый), М. ИвановПеревод: Авторский (одноголосый закадровый), Б. ФедоровПеревод: Авторский (одноголосый закадровый), М. ЯроцкийСубтитры: Русские, английскиеКачество: BDRip 1080pФормат: MKVВидео: MPEG4 Video (h364), 1920x1040, 23.976fps, 14.0 MbpsАудио #01: Русский: Dolby AC3, 48000 Hz, 2ch, 192 kbps - Дубляж, ХлопушкаАудио #02: Русский: Dolby AC3, 48000 Hz, 6ch, 448 kbps - Многоголосый закадровый, R5Аудио #03: Русский: Dolby AC3, 48000 Hz, 6ch, 448 kbps - Многоголосый, КиноманияАудио #04: Русский: Dolby AC3, 48000 Hz, 6ch, 448 kbps - Многоголосый, ОРТАудио #05: Русский: Dolby AC3, 48000 Hz, 2ch, 192 kbps - Двухголосый, ПремьерАудио #06: Русский: Dolby AC3, 48000 Hz, 6ch, 448 kbps - Двухголосый, П. Гланц и И. КоролёваАудио #07: Русский: Dolby AC3, 48000 Hz, 6ch, 448 kbps - Одноголосый, Ю. ЖивовАудио #08: Русский: Dolby AC3, 48000 Hz, 6ch, 448 kbps - Одноголосый, А. Гаврилов (поздний)Аудио #09: Русский: Dolby AC3, 48000 Hz, 6ch, 448 kbps - Одноголосый, А. Гаврилов (ранний)Аудио #10: Русский: Dolby AC3, 48000 Hz, 6ch, 448 kbps - Одноголосый, Д. Пучков (Гоблин)Аудио #11: Русский: Dolby AC3, 48000 Hz, 2ch, 192 kbps - Одноголосый, В. ГорчаковАудио #12: Русский: Dolby AC3, 48000 Hz, 2ch, 192 kbps - Одноголосый, Ю. Товбин (ранний)Аудио #13: Русский: Dolby AC3, 48000 Hz, 2ch, 192 kbps - Одноголосый, Ю. Товбин (поздний)Аудио #14: Русский: Dolby AC3, 48000 Hz, 2ch, 192 kbps - Одноголосый, М. ИвановАудио #15: Русский: Dolby AC3, 48000 Hz, 6ch, 448 kbps - Одноголосый, Б. ФедоровАудио #16: Русский: Dolby AC3, 48000 Hz, 6ch, 448 kbps - Одноголосый, М. ЯроцкийАудио #17: Английский: Dolby AC3, 48000 Hz, 6ch, 448 kbps 12,88 Gb 10 3
25 июля 2016 11:37 Коммандос / Commando (1985) BDRip-AVC от NNM-CLUB | Directors Cut | Гаврилов .torrent   [Информация о файле (нажмите для просмотра)] Перевод: Авторский (одноголосый, закадровый)А.ГавриловВидео: AVC, 1024x556 (16:9), 23.976 fps, 2 938 Kbps (0.215 bit/pixel)Аудио: AC-3, 48.0 KHz, 6 ch, 448 Kbps, CBR (Russian)Видео: Идентификатор : 1 Формат : AVC Формат/Информация : Advanced Video Codec Профиль формата : [email protected] Параметр CABAC формата : Да Параметр ReFrames формата : 10 кадров Идентификатор кодека : V_MPEG4/ISO/AVC Продолжительность : 1 ч. 31 м. Битрейт : 2938 Кбит/сек Ширина : 1024 пикселя Высота : 556 пикселей Соотношение сторон : 1,85:1 Режим частоты кадров : Постоянный Частота кадров : 23,976 кадра/сек Цветовое пространство : YUV Субдискретизация насыщенности : 4:2:0 Битовая глубина : 8 бит Тип развёртки : Прогрессивная Бит/(Пиксели*Кадры) : 0.215 Размер потока : 1,84 Гбайт (85%) Библиотека кодирования : x264 core 146 r2538 121396c Настройки программы : cabac=1 / ref=10 / deblock=1:-3:-3 / analyse=0x3:0x133 / me=umh / subme=11 / psy=1 / psy_rd=1.00:0.10 / mixed_ref=1 / me_range=32 / chroma_me=1 / trellis=2 / 8x8dct=1 / cqm=0 / deadzone=21,11 / fast_pskip=0 / chroma_qp_offset=-3 / threads=12 / lookahead_threads=2 / sliced_threads=0 / nr=0 / decimate=0 / interlaced=0 / bluray_compat=0 / constrained_intra=0 / bframes=10 / b_pyramid=2 / b_adapt=2 / b_bias=0 / direct=3 / weightb=1 / open_gop=0 / weightp=2 / keyint=240 / keyint_min=23 / scenecut=40 / intra_refresh=0 / rc=2pass / mbtree=0 / bitrate=2938 / ratetol=1.0 / qcomp=0.60 / qpmin=0 / qpmax=69 / qpstep=4 / cplxblur=20.0 / qblur=0.5 / ip_ratio=1.40 / pb_ratio=1.30 / aq=2:0.70 Default : Да Forced : НетАудио: Идентификатор : 2 Формат : AC-3 Формат/Информация : Audio Coding 3 Расширение режима : CM (complete main) Параметр Endianness формата : Big Идентификатор кодека : A_AC3 Продолжительность : 1 ч. 31 м. Вид битрейта : Постоянный Битрейт : 448 Кбит/сек Каналы : 6 каналов Расположение каналов : Front: L C R, Side: L R, LFE Частота : 48,0 КГц Битовая глубина : 16 бит Метод сжатия : С потерями Задержка видео : 24 мс. Размер потока : 294 Мбайт (13%) Заголовок : Авторский (одноголосый, закадровый) А.Гаврилов Язык : Russian Default : Нет Forced : Нет 2,17 Gb 7 3
25 июля 2016 11:37 Коммандос / Commando (1985) BDRip-AVC от NNM-CLUB | A, P2 | Directors Cut .torrent   [Информация о файле (нажмите для просмотра)] Перевод: Авторский (одноголосый, закадровый)М.Яроцкий, профессиональный (двухголосый, закадровый) П.Гланц и И.КоролёваВидео: AVC, 1024x556 (16:9), 23.976 fps, 2 938 Kbps (0.215 bit/pixel)Аудио #1: AC-3, 48.0 KHz, 6 ch, 448 Kbps, CBR (Russian) - одноголосыйАудио #2: AC-3, 48.0 KHz, 6 ch, 448 Kbps, CBR (Russian) - двухголосыйАудио #3: AC-3, 48.0 KHz, 6 ch, 448 Kbps, CBR (English) - оригиналВидео: Идентификатор : 1 Формат : AVC Формат/Информация : Advanced Video Codec Профиль формата : [email protected] Параметр CABAC формата : Да Параметр ReFrames формата : 10 кадров Идентификатор кодека : V_MPEG4/ISO/AVC Продолжительность : 1 ч. 31 м. Битрейт : 2938 Кбит/сек Ширина : 1024 пикселя Высота : 556 пикселей Соотношение сторон : 1,85:1 Режим частоты кадров : Постоянный Частота кадров : 23,976 кадра/сек Цветовое пространство : YUV Субдискретизация насыщенности : 4:2:0 Битовая глубина : 8 бит Тип развёртки : Прогрессивная Бит/(Пиксели*Кадры) : 0.215 Размер потока : 1,83 Гбайт (67%) Библиотека кодирования : x264 core 146 r2538 121396c Настройки программы : cabac=1 / ref=10 / deblock=1:-3:-3 / analyse=0x3:0x133 / me=umh / subme=11 / psy=1 / psy_rd=1.00:0.10 / mixed_ref=1 / me_range=32 / chroma_me=1 / trellis=2 / 8x8dct=1 / cqm=0 / deadzone=21,11 / fast_pskip=0 / chroma_qp_offset=-3 / threads=12 / lookahead_threads=2 / sliced_threads=0 / nr=0 / decimate=0 / interlaced=0 / bluray_compat=0 / constrained_intra=0 / bframes=10 / b_pyramid=2 / b_adapt=2 / b_bias=0 / direct=3 / weightb=1 / open_gop=0 / weightp=2 / keyint=240 / keyint_min=23 / scenecut=40 / intra_refresh=0 / rc=2pass / mbtree=0 / bitrate=2938 / ratetol=1.0 / qcomp=0.60 / qpmin=0 / qpmax=69 / qpstep=4 / cplxblur=20.0 / qblur=0.5 / ip_ratio=1.40 / pb_ratio=1.30 / aq=2:0.70 Default : Да Forced : НетАудио #1: Идентификатор : 2 Формат : AC-3 Формат/Информация : Audio Coding 3 Расширение режима : CM (complete main) Параметр Endianness формата : Big Идентификатор кодека : A_AC3 Продолжительность : 1 ч. 31 м. Вид битрейта : Постоянный Битрейт : 448 Кбит/сек Каналы : 6 каналов Расположение каналов : Front: L C R, Side: L R, LFE Частота : 48,0 КГц Битовая глубина : 16 бит Метод сжатия : С потерями Размер потока : 294 Мбайт (10%) Заголовок : Авторский (одноголосый, закадровый) М.Яроцкий Язык : Russian Default : Да Forced : НетАудио #2: Идентификатор : 3 Формат : AC-3 Формат/Информация : Audio Coding 3 Расширение режима : CM (complete main) Параметр Endianness формата : Big Идентификатор кодека : A_AC3 Продолжительность : 1 ч. 31 м. Вид битрейта : Постоянный Битрейт : 448 Кбит/сек Каналы : 6 каналов Расположение каналов : Front: L C R, Side: L R, LFE Частота : 48,0 КГц Битовая глубина : 16 бит Метод сжатия : С потерями Задержка видео : 24 мс. Размер потока : 294 Мбайт (10%) Заголовок : Профессиональный (двухголосый, закадровый) П.Гланц и И.Королёва Язык : Russian Default : Нет Forced : НетАудио #3: Идентификатор : 4 Формат : AC-3 Формат/Информация : Audio Coding 3 Расширение режима : CM (complete main) Параметр Endianness формата : Big Идентификатор кодека : A_AC3 Продолжительность : 1 ч. 31 м. Вид битрейта : Постоянный Битрейт : 448 Кбит/сек Каналы : 6 каналов Расположение каналов : Front: L C R, Side: L R, LFE Частота : 48,0 КГц Битовая глубина : 16 бит Метод сжатия : С потерями Размер потока : 294 Мбайт (10%) Заголовок : оригинал Язык : English Default : Нет Forced : Нет 2,75 Gb 7 3
25 июля 2016 11:37 Коммандоc / Commando (1985) BDRip 720p от NNNB | P, P2, A | 60 fps .torrent   [Информация о файле (нажмите для просмотра)] Перевод: Профессиональный (многоголосый, закадровый), Профессиональный (двухголосый, закадровый), Автоский (одноголосый)Качество: BDRip 720p (исходник Blu-ray Disc Remux)Видео: 1280x694, ~11.8 Мбит/сек, 59.940 кадр/сек, AVC, x264, [email protected], 1.85:1, 0.222 Бит/[Пиксели*Кадры]Аудио 1: AC-3, 448 Кбит/сек, 6 канала(ов), 48,0 КГц - Многоголосый закадровый, Киномания / РусскийАудио 2: AC-3, 192 Кбит/сек, 2 канала(ов), 48,0 КГц - Многоголосый закадровый, R5 / РусскийАудио 3: AC-3, 448 Кбит/сек, 6 канала(ов), 48,0 КГц - Многоголосый закадровый, ОРТ / РусскийАудио 4: AC-3, 448 Кбит/сек, 6 канала(ов), 48,0 КГц - Двухголосый закадровый, П. Гланц и И. Королева / РусскийАудио 5: AC-3, 448 Кбит/сек, 6 канала(ов), 48,0 КГц - Одноголосый закадровый, А.Гаврилов / РусскийАудио 6: AC-3, 192 Кбит/сек, 2 канала(ов), 48,0 КГц - Одноголосый закадровый, В. Горчаков / РусскийАудио 7: AC-3, 192 Кбит/сек, 2 канала(ов), 48,0 КГц - Одноголосый закадровый, Ю. Толбин / РусскийАудио 8: AC-3, 448 Кбит/сек, 6 канала(ов), 48,0 КГц - Одноголосый закадровый, Б. Федоров / РусскийАудио 9: AC-3, 448 Кбит/сек, 6 канала(ов), 48,0 КГц - Одноголосый закадровый, Гоблин - Полный Пэ / Русский /Присутствует ненормативная лексикаАудио 10: AC-3, 448 Кбит/сек, 6 канала(ов), 48,0 КГц - Оригинал / АнглийскийСубтитры: Русские | Полные (2 вида), Английские | Полные 9,97 Gb 3 4
25 июля 2016 11:37 Коммандос / Commando (1985) BDRip 1080p | 60 fps .torrent   [Информация о файле (нажмите для просмотра)] Перевод: Профессиональный многоголосыйСубтитры: русские (Полные), английские (Полные)Качество: BDRip 1080p / 60 FPSФормат: MKVВидео: AVC, 1920x1040 (16:9), 14000 kbps, 59,940 fps, 0,114 bppАудио №1: русский / AC3 / 5.1 / 48 kHz / 640 kbps / 16 bit|Многоголосый, закадровый ОРТ| Аудио №2: русский / AC3 / 2.0 / 48 kHz / 192 kbps / 16 bit|Многоголосый, закадровый R5| Аудио №3: русский / AC3 / 5.1 / 48 kHz / 640 kbps / 16 bit|Многоголосый, закадровый Киномания| Аудио №4: английский / AC3 / 5.1 / 48 kHz / 640 kbps / 16 bit 10,18 Gb 3 1
25 июля 2016 11:37 Коммандос / Commando (1985) BDRip 720p by msltel | P, P2, A .torrent   [Информация о файле (нажмите для просмотра)] Качество: BDRip 720pВидео: MPEG-4 AVC, 6177 Kбит/с, 1280x694Аудио 1: русский, 48 kHz, AC3, 6 ch, 448 kbps avg, [Профессиональный многоголосый, Киномания]Аудио 2: русский, 48 kHz, AC3, 6 ch, 448 kbps avg, [Профессиональный двухголосый, Пётр Гланц и Инна Королёва]Аудио 3: русский, 48 kHz, AC3, 6 ch, 448 kbps avg, [Авторский, Дмитрий Пучков (Гоблин)]Аудио 4: русский, 48 kHz, AC3, 6 ch, 448 kbps avg, [Авторский, Андрей Гаврилов]Аудио: русский, 48 kHz, AC3, 6 ch, 448 kbps avg, [Профессиональный многоголосый, OPT]Аудио: русский, 48 kHz, AC3, 2 ch, 192 kbps avg, [Профессиональный многоголосый, R5]Аудио: русский, 48 kHz, DTS, 6 ch, 1509 kbps avg, [Профессиональный многоголосый, Киномания]Аудио: русский, 48 kHz, DTS, 6 ch, 1509 kbps avg, [Профессиональный двухголосый, Пётр Гланц и Инна Королёва]Аудио: русский, 48 kHz, DTS, 6 ch, 1509 kbps avg, [Авторский, Дмитрий Пучков (Гоблин)]Аудио: русский, 48 kHz, DTS, 6 ch, 1509 kbps avg, [Авторский, Андрей Гаврилов]Аудио: русский, 48 kHz, AC3, 6 ch, 448 kbps avg, [Авторский, Борис Фёдоров]Аудио: русский, 48 kHz, AC3, 2 ch, 192 kbps avg, [Авторский, Василий Горчаков]Аудио: русский, 48 kHz, AC3, 2 ch, 192 kbps avg, [Авторский, Юрий Толбин]Аудио: английский, 48 kHz, AC3, 6 ch, 448 kbps avg, [Оригинал]Субтитры: русские (R5)Субтитры: русские (Гоблин)Субтитры: английские (для слабослышащих)Аудио: Формат : DTS Формат/Информация : Digital Theater Systems Режим : 16 Параметр Endianness формата : Big Продолжительность : 1 ч. 30 м. Вид битрейта : Постоянный Битрейт : 1509 Кбит/сек Каналы : 6 каналов Расположение каналов : Front: L C R, Side: L R, LFE Частота : 48,0 КГц Битовая глубина : 24 бит Метод сжатия : С потерями Размер потока : 974 Мбайт (100%)Аудио: Формат : AC-3 Формат/Информация : Audio Coding 3 Расширение режима : CM (complete main) Параметр Endianness формата : Big Продолжительность : 1 ч. 30 м. Вид битрейта : Постоянный Битрейт : 448 Кбит/сек Каналы : 6 каналов Расположение каналов : Front: L C R, Side: L R, LFE Частота : 48,0 КГц Битовая глубина : 16 бит Метод сжатия : С потерями Размер потока : 289 Мбайт (100%)Аудио: Формат : AC-3 Формат/Информация : Audio Coding 3 Расширение режима : CM (complete main) Параметр Endianness формата : Big Продолжительность : 1 ч. 30 м. Вид битрейта : Постоянный Битрейт : 192 Кбит/сек Каналы : 2 канала Расположение каналов : Front: L R Частота : 48,0 КГц Битовая глубина : 16 бит Метод сжатия : С потерями Размер потока : 124 Мбайт (100%)Аудио: Формат : DTS Формат/Информация : Digital Theater Systems Режим : 16 Параметр Endianness формата : Big Продолжительность : 1 ч. 30 м. Вид битрейта : Постоянный Битрейт : 1509 Кбит/сек Каналы : 6 каналов Расположение каналов : Front: L C R, Side: L R, LFE Частота : 48,0 КГц Битовая глубина : 24 бит Метод сжатия : С потерями Размер потока : 974 Мбайт (100%)Аудио: Формат : AC-3 Формат/Информация : Audio Coding 3 Расширение режима : CM (complete main) Параметр Endianness формата : Big Продолжительность : 1 ч. 30 м. Вид битрейта : Постоянный Битрейт : 192 Кбит/сек Каналы : 2 канала Расположение каналов : Front: L R Частота : 48,0 КГц Битовая глубина : 16 бит Метод сжатия : С потерями Размер потока : 124 Мбайт (100%)Видео: Идентификатор : 1 Формат : AVC Формат/Информация : Advanced Video Codec Профиль формата : [email protected] Параметр CABAC формата : Да Параметр ReFrames формата : 9 кадров Идентификатор кодека : V_MPEG4/ISO/AVC Продолжительность : 1 ч. 30 м. Битрейт : 6177 Кбит/сек Ширина : 1280 пикселей Высота : 694 пикселя Соотношение сторон : 1,85:1 Режим частоты кадров : Постоянный Частота кадров : 23,976 кадра/сек Цветовое пространство : YUV Субдискретизация насыщенности : 4:2:0 Битовая глубина : 8 бит Тип развёртки : Прогрессивная Бит/(Пиксели*Кадры) : 0.290 Размер потока : 3,89 Гбайт (76%) Заголовок : BDRip -- STarankov Библиотека кодирования : x264 core 142 r2431 ac76440 Настройки программы : cabac=1 / ref=9 / deblock=1:-1:-1 / analyse=0x3:0x113 / me=umh / subme=10 / psy=1 / psy_rd=1.00:0.15 / mixed_ref=1 / me_range=32 / chroma_me=1 / trellis=2 / 8x8dct=1 / cqm=0 / deadzone=21,11 / fast_pskip=0 / chroma_qp_offset=-3 / threads=6 / lookahead_threads=1 / sliced_threads=0 / nr=0 / decimate=1 / interlaced=0 / bluray_compat=0 / constrained_intra=0 / bframes=8 / b_pyramid=2 / b_adapt=2 / b_bias=0 / direct=1 / weightb=1 / open_gop=0 / weightp=2 / keyint=230 / keyint_min=23 / scenecut=40 / intra_refresh=0 / rc_lookahead=40 / rc=crf / mbtree=0 / crf=20.0 / qcomp=0.60 / qpmin=0 / qpmax=69 / qpstep=4 / vbv_maxrate=40000 / vbv_bufsize=50000 / crf_max=0.0 / nal_hrd=none / filler=0 / ip_ratio=1.40 / pb_ratio=1.30 / aq=1:1.00 Язык : English Default : Да Forced : НетАудио #1: Идентификатор : 2 Формат : AC-3 Формат/Информация : Audio Coding 3 Расширение режима : CM (complete main) Параметр Endianness формата : Big Идентификатор кодека : A_AC3 Продолжительность : 1 ч. 30 м. Вид битрейта : Постоянный Битрейт : 448 Кбит/сек Каналы : 6 каналов Расположение каналов : Front: L C R, Side: L R, LFE Частота : 48,0 КГц Битовая глубина : 16 бит Метод сжатия : С потерями Размер потока : 289 Мбайт (6%) Заголовок : MVO (Киномания) Язык : Russian Default : Да Forced : НетАудио #2: Идентификатор : 3 Формат : AC-3 Формат/Информация : Audio Coding 3 Расширение режима : CM (complete main) Параметр Endianness формата : Big Идентификатор кодека : A_AC3 Продолжительность : 1 ч. 30 м. Вид битрейта : Постоянный Битрейт : 448 Кбит/сек Каналы : 6 каналов Расположение каналов : Front: L C R, Side: L R, LFE Частота : 48,0 КГц Битовая глубина : 16 бит Метод сжатия : С потерями Размер потока : 289 Мбайт (6%) Заголовок : DVO (Пётр Гланц и Инна Королёва) Язык : Russian Default : Нет Forced : НетАудио #3: Идентификатор : 4 Формат : AC-3 Формат/Информация : Audio Coding 3 Расширение режима : CM (complete main) Параметр Endianness формата : Big Идентификатор кодека : A_AC3 Продолжительность : 1 ч. 30 м. Вид битрейта : Постоянный Битрейт : 448 Кбит/сек Каналы : 6 каналов Расположение каналов : Front: L C R, Side: L R, LFE Частота : 48,0 КГц Битовая глубина : 16 бит Метод сжатия : С потерями Размер потока : 289 Мбайт (6%) Заголовок : AVO (Дмитрий Пучков (Гоблин)) Язык : Russian Default : Нет Forced : НетАудио #4: Идентификатор : 5 Формат : AC-3 Формат/Информация : Audio Coding 3 Расширение режима : CM (complete main) Параметр Endianness формата : Big Идентификатор кодека : A_AC3 Продолжительность : 1 ч. 30 м. Вид битрейта : Постоянный Битрейт : 448 Кбит/сек Каналы : 6 каналов Расположение каналов : Front: L C R, Side: L R, LFE Частота : 48,0 КГц Битовая глубина : 16 бит Метод сжатия : С потерями Размер потока : 289 Мбайт (6%) Заголовок : AVO (Андрей Гаврилов) Язык : Russian Default : Нет Forced : НетАудио: Формат : DTS Формат/Информация : Digital Theater Systems Режим : 16 Параметр Endianness формата : Big Продолжительность : 1 ч. 30 м. Вид битрейта : Постоянный Битрейт : 1509 Кбит/сек Каналы : 6 каналов Расположение каналов : Front: L C R, Side: L R, LFE Частота : 48,0 КГц Битовая глубина : 24 бит Метод сжатия : С потерями Размер потока : 974 Мбайт (100%)Аудио: Формат : AC-3 Формат/Информация : Audio Coding 3 Расширение режима : CM (complete main) Параметр Endianness формата : Big Продолжительность : 1 ч. 30 м. Вид битрейта : Постоянный Битрейт : 448 Кбит/сек Каналы : 6 каналов Расположение каналов : Front: L C R, Side: L R, LFE Частота : 48,0 КГц Битовая глубина : 16 бит Метод сжатия : С потерями Размер потока : 289 Мбайт (100%)Аудио: Формат : AC-3 Формат/Информация : Audio Coding 3 Расширение режима : CM (complete main) Параметр Endianness формата : Big Продолжительность : 1 ч. 30 м. Вид битрейта : Постоянный Битрейт : 192 Кбит/сек Каналы : 2 канала Расположение каналов : Front: L R Частота : 48,0 КГц Битовая глубина : 16 бит Метод сжатия : С потерями Размер потока : 124 Мбайт (100%)Аудио: Формат : DTS Формат/Информация : Digital Theater Systems Режим : 16 Параметр Endianness формата : Big Продолжительность : 1 ч. 30 м. Вид битрейта : Постоянный Битрейт : 1509 Кбит/сек Каналы : 6 каналов Расположение каналов : Front: L C R, Side: L R, LFE Частота : 48,0 КГц Битовая глубина : 24 бит Метод сжатия : С потерями Размер потока : 974 Мбайт (100%)Аудио: Формат : AC-3 Формат/Информация : Audio Coding 3 Расширение режима : CM (complete main) Параметр Endianness формата : Big Продолжительность : 1 ч. 30 м. Вид битрейта : Постоянный Битрейт : 448 Кбит/сек Каналы : 6 каналов Расположение каналов : Front: L C R, Side: L R, LFE Частота : 48,0 КГц Битовая глубина : 16 бит Метод сжатия : С потерями Размер потока : 289 Мбайт (100%) 10,14 Gb 2 1
25 июля 2016 11:37 Коммандос / Commando (1985) BDRip 1080p by msltel | P, P2, A .torrent   [Информация о файле (нажмите для просмотра)] Качество: BDRip 1080pВидео: MPEG-4 AVC, 13.7 Мбит/с, 1920x1040Аудио 1: русский, 48 kHz, DTS, 6 ch, 1509 kbps avg, [Профессиональный многоголосый, Киномания]Аудио 2: русский, 48 kHz, DTS, 6 ch, 1509 kbps avg, [Профессиональный двухголосый, Пётр Гланц и Инна Королёва]Аудио 3: русский, 48 kHz, DTS, 6 ch, 1509 kbps avg, [Авторский, Дмитрий Пучков (Гоблин)]Аудио 4: русский, 48 kHz, DTS, 6 ch, 1509 kbps avg, [Авторский, Андрей Гаврилов]Аудио: русский, 48 kHz, AC3, 6 ch, 448 kbps avg, [Профессиональный многоголосый, OPT]Аудио: русский, 48 kHz, AC3, 2 ch, 192 kbps avg, [Профессиональный многоголосый, R5]Аудио: русский, 48 kHz, AC3, 6 ch, 448 kbps avg, [Профессиональный многоголосый, Киномания]Аудио: русский, 48 kHz, AC3, 6 ch, 448 kbps avg, [Профессиональный двухголосый, Пётр Гланц и Инна Королёва]Аудио: русский, 48 kHz, AC3, 6 ch, 448 kbps avg, [Авторский, Дмитрий Пучков (Гоблин)]Аудио: русский, 48 kHz, AC3, 6 ch, 448 kbps avg, [Авторский, Андрей Гаврилов]Аудио: русский, 48 kHz, AC3, 6 ch, 448 kbps avg, [Авторский, Борис Фёдоров]Аудио: русский, 48 kHz, AC3, 2 ch, 192 kbps avg, [Авторский, Василий Горчаков]Аудио: русский, 48 kHz, AC3, 2 ch, 192 kbps avg, [Авторский, Юрий Толбин]Аудио: английский, 48 kHz, DTS, 6 ch, 1509 kbps avg, [Оригинал]Субтитры: русские (R5)Субтитры: русские (Гоблин)Субтитры: английские (для слабослышащих)Аудио: Формат : AC-3 Формат/Информация : Audio Coding 3 Расширение режима : CM (complete main) Параметр Endianness формата : Big Продолжительность : 1 ч. 30 м. Вид битрейта : Постоянный Битрейт : 448 Кбит/сек Каналы : 6 каналов Расположение каналов : Front: L C R, Side: L R, LFE Частота : 48,0 КГц Битовая глубина : 16 бит Метод сжатия : С потерями Размер потока : 289 Мбайт (100%)Аудио: Формат : AC-3 Формат/Информация : Audio Coding 3 Расширение режима : CM (complete main) Параметр Endianness формата : Big Продолжительность : 1 ч. 30 м. Вид битрейта : Постоянный Битрейт : 448 Кбит/сек Каналы : 6 каналов Расположение каналов : Front: L C R, Side: L R, LFE Частота : 48,0 КГц Битовая глубина : 16 бит Метод сжатия : С потерями Размер потока : 289 Мбайт (100%)Аудио: Формат : AC-3 Формат/Информация : Audio Coding 3 Расширение режима : CM (complete main) Параметр Endianness формата : Big Продолжительность : 1 ч. 30 м. Вид битрейта : Постоянный Битрейт : 192 Кбит/сек Каналы : 2 канала Расположение каналов : Front: L R Частота : 48,0 КГц Битовая глубина : 16 бит Метод сжатия : С потерями Размер потока : 124 Мбайт (100%)Аудио: Формат : AC-3 Формат/Информация : Audio Coding 3 Расширение режима : CM (complete main) Параметр Endianness формата : Big Продолжительность : 1 ч. 30 м. Вид битрейта : Постоянный Битрейт : 448 Кбит/сек Каналы : 6 каналов Расположение каналов : Front: L C R, Side: L R, LFE Частота : 48,0 КГц Битовая глубина : 16 бит Метод сжатия : С потерями Размер потока : 289 Мбайт (100%)Аудио: Формат : AC-3 Формат/Информация : Audio Coding 3 Расширение режима : CM (complete main) Параметр Endianness формата : Big Продолжительность : 1 ч. 30 м. Вид битрейта : Постоянный Битрейт : 192 Кбит/сек Каналы : 2 канала Расположение каналов : Front: L R Частота : 48,0 КГц Битовая глубина : 16 бит Метод сжатия : С потерями Размер потока : 124 Мбайт (100%)Видео: Идентификатор : 1 Формат : AVC Формат/Информация : Advanced Video Codec Профиль формата : [email protected] Параметр CABAC формата : Да Параметр ReFrames формата : 4 кадра Идентификатор кодека : V_MPEG4/ISO/AVC Продолжительность : 1 ч. 30 м. Битрейт : 13,7 Мбит/сек Ширина : 1920 пикселей Высота : 1040 пикселей Соотношение сторон : 1,85:1 Режим частоты кадров : Постоянный Частота кадров : 23,976 кадра/сек Цветовое пространство : YUV Субдискретизация насыщенности : 4:2:0 Битовая глубина : 8 бит Тип развёртки : Прогрессивная Бит/(Пиксели*Кадры) : 0.287 Размер потока : 8,65 Гбайт (68%) Заголовок : BDRip -- STarankov Библиотека кодирования : x264 core 142 r2431 ac76440 Настройки программы : cabac=1 / ref=4 / deblock=1:-1:-1 / analyse=0x3:0x113 / me=umh / subme=10 / psy=1 / psy_rd=1.00:0.15 / mixed_ref=1 / me_range=32 / chroma_me=1 / trellis=2 / 8x8dct=1 / cqm=0 / deadzone=21,11 / fast_pskip=0 / chroma_qp_offset=-3 / threads=6 / lookahead_threads=1 / sliced_threads=0 / nr=0 / decimate=1 / interlaced=0 / bluray_compat=0 / constrained_intra=0 / bframes=8 / b_pyramid=2 / b_adapt=2 / b_bias=0 / direct=1 / weightb=1 / open_gop=0 / weightp=2 / keyint=230 / keyint_min=23 / scenecut=40 / intra_refresh=0 / rc_lookahead=40 / rc=crf / mbtree=0 / crf=20.0 / qcomp=0.60 / qpmin=0 / qpmax=69 / qpstep=4 / vbv_maxrate=40000 / vbv_bufsize=50000 / crf_max=0.0 / nal_hrd=none / filler=0 / ip_ratio=1.40 / pb_ratio=1.30 / aq=1:1.00 Язык : English Default : Да Forced : НетАудио #1: Идентификатор : 2 Формат : DTS Формат/Информация : Digital Theater Systems Режим : 16 Параметр Endianness формата : Big Идентификатор кодека : A_DTS Продолжительность : 1 ч. 30 м. Вид битрейта : Постоянный Битрейт : 1509 Кбит/сек Каналы : 6 каналов Расположение каналов : Front: L C R, Side: L R, LFE Частота : 48,0 КГц Битовая глубина : 24 бит Метод сжатия : С потерями Размер потока : 974 Мбайт (7%) Заголовок : MVO (Киномания) Язык : Russian Default : Да Forced : НетАудио #2: Идентификатор : 3 Формат : DTS Формат/Информация : Digital Theater Systems Режим : 16 Параметр Endianness формата : Big Идентификатор кодека : A_DTS Продолжительность : 1 ч. 30 м. Вид битрейта : Постоянный Битрейт : 1509 Кбит/сек Каналы : 6 каналов Расположение каналов : Front: L C R, Side: L R, LFE Частота : 48,0 КГц Битовая глубина : 24 бит Метод сжатия : С потерями Размер потока : 974 Мбайт (7%) Заголовок : DVO (Пётр Гланц и Инна Королёва) Язык : Russian Default : Нет Forced : НетАудио #3: Идентификатор : 4 Формат : DTS Формат/Информация : Digital Theater Systems Режим : 16 Параметр Endianness формата : Big Идентификатор кодека : A_DTS Продолжительность : 1 ч. 30 м. Вид битрейта : Постоянный Битрейт : 1509 Кбит/сек Каналы : 6 каналов Расположение каналов : Front: L C R, Side: L R, LFE Частота : 48,0 КГц Битовая глубина : 24 бит Метод сжатия : С потерями Размер потока : 974 Мбайт (7%) Заголовок : AVO (Дмитрий Пучков (Гоблин)) Язык : Russian Default : Нет Forced : НетАудио #4: Идентификатор : 5 Формат : DTS Формат/Информация : Digital Theater Systems Режим : 16 Параметр Endianness формата : Big Идентификатор кодека : A_DTS Продолжительность : 1 ч. 30 м. Вид битрейта : Постоянный Битрейт : 1509 Кбит/сек Каналы : 6 каналов Расположение каналов : Front: L C R, Side: L R, LFE Частота : 48,0 КГц Битовая глубина : 24 бит Метод сжатия : С потерями Размер потока : 974 Мбайт (7%) Заголовок : AVO (Андрей Гаврилов) Язык : Russian Default : Нет Forced : НетАудио: Формат : AC-3 Формат/Информация : Audio Coding 3 Расширение режима : CM (complete main) Параметр Endianness формата : Big Продолжительность : 1 ч. 30 м. Вид битрейта : Постоянный Битрейт : 448 Кбит/сек Каналы : 6 каналов Расположение каналов : Front: L C R, Side: L R, LFE Частота : 48,0 КГц Битовая глубина : 16 бит Метод сжатия : С потерями Размер потока : 289 Мбайт (100%)Аудио: Формат : AC-3 Формат/Информация : Audio Coding 3 Расширение режима : CM (complete main) Параметр Endianness формата : Big Продолжительность : 1 ч. 30 м. Вид битрейта : Постоянный Битрейт : 448 Кбит/сек Каналы : 6 каналов Расположение каналов : Front: L C R, Side: L R, LFE Частота : 48,0 КГц Битовая глубина : 16 бит Метод сжатия : С потерями Размер потока : 289 Мбайт (100%)Аудио: Формат : AC-3 Формат/Информация : Audio Coding 3 Расширение режима : CM (complete main) Параметр Endianness формата : Big Продолжительность : 1 ч. 30 м. Вид битрейта : Постоянный Битрейт : 192 Кбит/сек Каналы : 2 канала Расположение каналов : Front: L R Частота : 48,0 КГц Битовая глубина : 16 бит Метод сжатия : С потерями Размер потока : 124 Мбайт (100%)Аудио: Формат : AC-3 Формат/Информация : Audio Coding 3 Расширение режима : CM (complete main) Параметр Endianness формата : Big Продолжительность : 1 ч. 30 м. Вид битрейта : Постоянный Битрейт : 448 Кбит/сек Каналы : 6 каналов Расположение каналов : Front: L C R, Side: L R, LFE Частота : 48,0 КГц Битовая глубина : 16 бит Метод сжатия : С потерями Размер потока : 289 Мбайт (100%)Аудио: Формат : DTS Формат/Информация : Digital Theater Systems Режим : 16 Параметр Endianness формата : Big Продолжительность : 1 ч. 30 м. Вид битрейта : Постоянный Битрейт : 1509 Кбит/сек Каналы : 6 каналов Расположение каналов : Front: L C R, Side: L R, LFE Частота : 48,0 КГц Битовая глубина : 24 бит Метод сжатия : С потерями Размер потока : 974 Мбайт 15,72 Gb 2 1
25 июля 2016 11:37 Коммандос / Commando (1985) BDRip 1080p .torrent   [Информация о файле (нажмите для просмотра)] Перевод: Профессиональный многоголосый закадровый + ОригиналКодек: x264Качество: BDRip (источник: BD-Remux)Видео: 1916x1040 (1,85:1), 23.976 fps, 11,5 MbpsАудио #1: AC-3, 2 ch, 192 kbps (Rus) R5Аудио #2: AC-3, 6 ch, 640 kbps (Eng) ОригиналСубтитры: Русские (R5), Русские (Дмитрий «Гоблин» Пучков), АнглийскиеВидео: Идентификатор : 1 Формат : AVC Формат/Информация : Advanced Video Codec Профиль формата : [email protected] Параметр CABAC формата : Да Параметр ReFrames формата : 4 кадра Идентификатор кодека : V_MPEG4/ISO/AVC Продолжительность : 1 ч. 30 м. Битрейт : 11,5 Мбит/сек Ширина : 1916 пикселей Высота : 1040 пикселей Соотношение сторон : 1,85:1 Режим частоты кадров : Постоянный Частота кадров : 23,976 кадра/сек Цветовое пространство : YUV Субдискретизация насыщенности : 4:2:0 Битовая глубина : 8 бит Тип развёртки : Прогрессивная Бит/(Пиксели*Кадры) : 0.240 Размер потока : 7,08 Гбайт (91%) Заголовок : Release by N1NT3NDO Библиотека кодирования : x264 core 138 r2358 9e941d1 Настройки программы : cabac=1 / ref=4 / deblock=1:-3:-3 / analyse=0x3:0x133 / me=umh / subme=11 / psy=1 / psy_rd=1.00:0.00 / mixed_ref=1 / me_range=32 / chroma_me=1 / trellis=2 / 8x8dct=1 / cqm=0 / deadzone=21,11 / fast_pskip=0 / chroma_qp_offset=-2 / threads=12 / lookahead_threads=1 / sliced_threads=0 / nr=0 / decimate=0 / interlaced=0 / bluray_compat=0 / constrained_intra=0 / bframes=6 / b_pyramid=2 / b_adapt=2 / b_bias=0 / direct=3 / weightb=1 / open_gop=0 / weightp=2 / keyint=240 / keyint_min=23 / scenecut=40 / intra_refresh=0 / rc_lookahead=80 / rc=2pass / mbtree=0 / bitrate=11475 / ratetol=1.0 / qcomp=0.60 / qpmin=0 / qpmax=69 / qpstep=4 / cplxblur=20.0 / qblur=0.5 / vbv_maxrate=50000 / vbv_bufsize=62500 / nal_hrd=none / ip_ratio=1.40 / pb_ratio=1.30 / aq=1:0.70 Язык : English Default : Да Forced : НетАудио #1: Идентификатор : 2 Формат : AC-3 Формат/Информация : Audio Coding 3 Расширение режима : CM (complete main) Параметр Endianness формата : Big Идентификатор кодека : A_AC3 Продолжительность : 1 ч. 30 м. Вид битрейта : Постоянный Битрейт : 192 Кбит/сек Каналы : 2 канала Расположение каналов : Front: L R Частота : 48,0 КГц Битовая глубина : 16 бит Метод сжатия : С потерями Размер потока : 124 Мбайт (2%) Заголовок : Rus (R5) Язык : Russian Default : Да Forced : НетАудио #2: Идентификатор : 3 Формат : AC-3 Формат/Информация : Audio Coding 3 Расширение режима : CM (complete main) Параметр Endianness формата : Big Идентификатор кодека : A_AC3 Продолжительность : 1 ч. 30 м. Вид битрейта : Постоянный Битрейт : 640 Кбит/сек Каналы : 6 каналов Расположение каналов : Front: L C R, Side: L R, LFE Частота : 48,0 КГц Битовая глубина : 16 бит Метод сжатия : С потерями Размер потока : 413 Мбайт (5%) Заголовок : Eng Язык : English Default : Нет Forced : Нет 7,76 Gb 3 2
25 июля 2016 11:37 Коммандос / Commando (1985) HDRip-AVC | P .torrent   [Информация о файле (нажмите для просмотра)] Перевод: Профессиональный (многоголосый, закадровый)Кодек: x264Качество: HDRip-AVC[BDRip 720p]Видео: 784x424 (16:9), 23,976 fps, x264, ~1073 kbps avg, 0.135 bit/pixelЗвук: 48 kHz, AAC-LC, 2 ch, ~80.00 kbps avg 745,48 Mb 19 2
25 июля 2016 11:37 Коммандо / Commando (1985) BDRip 720p | P, P2, A .torrent   [Информация о файле (нажмите для просмотра)] Перевод: Профессиональный многоголосый, профессиональный двухголосый, авторскийКачество: BDRip 720pВидео: MPEG-4 AVC, 11211 Кбит/с, 1280x694Аудио#1: Russian: 48 kHz, AC3, 2/0 (L,R) ch, 192.00 kbps avg |Многоголосый закадровый, R5|Аудио#2: Russian: 48 kHz, DTS, 3/2 (L,C,R,l,r) + LFE ch, 1536.00 kbps avg |Многоголосый закадровый, Киномания|Аудио#3: Russian: 48 kHz, DTS, 3/2 (L,C,R,l,r) + LFE ch, 1536.00 kbps avg |Многоголосый закадровый, ОРТ|Аудио#4: Russian: 48 kHz, DTS, 3/2 (L,C,R,l,r) + LFE ch, 1536.00 kbps avg |Двухголосый закадровый, П. Гланц и И. Королева|Аудио#5: Russian: 48 kHz, DTS, 3/2 (L,C,R,l,r) + LFE ch, 1536.00 kbps avg |Одноголосый закадровый, А. Гаврилов|Аудио#6: Russian: 48 kHz, DTS, 3/2 (L,C,R,l,r) + LFE ch, 1536.00 kbps avg |Одноголосый закадровый, Д. Пучков|Аудио#7: Russian: 48 kHz, AC3, 2/0 (L,R) ch, 192.00 kbps avg |Одноголосый закадровый, В. Горчаков|Аудио#8: Russian: 48 kHz, AC3, 2/0 (L,R) ch, 192.00 kbps avg |Одноголосый закадровый, Ю. Толбин|Аудио#9: Russian: 48 kHz, AC3, 3/2 (L,C,R,l,r) + LFE ch, 448.00 kbps avg |Одноголосый закадровый, Б. Федоров|Аудио#10: Ukranian : 48 kHz, AC3, 2/0 (L,R) ch, 192.00 kbps avg |Многоголосый закадровый, 1+1/ICTV|Аудио#11: English: 48 kHz, DTS, 3/2 (L,C,R,l,r) + LFE ch, 1536.00 kbps avgСубтитры: Русские, английские 13,55 Gb 3 3
25 июля 2016 11:37 Коммандо / Commando (1985) HDRip от Scarabey | Р .torrent   [Информация о файле (нажмите для просмотра)] Перевод: Профессиональный (многоголосый, закадровый) R5Субтитры: нетКачество: HDRipФормат: AVIВидео: 704x384 (1.83:1), 23.976 fps, XviD build 73 ~2094 kbps avg, 0.32 bit/pixelАудио: 48 kHz, AC3 Dolby Digital, 2/0 (L,R) ch, ~192 kbps 1,45 Gb 19 3
25 июля 2016 11:37 Коммандо / Commando (1985) HDRip от Scarabey | Р .torrent   [Информация о файле (нажмите для просмотра)] Перевод: Профессиональный (многоголосый, закадровый) R5Субтитры: нетКачество: HDRipФормат: AVIВидео: 624x336 (1.86:1), 23.976 fps, XviD build 73 ~1015 kbps avg, 0.20 bit/pixelАудио: 48 kHz, MPEG Layer 3, 2 ch, ~128.00 kbps avg 744,13 Mb 4 2
25 июля 2016 11:37 Коммандос / Commando (1985) HDRip | Гоблин .torrent   [Информация о файле (нажмите для просмотра)] Перевод: Авторский (одноголосый закадровый)ГоблинКодек: XviDКачество: HDRip - исх. BDRip 1080pВидео: 656x352 (1.86:1), 23.976 fps, XviD build 50 ~972 kbps avg, 0.17 bit/pixelЗвук: 48 kHz, MPEG Layer 3, 2 ch, ~128.00 kbps avg 716,45 Mb 3 1
25 июля 2016 11:37 Коммандос / Commando (1985) BDRip-AVC от 0ptimus | D, P, P2, A .torrent   [Информация о файле (нажмите для просмотра)] Перевод: Дублированный, профессиональный (многоголосый закадровый), профессиональный (двухголосый закадровый), авторский (одноголосый закадровый)Кодек: h.264Качество: BDRip-AVCВидео: 2782 Кбит/с, 1024x558, 23.976 кадр/сЗвук: • №1: Русский (AC3, 2 ch, 192 Кбит/с) Дублированный [Хлопушка], спасибо alex7691 • №2: Русский (AC3, 2 ch, 192 Кбит/с) Многоголосый закадровый [R5] • №3: Русский (AC3, 6 ch, 384 Кбит/с) Авторский одноголосый [Андрей Гаврилов] • №4: Английский (AC3, 6 ch, 384 Кбит/с)Субтитры: • №1: Русские [R5] • №2: Русские [Гоблин] • №3: АнглийскиеВидео: Идентификатор : 1 Формат : AVC Формат/Информация : Advanced Video Codec Профиль формата : [email protected] Параметр CABAC формата : Да Параметр ReFrames формата : 10 кадров Идентификатор кодека : V_MPEG4/ISO/AVC Продолжительность : 1 ч. 30 м. Битрейт : 2782 Кбит/сек Ширина : 1024 пикселя Высота : 558 пикселей Соотношение сторон : 16:9 Частота кадров : 23,976 кадра/сек Цветовое пространство : YUV Субдискретизация насыщенности : 4:2:0 Битовая глубина : 8 бит Тип развёртки : Прогрессивная Бит/(Пиксели*Кадры) : 0.203 Размер потока : 1,68 Гбайт (41%) Заголовок : Rip by 0ptimus Библиотека кодирования : x264 core 130 r2273 b3065e6 Настройки программы : cabac=1 / ref=10 / deblock=1:-3:-3 / analyse=0x3:0x113 / me=umh / subme=11 / psy=1 / psy_rd=1.00:0.20 / mixed_ref=1 / me_range=32 / chroma_me=1 / trellis=2 / 8x8dct=1 / cqm=0 / deadzone=21,11 / fast_pskip=0 / chroma_qp_offset=-3 / threads=4 / lookahead_threads=1 / sliced_threads=0 / nr=0 / decimate=0 / interlaced=0 / bluray_compat=0 / constrained_intra=0 / bframes=8 / b_pyramid=2 / b_adapt=2 / b_bias=0 / direct=3 / weightb=1 / open_gop=0 / weightp=2 / keyint=240 / keyint_min=23 / scenecut=40 / intra_refresh=0 / rc_lookahead=40 / rc=2pass / mbtree=0 / bitrate=2782 / ratetol=1.0 / qcomp=0.60 / qpmin=0 / qpmax=69 / qpstep=4 / cplxblur=20.0 / qblur=0.5 / vbv_maxrate=50000 / vbv_bufsize=50000 / nal_hrd=none / ip_ratio=1.40 / pb_ratio=1.30 / aq=1:1.00 Язык : EnglishАудио #1: Идентификатор : 2 Формат : AC-3 Формат/Информация : Audio Coding 3 Расширение режима : CM (complete main) Идентификатор кодека : A_AC3 Продолжительность : 1 ч. 30 м. Вид битрейта : Постоянный Битрейт : 192 Кбит/сек Каналы : 2 канала Расположение каналов : Front: L R Частота : 48,0 КГц Битовая глубина : 16 бит Метод сжатия : С потерями Размер потока : 124 Мбайт (3%) Заголовок : Дублированный [Хлопушка] AC3 2.0 @ 192 kbps Язык : RussianАудио #2: Идентификатор : 3 Формат : AC-3 Формат/Информация : Audio Coding 3 Расширение режима : CM (complete main) Идентификатор кодека : A_AC3 Продолжительность : 1 ч. 30 м. Вид битрейта : Постоянный Битрейт : 192 Кбит/сек Каналы : 2 канала Расположение каналов : Front: L R Частота : 48,0 КГц Битовая глубина : 16 бит Метод сжатия : С потерями Размер потока : 124 Мбайт (3%) Заголовок : Многоголосый закадровый [R5] AC3 2.0 @ 192 kbps Язык : RussianАудио #3: Идентификатор : 4 Формат : AC-3 Формат/Информация : Audio Coding 3 Расширение режима : CM (complete main) Идентификатор кодека : A_AC3 Продолжительность : 1 ч. 30 м. Вид битрейта : Постоянный Битрейт : 384 Кбит/сек Каналы : 6 каналов Расположение каналов : Front: L C R, Side: L R, LFE Частота : 48,0 КГц Битовая глубина : 16 бит Метод сжатия : С потерями Размер потока : 248 Мбайт (6%) Заголовок : Многоголосый закадровый [Киномания] AC3 5.1 @ 384 kbps Язык : RussianАудио #4: Идентификатор : 5 Формат : AC-3 Формат/Информация : Audio Coding 3 Расширение режима : CM (complete main) Идентификатор кодека : A_AC3 Продолжительность : 1 ч. 30 м. Вид битрейта : Постоянный Битрейт : 384 Кбит/сек Каналы : 6 каналов Расположение каналов : Front: L C R, Side: L R, LFE Частота : 48,0 КГц Битовая глубина : 16 бит Метод сжатия : С потерями Размер потока : 248 Мбайт (6%) Заголовок : Многоголосый закадровый [OPT] AC3 5.1 @ 384 kbps Язык : RussianАудио #5: Идентификатор : 6 Формат : AC-3 Формат/Информация : Audio Coding 3 Расширение режима : CM (complete main) Идентификатор кодека : A_AC3 Продолжительность : 1 ч. 30 м. Вид битрейта : Постоянный Битрейт : 384 Кбит/сек Каналы : 6 каналов Расположение каналов : Front: L C R, Side: L R, LFE Частота : 48,0 КГц Битовая глубина : 16 бит Метод сжатия : С потерями Размер потока : 248 Мбайт (6%) Заголовок : Двухголосый закадровый [Петр Гланц и Инна Королева] AC3 5.1 @ 384 kbps Язык : RussianАудио #6: Идентификатор : 7 Формат : AC-3 Формат/Информация : Audio Coding 3 Расширение режима : CM (complete main) Идентификатор кодека : A_AC3 Продолжительность : 1 ч. 30 м. Вид битрейта : Постоянный Битрейт : 384 Кбит/сек Каналы : 6 каналов Расположение каналов : Front: L C R, Side: L R, LFE Частота : 48,0 КГц Битовая глубина : 16 бит Метод сжатия : С потерями Размер потока : 248 Мбайт (6%) Заголовок : Авторский [Андрей Гаврилов] AC3 5.1 @ 384 kbps Язык : RussianАудио #7: Идентификатор : 8 Формат : AC-3 Формат/Информация : Audio Coding 3 Расширение режима : CM (complete main) Идентификатор кодека : A_AC3 Продолжительность : 1 ч. 30 м. Вид битрейта : Постоянный Битрейт : 192 Кбит/сек Каналы : 2 канала Расположение каналов : Front: L R Частота : 48,0 КГц Битовая глубина : 16 бит Метод сжатия : С потерями Размер потока : 124 Мбайт (3%) Заголовок : Авторский [Василий Горчаков] AC3 2.0 @ 192 kbps Язык : RussianАудио #8: Идентификатор : 9 Формат : AC-3 Формат/Информация : Audio Coding 3 Расширение режима : CM (complete main) Идентификатор кодека : A_AC3 Продолжительность : 1 ч. 30 м. Вид битрейта : Постоянный Битрейт : 384 Кбит/сек Каналы : 6 каналов Расположение каналов : Front: L C R, Side: L R, LFE Частота : 48,0 КГц Битовая глубина : 16 бит Метод сжатия : С потерями Размер потока : 248 Мбайт (6%) Заголовок : Авторский [Дмитрий Пучков "Гоблин"] AC3 5.1 @ 384 kbps Язык : RussianАудио #9: Идентификатор : 10 Формат : AC-3 Формат/Информация : Audio Coding 3 Расширение режима : CM (complete main) Идентификатор кодека : A_AC3 Продолжительность : 1 ч. 30 м. Вид битрейта : Постоянный Битрейт : 384 Кбит/сек Каналы : 6 каналов Расположение каналов : Front: L C R, Side: L R, LFE Частота : 48,0 КГц Битовая глубина : 16 бит Метод сжатия : С потерями Размер потока : 248 Мбайт (6%) Заголовок : Авторский [Борис Федоров] AC3 5.1 @ 384 kbps Язык : RussianАудио #10: Идентификатор : 11 Формат : AC-3 Формат/Информация : Audio Coding 3 Расширение режима : CM (complete main) Идентификатор кодека : A_AC3 Продолжительность : 1 ч. 30 м. Вид битрейта : Постоянный Битрейт : 192 Кбит/сек Каналы : 2 канала Расположение каналов : Front: L R Частота : 48,0 КГц Битовая глубина : 16 бит Метод сжатия : С потерями Размер потока : 124 Мбайт (3%) Заголовок : Авторский [Юрий Толбин] AC3 2.0 @ 192 kbps Язык : RussianАудио #11: Идентификатор : 12 Формат : AC-3 Формат/Информация : Audio Coding 3 Расширение режима : CM (complete main) Идентификатор кодека : A_AC3 Продолжительность : 1 ч. 30 м. Вид битрейта : Постоянный Битрейт : 192 Кбит/сек Каналы : 2 канала Расположение каналов : Front: L R Частота : 48,0 КГц Битовая глубина : 16 бит Метод сжатия : С потерями Размер потока : 124 Мбайт (3%) Заголовок : Многоголосый закадровый [ICTV] AC3 2.0 @ 192 kbps Язык : UkrainianАудио #12: Идентификатор : 13 Формат : AC-3 Формат/Информация : Audio Coding 3 Расширение режима : CM (complete main) Идентификатор кодека : A_AC3 Продолжительность : 1 ч. 30 м. Вид битрейта : Постоянный Битрейт : 384 Кбит/сек Каналы : 6 каналов Расположение каналов : Front: L C R, Side: L R, LFE Частота : 48,0 КГц Битовая глубина : 16 бит Метод сжатия : С потерями Размер потока : 248 Мбайт (6%) Заголовок : AC3 5.1 @ 384 kbps Язык : English 4,06 Gb 4 2
25 июля 2016 11:37 Коммандос / Коммандо / Commando (1985) BDRip 720p от HQCLUB .torrent   [Информация о файле (нажмите для просмотра)] Перевод: 3xMVO + DVO + 5xAVO + UKR + ОригиналСубтитры: русские (полные), русские (полные, Гоблин), английские (полные)Формат: MKVКачество: BDRip 720p (ИсточникВидео: 1280x694 (1.84:1), 23.976 fps, [email protected] ~9631 kbps avg, 0.452 bit/pixelАудио #1: 48 kHz, AC3, 2/0 (L,R) ch, ~192.00 kbps avg |Многоголосый, закадровый (R5)|Аудио #2: 48 kHz, AC3 Dolby Digital, 3/2 (L,C,R,l,r) + LFE ch, 640.00 kbps avg |Многоголосый, закадровый (Киномания)|Аудио #3: 48 kHz, AC3 Dolby Digital, 3/2 (L,C,R,l,r) + LFE ch, 640.00 kbps avg |Многоголосый, закадровый (ОРТ)|Аудио #4: 48 kHz, AC3 Dolby Digital, 3/2 (L,C,R,l,r) + LFE ch, 640.00 kbps avg |Двухголосый, закадровый (П.Гланц и И.Королева)|Аудио #5: 48 kHz, AC3 Dolby Digital, 3/2 (L,C,R,l,r) + LFE ch, 640.00 kbps avg |Одноголосый, закадровый (А.Гаврилов)|Аудио #6: 48 kHz, AC3 Dolby Digital, 3/2 (L,C,R,l,r) + LFE ch, 640.00 kbps avg |Одноголосый, закадровый (Дмитрий «Гоблин» Пучков)|Аудио #7: 48 kHz, AC3, 2/0 (L,R) ch, ~192.00 kbps avg |Одноголосый, закадровый (В.Горчаков)|Аудио #8: 48 kHz, AC3, 2/0 (L,R) ch, ~192.00 kbps avg |Одноголосый, закадровый (Ю.Толбин)|Аудио #9: 48 kHz, AC3, 3/2 (L,C,R,l,r) + LFE ch, ~448.00 kbps avg |Одноголосый, закадровый (Б.Федоров)|Аудио #10: 48 kHz, AC3, 2/0 (L,R) ch, ~192.00 kbps avg |Многоголосый, закадровый (1+1)|Аудио #11: 48 kHz, Digital Theater System, 3/2 (L,C,R,l,r) + LFE ch, ~1510 kbps avg |Оригинальная звуковая дорожка|Видео: Идентификатор : 1 Формат : AVC Формат/Информация : Advanced Video Codec Профиль формата : [email protected] Параметр CABAC формата : Да Параметр ReFrames формата : 9 кадров Идентификатор кодека : V_MPEG4/ISO/AVC Продолжительность : 1 ч. 30 м. Битрейт : 9631 Кбит/сек Ширина : 1280 пикселей Высота : 694 пикселя Соотношение сторон : 1,85:1 Частота кадров : 23,976 кадра/сек Цветовое пространство : YUV Субдискретизация насыщенности : 4:2:0 Битовая глубина : 8 бит Тип развёртки : Прогрессивная Бит/(Пиксели*Кадры) : 0.452 Размер потока : 6,07 Гбайт (61%) Заголовок : Коммандос / Коммандо / Commando (1985) BDRip 720p | HQCLUB by Deep Fusion Библиотека кодирования : x264 core 125 r2200 999b753 Настройки программы : cabac=1 / ref=9 / deblock=1:-3:-3 / analyse=0x3:0x113 / me=umh / subme=10 / psy=1 / psy_rd=1.05:0.10 / mixed_ref=1 / me_range=48 / chroma_me=1 / trellis=2 / 8x8dct=1 / cqm=0 / deadzone=21,11 / fast_pskip=0 / chroma_qp_offset=-5 / threads=6 / lookahead_threads=1 / sliced_threads=0 / nr=0 / decimate=1 / interlaced=0 / bluray_compat=0 / constrained_intra=0 / bframes=12 / b_pyramid=2 / b_adapt=2 / b_bias=0 / direct=1 / weightb=1 / open_gop=0 / weightp=2 / keyint=240 / keyint_min=23 / scenecut=40 / intra_refresh=0 / rc_lookahead=60 / rc=crf / mbtree=0 / crf=18.0 / qcomp=0.60 / qpmin=10 / qpmax=69 / qpstep=4 / vbv_maxrate=62500 / vbv_bufsize=50000 / crf_max=0.0 / nal_hrd=none / ip_ratio=1.40 / pb_ratio=1.30 / aq=1:0.80 Язык : English Default : Да Forced : НетАудио #1: Идентификатор : 2 Формат : AC-3 Формат/Информация : Audio Coding 3 Расширение режима : CM (complete main) Параметр Endianness формата : Big Идентификатор кодека : A_AC3 Продолжительность : 1 ч. 30 м. Вид битрейта : Постоянный Битрейт : 192 Кбит/сек Каналы : 2 канала Расположение каналов : Front: L R Частота : 48,0 КГц Битовая глубина : 16 бит Метод сжатия : С потерями Размер потока : 124 Мбайт (1%) Заголовок : Многоголосый, закадровый (R5) Язык : Russian Default : Да Forced : НетАудио #2: Идентификатор : 3 Формат : AC-3 Формат/Информация : Audio Coding 3 Расширение режима : CM (complete main) Параметр Endianness формата : Big Идентификатор кодека : A_AC3 Продолжительность : 1 ч. 30 м. Вид битрейта : Постоянный Битрейт : 640 Кбит/сек Каналы : 6 каналов Расположение каналов : Front: L C R, Side: L R, LFE Частота : 48,0 КГц Битовая глубина : 16 бит Метод сжатия : С потерями Размер потока : 413 Мбайт (4%) Заголовок : Многоголосый, закадровый (Киномания) Язык : Russian Default : Нет Forced : НетАудио #3: Идентификатор : 4 Формат : AC-3 Формат/Информация : Audio Coding 3 Расширение режима : CM (complete main) Параметр Endianness формата : Big Идентификатор кодека : A_AC3 Продолжительность : 1 ч. 30 м. Вид битрейта : Постоянный Битрейт : 640 Кбит/сек Каналы : 6 каналов Расположение каналов : Front: L C R, Side: L R, LFE Частота : 48,0 КГц Битовая глубина : 16 бит Метод сжатия : С потерями Размер потока : 413 Мбайт (4%) Заголовок : Многоголосый, закадровый (ОРТ) Язык : Russian Default : Нет Forced : НетАудио #4: Идентификатор : 5 Формат : AC-3 Формат/Информация : Audio Coding 3 Расширение режима : CM (complete main) Параметр Endianness формата : Big Идентификатор кодека : A_AC3 Продолжительность : 1 ч. 30 м. Вид битрейта : Постоянный Битрейт : 640 Кбит/сек Каналы : 6 каналов Расположение каналов : Front: L C R, Side: L R, LFE Частота : 48,0 КГц Битовая глубина : 16 бит Метод сжатия : С потерями Размер потока : 413 Мбайт (4%) Заголовок : Двухголосый, закадровый (П.Гланц и И.Королева) Язык : Russian Default : Нет Forced : НетАудио #5: Идентификатор : 6 Формат : AC-3 Формат/Информация : Audio Coding 3 Расширение режима : CM (complete main) Параметр Endianness формата : Big Идентификатор кодека : A_AC3 Продолжительность : 1 ч. 30 м. Вид битрейта : Постоянный Битрейт : 640 Кбит/сек Каналы : 6 каналов Расположение каналов : Front: L C R, Side: L R, LFE Частота : 48,0 КГц Битовая глубина : 16 бит Метод сжатия : С потерями Размер потока : 413 Мбайт (4%) Заголовок : Одноголосый, закадровый (А.Гаврилов) Язык : Russian Default : Нет Forced : НетАудио #6: Идентификатор : 7 Формат : AC-3 Формат/Информация : Audio Coding 3 Расширение режима : CM (complete main) Параметр Endianness формата : Big Идентификатор кодека : A_AC3 Продолжительность : 1 ч. 30 м. Вид битрейта : Постоянный Битрейт : 640 Кбит/сек Каналы : 6 каналов Расположение каналов : Front: L C R, Side: L R, LFE Частота : 48,0 КГц Битовая глубина : 16 бит Метод сжатия : С потерями Размер потока : 413 Мбайт (4%) Заголовок : Одноголосый, закадровый (Дмитрий «Гоблин» Пучков) Язык : Russian Default : Нет Forced : НетАудио #7: Идентификатор : 8 Формат : AC-3 Формат/Информация : Audio Coding 3 Расширение режима : CM (complete main) Параметр Endianness формата : Big Идентификатор кодека : A_AC3 Продолжительность : 1 ч. 30 м. Вид битрейта : Постоянный Битрейт : 192 Кбит/сек Каналы : 2 канала Расположение каналов : Front: L R Частота : 48,0 КГц Битовая глубина : 16 бит Метод сжатия : С потерями Размер потока : 124 Мбайт (1%) Заголовок : Одноголосый, закадровый (В.Горчаков) Язык : Russian Default : Нет Forced : НетАудио #8: Идентификатор : 9 Формат : AC-3 Формат/Информация : Audio Coding 3 Расширение режима : CM (complete main) Параметр Endianness формата : Big Идентификатор кодека : A_AC3 Продолжительность : 1 ч. 30 м. Вид битрейта : Постоянный Битрейт : 192 Кбит/сек Каналы : 2 канала Расположение каналов : Front: L R Частота : 48,0 КГц Битовая глубина : 16 бит Метод сжатия : С потерями Размер потока : 124 Мбайт (1%) Заголовок : Одноголосый, закадровый (Ю.Толбин) Язык : Russian Default : Нет Forced : НетАудио #9: Идентификатор : 10 Формат : AC-3 Формат/Информация : Audio Coding 3 Расширение режима : CM (complete main) Параметр Endianness формата : Big Идентификатор кодека : A_AC3 Продолжительность : 1 ч. 30 м. Вид битрейта : Постоянный Битрейт : 448 Кбит/сек Каналы : 6 каналов Расположение каналов : Front: L C R, Side: L R, LFE Частота : 48,0 КГц Битовая глубина : 16 бит Метод сжатия : С потерями Размер потока : 289 Мбайт (3%) Заголовок : Одноголосый, закадровый (Б.Федоров) Язык : Russian Default : Нет Forced : НетАудио #10: Идентификатор : 11 Формат : AC-3 Формат/Информация : Audio Coding 3 Расширение режима : CM (complete main) Параметр Endianness формата : Big Идентификатор кодека : A_AC3 Продолжительность : 1 ч. 30 м. Вид битрейта : Постоянный Битрейт : 192 Кбит/сек Каналы : 2 канала Расположение каналов : Front: L R Частота : 48,0 КГц Битовая глубина : 16 бит Метод сжатия : С потерями Размер потока : 124 Мбайт (1%) Заголовок : Многоголосый, закадровый (1+1) Язык : Ukrainian Default : Нет Forced : НетАудио #11: Идентификатор : 12 Формат : DTS Формат/Информация : Digital Theater Systems Идентификатор кодека : A_DTS Продолжительность : 1 ч. 30 м. Вид битрейта : Постоянный Битрейт : 1510 Кбит/сек Каналы : 6 каналов Расположение каналов : Front: L C R, Side: L R, LFE Частота : 48,0 КГц Битовая глубина : 24 бит Метод сжатия : С потерями Размер потока : 975 Мбайт (10%) Заголовок : Оригинальная звуковая дорожка Язык : English Default : Нет Forced : Нет 10,01 Gb 3 3
25 июля 2016 11:37 Коммандос / Коммандо / Commando (1985) BDRip-AVC от ExKinoRay .torrent   [Информация о файле (нажмите для просмотра)] Перевод: Профессиональный, многоголосый (Киномания) | Профессиональный, многоголосый (ОРТ) | Авторский, одноголосый (Андрей Гаврилов)Кодек: x264Качество: BDRip (AVC)Видео: MPEG-4 AVC, 2102 Кбит/с, 1024x556Аудио: AC3, 6 ch, 448 Кбит/с 2,17 Gb 9 1
25 июля 2016 11:37 Коммандос / Commando (1985) BDRip-AVC .torrent   [Информация о файле (нажмите для просмотра)] Перевод: Профессиональный многоголосый (ОРТ / Киномания)Кодек: MKV, H.264Качество: BDRip-AVCВидео: MPEG-4 AVC, 1860 Кбит/с, 1024x552Звук: AC3, 6 ch, 448 Кбит/с 1,74 Gb 5 4
25 июля 2016 11:37 Коммандос / Commando (1985) BDRip от HELLYWOOD .torrent   [Информация о файле (нажмите для просмотра)] Перевод: Профессиональный (многоголосый, закадровый, ОРТ) + Профессиональный (двухголосый, Гланц + Королёва) + Оригинал + Профессиональный (многоголосый, закадровый, Киномания) (отдельно) + Авторский (Гаврилов Андрей) (отдельно) + Авторский (Дмитрий "Гоблин" Пучков) (отдельно)Субтитры: Русские, английскиеФормат: AVIКачество: BDRip (источник: /BD-Remux/ 1080p)Видео: 704x384 (1.83:1), 23.976 fps, XviD build 50 ~2117 kbps avg, 0.33 bit/pixelАудио #1: 48 kHz, AC3 Dolby Digital, 3/2 (L,C,R,l,r) + LFE ch, ~448 kbps|MVO - ОРТ|Аудио #2: 48 kHz, AC3 Dolby Digital, 3/2 (L,C,R,l,r) + LFE ch, ~448 kbps|DVO - Гланц + Королёва|Аудио #3: 48 kHz, AC3 Dolby Digital, 3/2 (L,C,R,l,r) + LFE ch, ~448 kbps|Оригинал|Аудио #4: 48 kHz, AC3 Dolby Digital, 3/2 (L,C,R,l,r) + LFE ch, ~448 kbps|MVO - Киномания|Аудио #5: 48 kHz, AC3 Dolby Digital, 3/2 (L,C,R,l,r) + LFE ch, ~448 kbps|Гаврилов Андрей|Аудио #6: 48 kHz, AC3 Dolby Digital, 3/2 (L,C,R,l,r) + LFE ch, ~448 kbps|Дмитрий "Гоблин" Пучков| 3,03 Gb 3 1
25 июля 2016 11:37 Коммандо / Commando (1985) BDRip | Гоблин .torrent   [Информация о файле (нажмите для просмотра)] Перевод: Профессиональный (одноголосый) Гоблин / студия Полный ПэКодек: DivXКачество: BDRipВидео: XviD MPEG-4,1917 Кбит/сек,704x384Звук: (RUS)AC-3,6ch,384 Кбит/секСубтитры: нет 1,46 Gb 5 2
25 июля 2016 11:37 Коммандос / Коммандо / Commando (1985) BDRip 1080p .torrent   [Информация о файле (нажмите для просмотра)] Перевод: авторский (Гаврилов) + профессиональный (многоголосый, закадровый) (лицензия)Кодек: x264Качество: BDRip (источник: Blu-ray Disc)Видео: 1920x1080 (16:9), 23.976 fps, 6200 kbpsАудио #1: 48 kHz, AC-3, 6 ch, 448 kbps (Гаврилов)Аудио #2: 48 kHz, AC-3, 2 ch, 224 kbps (Лицензия)Видео: Идентификатор : 1 Формат : AVC Формат/Информация : Advanced Video Codec Профиль формата : [email protected] Параметр CABAC формата : Да Параметр ReFrames формата : 3 кадра Идентификатор кодека : V_MPEG4/ISO/AVC Продолжительность : 1 ч. 30 м. Битрейт : 6200 Кбит/сек Ширина : 1920 пикс. Высота : 1080 пикс. Соотношение сторон : 16:9 Режим частоты кадров : Переменный Частота кадров : 23,976 кадр/сек Цветовое пространство : YUV Подвыборка цветности : 4:2:0 Битовая глубина : 8 бит Тип развёртки : Прогрессивная Бит/(Пиксели*Кадры) : 0.125 Размер потока : 3,82 Гбайт (88%) Библиотека кодирования : x264 core 96 Настройки программы : cabac=1 / ref=4 / deblock=1:0:0 / analyse=0x3:0x133 / me=tesa / subme=9 / psy=1 / psy_rd=1.00:0.00 / mixed_ref=1 / me_range=32 / chroma_me=1 / trellis=1 / 8x8dct=1 / cqm=0 / deadzone=21,11 / fast_pskip=1 / chroma_qp_offset=-2 / threads=12 / sliced_threads=0 / nr=0 / decimate=1 / interlaced=0 / constrained_intra=0 / bframes=3 / b_pyramid=1 / b_adapt=2 / b_bias=0 / direct=3 / weightb=1 / weightp=2 / keyint=230 / keyint_min=23 / scenecut=40 / intra_refresh=0 / rc_lookahead=40 / rc=2pass / mbtree=1 / bitrate=6200 / ratetol=0.2 / qcomp=0.60 / qpmin=10 / qpmax=51 / qpstep=4 / cplxblur=20.0 / qblur=0.5 / ip_ratio=1.40 / aq=1:1.00 Язык : EnglishАудио #1: Идентификатор : 2 Формат : AC-3 Формат/Информация : Audio Coding 3 Расширение режима : CM (complete main) Идентификатор кодека : A_AC3 Продолжительность : 1 ч. 30 м. Вид битрейта : Постоянный Битрейт : 448 Кбит/сек Каналы : 6 каналов Расположение каналов : Front: L C R, Side: L R, LFE Частота : 48,0 КГц Битовая глубина : 16 бит Метод сжатия : С потерями Размер потока : 289 Мбайт (7%) Заголовок : Гаврилов Язык : RussianАудио #2: Идентификатор : 3 Формат : AC-3 Формат/Информация : Audio Coding 3 Расширение режима : CM (complete main) Идентификатор кодека : A_AC3 Продолжительность : 1 ч. 30 м. Вид битрейта : Постоянный Битрейт : 224 Кбит/сек Каналы : 2 канала Расположение каналов : Front: L R Частота : 48,0 КГц Битовая глубина : 16 бит Метод сжатия : С потерями Размер потока : 145 Мбайт (3%) Заголовок : Лицензия Язык : Russian 4,33 Gb 3 2
25 июля 2016 11:37 Коммандос / Коммандо / Commando (1985) BDRip от HQCLUB .torrent   [Информация о файле (нажмите для просмотра)] Перевод: профессиональный (многоголосый, закадровый) (Киномания) + профессиональный (многоголосый, закадровый) (ОРТ) (отдельно) + профессиональный (многоголосый, закадровый) (лицензия) (отдельно) + авторский (Гаврилов) (отдельно) + авторский (Гоблин) (отдельно) + оригинал (отдельно)Субтитры: русские, английскиеФормат: AVIКачество: BDRip (источник: Torrents.ru / Blu-Ray Remux / 1080p)Видео: 704x384 (1.83:1), 23.976 fps, XviD build 50 ~1847 kbps avg, 0.29 bit/pixelАудио #1: (KINOMANIA) 48 kHz, AC3 Dolby Digital, 3/2 (L,C,R,l,r) + LFE ch, 448.00 kbps avgАудио #2: (ORT) 48 kHz, AC3 Dolby Digital, 3/2 (L,C,R,l,r) + LFE ch, 448.00 kbps avg (отдельно)Аудио #3: (MVO) 48 kHz, AC3 Dolby Digital, 2/0 (L,R) ch, 224.00 kbps avg (отдельно)Аудио #4: (GAVRILOV) 48 kHz, AC3 Dolby Digital, 3/2 (L,C,R,l,r) + LFE ch, 448.00 kbps avg (отдельно)Аудио #5: (GOBLIN) 48 kHz, AC3 Dolby Digital, 3/2 (L,C,R,l,r) + LFE ch, 448.00 kbps avg (отдельно)Аудио #6: (ENG) 48 kHz, AC3 Dolby Digital, 3/2 (L,C,R,l,r) + LFE ch, 448.00 kbps avg (отдельно) 2,72 Gb 3 3
25 июля 2016 11:37 Коммандо / Commando (1985) BDRip от HQ-ViDEO .torrent   [Информация о файле (нажмите для просмотра)] Субтитры: Русские. СПАСИБО 1,45 Gb 3 3
25 июля 2016 11:37 Коммандос / Commando (1985) DVDRip by GENADIY .torrent   [Информация о файле (нажмите для просмотра)] Качество: DVDRipВидео: AVI (XviD), 704x384 (1.83:1), 23.976 fps, XviD build 50 ~1758 kbps avg, 0.27 bit/pixelЗвук #1: Русский (Многоголосый), 48 kHz, AC3 Dolby Digital, 3/2 (L,C,R,l,r) + LFE ch, ~448.00 kbps avg|Неизвестно|Звук #2: Русский (Одноголосый), 48 kHz, AC3 Dolby Digital, 3/2 (L,C,R,l,r) + LFE ch, ~448.00 kbps avg|Гаврылов|Звук #3: Английский (Оригинал), 48 kHz, AC3 Dolby Digital, 3/2 (L,C,R,l,r) + LFE ch, ~448.00 kbps avg 2 Gb 5 2

Скачать фильм Коммандос через торрент в хорошем качестве бесплатно BDRip

piratbit.ru

Размер: 1.7 GB | Добавлен: 4 года 2 мес. назад | Торрент скачан:148 раз
Реклама Дарим 3000 рублей за регистрацию, не упусти свой шанс получить шикарный бонус!!!

09-08-2013 20:38 Коммандос Скачать торрент  

Коммандос / Commando Год выпуска: 1985Страна: СШАЖанр: БоевикПродолжительность: 01:30:15Перевод №1: Профессиональный (дублированный) [Хлопушка]Перевод №2: Авторский (одноголосный) [А.Гаврилов]Перевод №3: Профессиональный (одноголосный) [Д.Пучков ака "Гоблин"]Cубтитры: нет

Режиссер: Марк Л. Лестер / Mark L. Lester

В ролях: Арнольд Шварценеггер (John Matrix), Рей Дон Чон (Cindy), Дэн Хедайя (Arius), Вернон Уэллс (Bennett), Джеймс Олсон (Gen. Franklin Kirby), Дэвид Патрик Келли (Sully), Алисса Милано (Jenny Matrix), Билл Дьюк (Cooke), Дрю Снайдер (Lawson), Шарон Виатт (Leslie), Майкл Делано (Forrestal), Боб Майнор (Jackson)

Описание: Полковник в отставке Джон Матрикс - бывший командир спецотряда, участвовавшего в секретных операциях на Ближнем Востоке, СССР и Центральной Америке. Находясь в отличной физической форме и владея знаниями, которые делают его супер-солдатом, полковник в отставке Джон Матрикс живет под другим именем в большом доме со своей дочерью вдали от города.Но спокойную жизнь нарушает его старый враг, похищая 11-ти летнюю дочь полковника. И вспыхнувший ненавистью Джон Матрикс безжалостно убивает всех, кто становится у него на пути к спасению любимой дочери.

Качество видео: BDRip (источник: /BD-Remux/ 1080p)Формат видео: AVIВидео кодек: XviDАудио кодек: AC3Видео: 704x384 (1.83:1), 23.976 fps, XviD build 50 ~2099 kbps avg, 0.32 bit/pixelАудио №1: 48 kHz, AC3 Dolby Digital, 1/0 (C) ch, ~192.00 kbps avg [Хлопушка]Аудио №2: 48 kHz, AC3 Dolby Digital, 2/0 (L,R) ch, ~192.00 kbps avg [А.Гаврилов]Аудио №3: 48 kHz, AC3 Dolby Digital, 2/0 (L,R) ch, ~192.00 kbps avg [Д.Пучков ака "Гоблин"]

E:Commando.1985.BDRip.[DUB]+[Gavrilov]+[Goblin].aviGeneralComplete name : E:Commando.1985.BDRip.[DUB]+[Gavrilov]+[Goblin].aviFormat : AVIFormat/Info : Audio Video InterleaveFile size : 1.70 GiBDuration : 1h 30mnOverall bit rate : 2 696 KbpsMovie name : Commando.1985.BDRip.[DUB]+[Gavrilov]+[Goblin].aviWriting application : VirtualDubMod 1.5.10.3 (build 2550/release)Writing library : VirtualDubMod build 2550/releaseVideo #0ID : 0Format : MPEG-4 VisualFormat profile : Advanced [email protected] settings, BVOP : 1Format settings, QPel : NoFormat settings, GMC : No warppointsFormat settings, Matrix : CustomCodec ID : XVIDCodec ID/Hint : XviDDuration : 1h 30mnBit rate : 2 101 KbpsWidth : 704 pixelsHeight : 384 pixelsDisplay aspect ratio : 1.85:1Frame rate : 23.976 fpsColor space : YUVChroma subsampling : 4:2:0Bit depth : 8 bitsScan type : ProgressiveCompression mode : LossyBits/(Pixel*Frame) : 0.324Stream size : 1.32 GiB (78%)Writing library : XviD 1.2.1 (UTC 2008-12-04)Audio #1ID : 1Format : AC-3Format/Info : Audio Coding 3Mode extension : CM (complete main)Format settings, Endianness : BigCodec ID : 2000Duration : 1h 30mnBit rate mode : ConstantBit rate : 192 KbpsChannel(s) : 1 channelChannel positions : Front: CSampling rate : 48.0 KHzBit depth : 16 bitsCompression mode : LossyStream size : 124 MiB (7%)Alignment : Split accross interleavesInterleave, duration : 42 ms (1.00 video frame)Interleave, preload duration : 500 msAudio #2ID : 2Format : AC-3Format/Info : Audio Coding 3Mode extension : CM (complete main)Format settings, Endianness : BigCodec ID : 2000Duration : 1h 30mnBit rate mode : ConstantBit rate : 192 KbpsChannel(s) : 2 channelsChannel positions : Front: L RSampling rate : 48.0 KHzBit depth : 16 bitsCompression mode : LossyStream size : 124 MiB (7%)Alignment : Split accross interleavesInterleave, duration : 42 ms (1.00 video frame)Interleave, preload duration : 500 msAudio #3ID : 3Format : AC-3Format/Info : Audio Coding 3Mode extension : CM (complete main)Format settings, Endianness : BigCodec ID : 2000Duration : 1h 30mnBit rate mode : ConstantBit rate : 192 KbpsChannel(s) : 2 channelsChannel positions : Front: L RSampling rate : 48.0 KHzBit depth : 16 bitsCompression mode : LossyStream size : 124 MiB (7%)Alignment : Split accross interleavesInterleave, duration : 42 ms (1.00 video frame)Interleave, preload duration : 500 ms

Скачать Коммандос через торрент http://s001.radikal.ru/i195/1308/38/a27db20d93a7.jpg Скачать фильм Коммандос через торрент бесплантно в хорошем качестве Описание: Полковник в отставке Джон Матрикс - бывший командир спецотряда, участвовавшего в секретных операциях на Ближнем Востоке, СССР и ... 2013-08-09 20:38 9.9 10 22

Loading...

Loading...

Рекламный пират

09-08-2013 20:53 Коммандос Скачать торрент  

1920*1080 в студию и качать будут ... >

09-08-2013 21:00 Коммандос Скачать торрент  

gara4227 писал(а):

1920*1080 в студию и качать будут ... >

идите на хдклаб и качайте себе спокойно блюрэй по 40 гиг а большинство качают и не жалуются

10-08-2013 04:30 Коммандос Скачать торрент  

gara4227

Пока устное !!!

10-08-2013 04:39 Коммандос Скачать торрент  

фигню не пишите,а? как фильм?

10-12-2013 21:15 Коммандос Скачать торрент  

с гоблином даже старые, давно изученные фильмы смотрятся по-новому! Спасибки за раздачу, буду поддерживать!!! Всё-таки на этих фильмах вырос. Ах да дубляж просто ужас, именно голоса, а перевод на высоте. Был удивлён так же качеством картинки, для такого размера и количества дорог изображение чёткое

Дорогой пользователь! Огромная просьба, поблагодарите релизера, оцените раздачу и оставьте свои комментарий, если Вы скачали Коммандос через торрент бесплатно! Внесите свою лепту в развитие PiratBit!

Комментировать посты могут только пользователи прошедшие не сложную регистрацию

Коммандос через торрент Скачать бесплатно Коммандос Коммандос скачать торрент Коммандос смотреть онлайн Cкачать фильм Коммандос бесплатно Коммандос скачать торрент в хорошем качестве Коммандос смотреть онлайн бесплатно в хорошем качестве

Вы не можете начинать темыВы не можете отвечать на сообщенияВы не можете редактировать свои сообщенияВы не можете удалять свои сообщенияВы не можете голосовать в опросахВы не можете прикреплять файлы к сообщениямВы можете скачивать файлы

Скачать Коммандос через торрент - фильм в хорошем качестве

Категория: Фильмы 4245 0 Торрент добавлен: 20-04-2015 Рейтинг:

1985 / боевик, триллер / 90 мин.Оригинальное название: CommandoРежиссер: Марк Л. ЛестерВ ролях: Арнольд Шварценеггер, Рей Дон Чон, Дэн Хедайя, Вернон Уэллс, Джеймс Олсон, Дэвид Патрик Келли, Алисса Милано, Билл Дьюк, Дрю Снайдер, Шарон Виатт

Джон Матрикс – полковник в отставке, который обладает отличной боевой подготовкой, ведь не зря он командовал спецотрядом, который успешно выполнял сложные миссии во всех точках Земли. Джон живет в тихом местечке со своей маленькой дочкой. Однако их покой потревожил старый противник Матрикса, который заставляет выполнить его убийство человека и для убедительности берет дочь в заложники. Но Джон знает, что даже если он все-таки сделает, о чем его попросил похититель, все равно его дочь убьют, а потом и его самого, поэтому он сразу же направился туда, где держат его любимую дочь.

Трейлер к фильму Коммандос

Коммандос скачать торрент

Кодек: x264Качество: BDRip (источник: BD-Remux)Видео: 1916x1040 (1,85:1), 23.976 fps, 11,5 MbpsАудио #1: AC-3, 2 ch, 192 kbps (Rus) R5Профессиональный многоголосый закадровый + Оригинал 7,76 Gb

скачать

Качество: DVD9Видео: MPEG2 Video 720x480 (16:9) 29.97fps 9200KbpsАудио: Dolby AC3 48000Hz 6ch 448KbpsПрофессиональный, многоголосый + Авторский (Гаврилов)

6,98 Gb

ГоблинКодек: XviDКачество: HDRip - исх. BDRip 1080pВидео: 656x352 (1.86:1), 23.976 fps, XviD build 50 ~972 kbps avg, 0.17 bit/pixelЗвук: 48 kHz, MPEG Layer 3, 2 ch, ~128.00 kbps avg. Авторский (одноголосый закадровый)

716 Mb

Кодек: MKV, H.264Качество: BDRip-AVCВидео: MPEG-4 AVC, 1860 Кбит/с, 1024x552Звук: AC3, 6 ch, 448 Кбит/сПрофессиональный многоголосый

Вы находитесь на странице, где можете совершенно бесплатно скачать фильм Коммандос в хорошем качестве через торрент, в любом формате, который больше всего вам на данный момент подходит. Скачивание осуществляется через торрент, что означает максимально высокую скорость загрузки. Желаем Вам приятного просмотра!. Не забудь поделиться своими впечатлениями после того как посмотришь фильм Коммандос.

Информация Посетители, находящиеся в группе Гости, не могут оставлять комментарии к данной публикации.

psp-gu.ru

/ Commando (1985) BDRip 1080p

: . / Mark L. Lester

: (John Matrix), (Cindy), (Arius), (Bennett), (Major General Franklin Kirby), (Sully), (Jenny Matrix), (Cooke), (Lawson), (Leslie), (Forrestal), (Jackson)

: , , , , , , , , ...

: BDRip 1080p / 60 FPS: MKV : AVC :AC3: AVC, 1920x1040 (16:9), 14000 kbps, 59,940 fps, 0,114 bpp 1: / AC3 / 5.1 / 48 kHz / 640 kbps / 16 bit |, | 2: / AC3 / 2.0 / 48 kHz / 192 kbps / 16 bit |, R5| 3: / AC3 / 5.1 / 48 kHz / 640 kbps / 16 bit |, | 4: / AC3 / 5.1 / 48 kHz / 640 kbps / 16 bit :

GeneralUnique ID : 236750160837378266361078106483281903419 (0xB21C6C2307C260B8A3D79AD566F03F3B)Complete name : A:1080p 60fps 1080p 60fps.mkvFormat : MatroskaFormat version : Version 4 / Version 2File size : 10.2 GiBDuration : 1h 30mnOverall bit rate : 16.1 MbpsEncoded date : UTC 2014-12-25 07:05:20Writing application : mkvmerge v7.4.0 ('Circles') 64bit built on Dec 12 2014 12:19:56Writing library : libebml v1.3.0 + libmatroska v1.4.1Attachements : Cover.png

VideoID : 1Format : AVCFormat/Info : Advanced Video CodecFormat profile : [email protected]Format settings, CABAC : YesFormat settings, ReFrames : 4 framesCodec ID : V_MPEG4/ISO/AVCDuration : 1h 30mnBit rate : 13.7 MbpsWidth : 1 920 pixelsHeight : 1 040 pixelsDisplay aspect ratio : 1.85:1Frame rate mode : ConstantFrame rate : 60.000 fpsOriginal frame rate : 59.940 fpsColor space : YUVChroma subsampling : 4:2:0Bit depth : 8 bitsScan type : ProgressiveBits/(Pixel*Frame) : 0.114Stream size : 8.64 GiB (85%)Title : 60fpsLanguage : EnglishDefault : YesForced : No

Audio #1ID : 2Format : AC-3Format/Info : Audio Coding 3Mode extension : CM (complete main)Format settings, Endianness : BigCodec ID : A_AC3Duration : 1h 30mnBit rate mode : ConstantBit rate : 640 KbpsChannel(s) : 6 channelsChannel positions : Front: L C R, Side: L R, LFESampling rate : 48.0 KHzBit depth : 16 bitsCompression mode : LossyDelay relative to video : 14msStream size : 413 MiB (4%)Title : , Language : RussianDefault : YesForced : No

Audio #2ID : 3Format : AC-3Format/Info : Audio Coding 3Mode extension : CM (complete main)Format settings, Endianness : BigCodec ID : A_AC3Duration : 1h 30mnBit rate mode : ConstantBit rate : 192 KbpsChannel(s) : 2 channelsChannel positions : Front: L RSampling rate : 48.0 KHzBit depth : 16 bitsCompression mode : LossyDelay relative to video : 14msStream size : 124 MiB (1%)Title : , R5Language : RussianDefault : NoForced : No

Audio #3ID : 4Format : AC-3Format/Info : Audio Coding 3Mode extension : CM (complete main)Format settings, Endianness : BigCodec ID : A_AC3Duration : 1h 30mnBit rate mode : ConstantBit rate : 640 KbpsChannel(s) : 6 channelsChannel positions : Front: L C R, Side: L R, LFESampling rate : 48.0 KHzBit depth : 16 bitsCompression mode : LossyDelay relative to video : 14msStream size : 413 MiB (4%)Title : , Language : RussianDefault : NoForced : No

Audio #4ID : 5Format : AC-3Format/Info : Audio Coding 3Mode extension : CM (complete main)Format settings, Endianness : BigCodec ID : A_AC3Duration : 1h 30mnBit rate mode : ConstantBit rate : 640 KbpsChannel(s) : 6 channelsChannel positions : Front: L C R, Side: L R, LFESampling rate : 48.0 KHzBit depth : 16 bitsCompression mode : LossyDelay relative to video : 14msStream size : 413 MiB (4%)Title : Language : EnglishDefault : NoForced : No

Text #1ID : 6Format : UTF-8Codec ID : S_TEXT/UTF8Codec ID/Info : UTF-8 Plain TextTitle : Language : RussianDefault : NoForced : No

Text #2ID : 7Format : UTF-8Codec ID : S_TEXT/UTF8Codec ID/Info : UTF-8 Plain TextTitle : Language : EnglishDefault : NoForced : No

Menu00:00:00.000 : en:Hit Men00:04:12.842 : en:Main Titles00:08:14.082 : en:Kirby Comes Calling00:11:24.356 : en:Bushwhacked00:16:33.707 : en:A Job For Matrix00:19:14.784 : en:At the Airport00:22:44.954 : en:Emergency Exit00:26:40.273 : en:Tailing Sully00:29:01.246 : en:Cindy's Car00:32:12.772 : en:Panic at the Galleria00:37:37.803 : en:Hot Pursuit00:43:57.225 : en:Cooke00:49:12.998 : en:Patria Enterprises00:53:43.895 : en:Shopping Spree00:56:30.353 : en:Jailbreak00:59:12.515 : en:A Canoe With Wings01:04:43.386 : en:Soft Landing01:06:56.562 : en:Storming the Beach01:10:19.972 : en:An Explosive Presence01:12:50.624 : en:A Force of One01:17:46.252 : en:Taking on Arius01:19:46.204 : en:'Let's Party'01:24:35.369 : en:A Better Offer01:26:53.298 : en:End Titles

filmtor.net


Смотрите также