Скачать кино очень страшное через торрент бесплатно в хорошем качестве


Очень страшное кино 5 2013

www.kinovit.net

Название: Очень страшное кино 5 / Scary MoVie (2013) BDRip 720p от leonardo 59 & Scarabey | Лицензия
Качество видео: BDRip 720p Исходник: Blu-ray
Перевод: Профессиональный (полное дублирование)
Формат видео: MKV Видео кодек: MPEG-4 AVC Аудио кодек: AC3
Видео: AVC, 1280x720 (16:9) at 24.000 fps, AVC at 3816 kbps avg, 0.173 bit/pixel
Аудио: 48 kHz, AC3 Dolby Digital, 3/2 (L,C,R,l,r) + LFE ch, 448.00 kbps - Russian
Скачать

Загрузка начнется в течение 5 сек.

2.61 GB

Название: Очень страшное кино 5 / Scary Movie (2013) BDRip 1080p
Качество видео: BDRip (источник: Blu-ray Disc)
Перевод: Дублированный
Видео: x264 1920x1080 (16:9), 24.000 fps (True24p), 9161 kbps
Аудио: AC-3, 6 ch, 448 kbps (Дубляж)
Скачать

Загрузка начнется в течение 5 сек.

5.75 GB

Название: Очень страшное кино 5 / Scary MoVie (2013) BDRip-AVC
Качество видео: BDRip-AVC
Перевод: Профессиональный (полное дублирование) Лицензия
Видео: H.264 768x432 (16:9), 24 fps, x264 ~1 146 kbps avg, 0.144 bit/pixel
Аудио: 48.0 KHz / 24.0 KHz, AAC-HE, 2 ch, (L R) ~72 kbps avg
Скачать

Загрузка начнется в течение 5 сек.

747.98 MB

Название: Очень страшное кино 5 / Scary MoVie (2013) HDRip от Youtracker | D | Лицензия
Качество видео: HDRip
Перевод: Профессиональный (дублированный)
Формат видео: AVI
Видео: 720x400, 24 fps, XviD build 65 ~1974 kbps avg, 0.286 bit/pixel
Аудио: 48 kHz, AC3 Dolby Digital, 3/2 (L,C,R,l,r) + LFE ch, ~448 kbps
Скачать

Загрузка начнется в течение 5 сек.

1.46 GB

Название: Очень страшное кино 5 / Scary MoVie (2013) HDRip от Scarabey | D | Лицензия
Качество видео: HDRip
Перевод: Профессиональный (дублированный)
Формат видео: AVI
Видео: 656x368 (1.78:1), 24 fps, XviD build 73 ~1075 kbps avg, 0.19 bit/pixel
Аудио: 48 kHz, MPEG Layer 3, 2 ch, ~128.00 kbps avg
Скачать

Загрузка начнется в течение 5 сек.

743.90 MB

Название: Очень страшное кино 5 / Scary MoVie (2013) HDRip от Scarabey | D | Лицензия
Качество видео: HDRip
Перевод: Профессиональный (дублированный)
Формат видео: AVI
Видео: 720x400 (1.80:1), 24 fps, XviD build 73 ~1960 kbps avg, 0.28 bit/pixel
Аудио: 48 kHz, AC3 Dolby Digital, 3/2 (L,C,R,l,r) + LFE ch, ~448 kbps
Скачать

Загрузка начнется в течение 5 сек.

1.45 GB

Название: Очень страшное кино 5 / Scary MoVie (2013) HDRip от INTERCINEMA | Лицензия
Качество видео: HDRip
Перевод: Дублированное [Лицензия]
Видео: XviD, 1823 Кбит/с, 720x400
Аудио: AC3, 6 ch, 448 Кбит/с
Скачать

Загрузка начнется в течение 5 сек.

1.37 GB

Название: Очень страшное кино 5 / Scary MoVie (2013) Blu-ray 1080p от Youtracker и HDCLUB
Качество видео: Blu-ray 1080p
Перевод: Профессиональный (дублированный)
Формат видео: BDAV
Видео: 1920x1080, MPEG-4 AVC Video 15874 kbps 1080p / 24 fps / 16:9 / Main Profile 4.1
Аудио: DTS-HD Master Audio Russian 1923 kbps 5.1 / 48 kHz / 1923 kbps / 16-bit (DTS Core: 5.1 / 48 kHz / 1509 kbps / 16-bit)
Скачать

Загрузка начнется в течение 5 сек.

12.77 GB

Название: Очень страшное кино 5 / Scary MoVie (2013) BDRemux 1080p от Youtracker
Качество видео: BDRemux 1080p
Перевод: Профессиональный (дублированный)
Формат видео: MKV
Видео: 1920x1080, MPEG-4 AVC Video 15874 kbps 1080p / 24 fps / 16:9 / Main Profile 4.1
Аудио: DTS-HD Master Audio Russian 1923 kbps 5.1 / 48 kHz / 1923 kbps / 16-bit (DTS Core: 5.1 / 48 kHz / 1509 kbps / 16-bit)
Скачать

Загрузка начнется в течение 5 сек.

10.66 GB

Название: Очень страшное кино 5 / Scary MoVie (2013) HDRip от Generalfilm | КПК | Лицензия
Качество видео: HDRip КПК
Перевод: Дублированный [Лицензия]
Видео: AVC AVC, 640x360 (16/9), 24.000 fps, 449 Kbps (0.081 bit/pixel)
Аудио: AAC LC, 48.0 KHz, 2 ch, 128 Kbps, VBR
Скачать

Загрузка начнется в течение 5 сек.

355.36 MB

Название: Очень страшное кино 5 / Scary MoVie (2013) DVD5 R5 от Youtracker | лицензия
Качество видео: DVD5 R5
Перевод: Профессиональный (дублированный)
Формат видео: DVD Video
Видео: PAL 16x9 (720х576) VBR ~ 5600 kbps, Auto Letterboxed
Аудио: 48 kHz, Dolby AC3, 6 ch, 448 kbps, русский48 kHz, DTS, 6 ch, 768 kbps, русский
Скачать

Загрузка начнется в течение 5 сек.

4.36 GB

Название: Очень страшное кино 5 / Scary MoVie (2013) TS
Качество видео: TS
Перевод: Дублированное
Формат видео: AVI (XviD)
Видео: 2269 kb/s, 720x384
Аудио: Russian/English: MP3, 256 kb/s (2 ch)
Скачать

Загрузка начнется в течение 5 сек.

1.37 GB

Очень страшное кино 3 через торрент

piratbit.ru

Размер: 700 MB | Добавлен: 7 лет назад | Торрент скачан:2 раза
Реклама Дарим 3000 рублей за регистрацию, не упусти свой шанс получить шикарный бонус!!!

04-10-2010 18:31 Очень страшное кино 3 Скачать торрент  

Очень страшное кино 3 / Scary Movie 3Год выпуска: 2003Страна: СШАЖанр: Ужасы / КомедияПродолжительность: 01:24:08Перевод: Профессиональный (многоголосый, закадровый)Режиссер: Дэвид Цукер

В ролях: Чарли Шин, Анна Фарис, Памела Андерсон, Дженни МакКарти, Джереми Пайвен, Саймон Рекс, Эдди Гриффин, Куин Латифа, Мейси Грей, Реджина Холл, Энтони Андерсон и др.

[img]http:// СПАМ votes)[/url]Описание: Журналистка Синди Кэмпбелл охвачена желанием сделать скандальный репортаж о каком-нибудь мировом заговоре и открыть самые секретные материалы! Кто ищет, тот всегда найдёт: вскоре Синди становится свидетельницей необъяснимых явлений.На Землю вот-вот высадится десант зловещих инопланетян, на полях появились странные концентрические круги, некий Избранный пророчит нехорошее всему человечеству, дети со странными глазами пугают взрослых, под угрозой жизнь самого Президента, а амбициозные белые рэперы совершили подозрительный прорыв в мире шоу-бизнеса! Зло наступает со всех сторон, и Синди должна сражаться, чтобы спасти мир еще раз!Качество: DVDRipФормат: AVIВидео кодек: DivXАудио кодек: MPEG AudioВидео: 512x288 (1.78:1), 23.976 fps, DivX Codec 5.2~1018 kbps avg, 0.29 bit/pixelАудио: 48 kHz, MPEG Layer 3.2ch, ~131.36 kbps avg

* Персонаж Энтони Андерсона имел такой успех на тест-просмотрах, что было решено в срочном порядке снять дополнительные сцены с его участием, хотя фильм уже находился на стадии постпродакшена.* В этой картине сыграла Дженни МакКарти, которая отказалась от роли в первой серии ради того, чтобы принять участие в «Крике 3» (2000).* Поработать над сценарием фильма было предложено Кевину Смиту.* Финальная фраза героя Лесли Нилсена «Я просто хочу пожелать вам удачи, мы все рассчитываем на вас!» звучала в конце фильма «Аэроплан» (1980), который также поставил Дэвид Цукер.* В рекламном ролике картины была сцена, в которой прорицательница замахивается на своего мужа сковородкой. В прокатную версию этот эпизод не вошел.* Был снят довольно длинный альтернативный финал, где пародировались ленты «Игры разума», «Халк», и «Матрица: перезагрузка». Однако от него в итоге пришлось отказаться.* Рабочим названием картины было «Scary Movie 3: Episode I — Lord of the Brooms» (Очень страшное кино 3: Эпизод I - Властелин метел).* Съемки картины начались в марте 2003 в Ванкувере, а закончились в начале июля того же года.

Скачать Очень страшное кино 3 через торрент http://i081.radikal.ru/0909/b6/c293d499d6d5.jpg Скачать фильм Очень страшное кино 3 через торрент бесплантно в хорошем качестве Описание: Журналистка Синди Кэмпбелл охвачена желанием сделать скандальный репортаж о каком-нибудь мировом заговоре и открыть самые ... 2010-10-04 18:31 9.8 10 4

Loading...

Loading...

Последний раз редактировалось: Dima100kg (2010-10-04 19:42), всего редактировалось 2 раз(а)

Рекламный пират

04-10-2010 18:51 Очень страшное кино 3 Скачать торрент  

Dima100kgСделайте сэмпл.

04-10-2010 18:56 Очень страшное кино 3 Скачать торрент  

спасибо!!!!!!!!!!!!

Дорогой пользователь! Огромная просьба, поблагодарите релизера, оцените раздачу и оставьте свои комментарий, если Вы скачали Очень страшное кино 3 через торрент бесплатно! Внесите свою лепту в развитие PiratBit!

Комментировать посты могут только пользователи прошедшие не сложную регистрацию

Очень страшное кино 3 через торрент Скачать бесплатно Очень страшное кино 3 Очень страшное кино 3 скачать торрент Очень страшное кино 3 смотреть онлайн Cкачать фильм Очень страшное кино 3 бесплатно Очень страшное кино 3 скачать торрент в хорошем качестве Очень страшное кино 3 смотреть онлайн бесплатно в хорошем качестве

Вы не можете начинать темыВы не можете отвечать на сообщенияВы не можете редактировать свои сообщенияВы не можете удалять свои сообщенияВы не можете голосовать в опросахВы не можете прикреплять файлы к сообщениямВы можете скачивать файлы

Скачать фильм Очень страшное кино 5 (2013) через торрент

gig-torrent.net

1 февраля 2016 11:53 Очень страшное кино 5 / Scary Movie (2013) BDRip 1080p .torrent   [Информация о файле (нажмите для просмотра)] Перевод: ДублированныйКодек: x264Качество: BDRip (источник: Blu-ray Disc)Видео: 1920x1080 (16:9), 24.000 fps (True24p), 9161 kbpsАудио: AC-3, 6 ch, 448 kbps (Дубляж)Субтитры: ОтсутствуютВидео: Идентификатор : 1 Формат : AVC Формат/Информация : Advanced Video Codec Профиль формата : [email protected] Параметр CABAC формата : Да Параметр ReFrames формата : 4 кадра Идентификатор кодека : V_MPEG4/ISO/AVC Продолжительность : 1 ч. 25 м. Битрейт : 9161 Кбит/сек Ширина : 1920 пикселей Высота : 1080 пикселей Соотношение сторон : 16:9 Режим частоты кадров : Постоянный Частота кадров : 24,000 кадра/сек Цветовое пространство : YUV Субдискретизация насыщенности : 4:2:0 Битовая глубина : 8 бит Тип развёртки : Прогрессивная Бит/(Пиксели*Кадры) : 0.184 Размер потока : 5,37 Гбайт (93%) Заголовок : Release by N1NT3NDO Библиотека кодирования : x264 core 135 r2345 f0c1c53 Настройки программы : cabac=1 / ref=4 / deblock=1:-3:-3 / analyse=0x3:0x133 / me=umh / subme=10 / psy=1 / psy_rd=1.00:0.00 / mixed_ref=1 / me_range=32 / chroma_me=1 / trellis=2 / 8x8dct=1 / cqm=0 / deadzone=21,11 / fast_pskip=0 / chroma_qp_offset=-2 / threads=12 / lookahead_threads=1 / sliced_threads=0 / nr=0 / decimate=0 / interlaced=0 / bluray_compat=0 / constrained_intra=0 / bframes=6 / b_pyramid=2 / b_adapt=2 / b_bias=0 / direct=3 / weightb=1 / open_gop=0 / weightp=2 / keyint=240 / keyint_min=24 / scenecut=40 / intra_refresh=0 / rc=2pass / mbtree=0 / bitrate=9161 / ratetol=1.0 / qcomp=0.60 / qpmin=0 / qpmax=69 / qpstep=4 / cplxblur=20.0 / qblur=0.5 / ip_ratio=1.40 / pb_ratio=1.30 / aq=1:0.70 Язык : English Default : Да Forced : НетАудио: Идентификатор : 2 Формат : AC-3 Формат/Информация : Audio Coding 3 Расширение режима : CM (complete main) Параметр Endianness формата : Big Идентификатор кодека : A_AC3 Продолжительность : 1 ч. 25 м. Вид битрейта : Постоянный Битрейт : 448 Кбит/сек Каналы : 6 каналов Расположение каналов : Front: L C R, Side: L R, LFE Частота : 48,0 КГц Битовая глубина : 16 бит Метод сжатия : С потерями Размер потока : 275 Мбайт (5%) Заголовок : Rus Язык : Russian Default : Да Forced : Нет 5,75 Gb 39 8
1 февраля 2016 11:53 Очень страшное кино 5 / Scary MoVie (2013) BDRip 720p от leonardo 59 & Scarabey | Лицензия.torrent   [Информация о файле (нажмите для просмотра)] Перевод: Профессиональный (полное дублирование)Формат: MKVВидео кодек: MPEG-4 AVC Аудио кодек: AC3Видео: AVC, 1280x720 (16:9) at 24.000 fps, AVC at 3816 kbps avg, 0.173 bit/pixelАудио: 48 kHz, AC3 Dolby Digital, 3/2 (L,C,R,l,r) + LFE ch, 448.00 kbps - RussianСубтитры: Русские, английские 2,61 Gb 45 2
1 февраля 2016 11:53 Очень страшное кино 5 / Scary MoVie (2013) BDRip-AVC .torrent   [Информация о файле (нажмите для просмотра)] Перевод: Профессиональный (полное дублирование)ЛицензияКодек: H.264Качество: BDRip-AVCВидео: 768x432 (16:9), 24 fps, x264 ~1 146 kbps avg, 0.144 bit/pixelЗвук: 48.0 KHz / 24.0 KHz, AAC-HE, 2 ch, (L R) ~72 kbps avg 747,98 Mb 23 4
1 февраля 2016 11:53 Очень страшное кино 5 / Scary MoVie (2013) HDRip от New-Team | D | Лицензия .torrent   [Информация о файле (нажмите для просмотра)] Перевод: Профессиональный (дублированный)Качество: HDRipФормат: AVIВидео: 720x400, 24 fps, XviD build 65 ~1974 kbps avg, 0.286 bit/pixelАудио: 48 kHz, AC3 Dolby Digital, 3/2 (L,C,R,l,r) + LFE ch, ~448 kbpsВидео: Идентификатор : 0 Формат : MPEG-4 Visual Профиль формата : Advanced [email protected] Параметр BVOP формата : 1 Параметр QPel формата : Нет Параметр GMC формата : Без точки перехода Параметр матрицы формата : Выборочная Идентификатор кодека : XVID Идентификатор кодека/Подсказка : XviD Продолжительность : 1 ч. 25 м. Битрейт : 1974 Кбит/сек Ширина : 720 пикселей Высота : 400 пикселей Соотношение сторон : 16:9 Частота кадров : 24,000 кадра/сек Цветовое пространство : YUV Субдискретизация насыщенности : 4:2:0 Битовая глубина : 8 бит Тип развёртки : Прогрессивная Метод сжатия : С потерями Бит/(Пиксели*Кадры) : 0.286 Размер потока : 1,18 Гбайт (81%) Библиотека кодирования : XviD 65Аудио: Идентификатор : 1 Формат : AC-3 Формат/Информация : Audio Coding 3 Расширение режима : CM (complete main) Параметр Endianness формата : Big Идентификатор кодека : 2000 Продолжительность : 1 ч. 25 м. Вид битрейта : Постоянный Битрейт : 448 Кбит/сек Каналы : 6 каналов Расположение каналов : Front: L C R, Side: L R, LFE Частота : 48,0 КГц Битовая глубина : 16 бит Метод сжатия : С потерями Размер потока : 275 Мбайт (18%) Выравнивание : Разделение по промежуткам Продолжительность промежутка : 42 мс. (1,00 видеокадр) Время предзагрузки промежутка : 500 мс. 1,46 Gb 79 1
1 февраля 2016 11:53 Очень страшное кино 5 / Scary MoVie (2013) HDRip от Scarabey | D | Лицензия .torrent   [Информация о файле (нажмите для просмотра)] Перевод: Профессиональный (дублированный)Качество: HDRipФормат: AVIВидео: 656x368 (1.78:1), 24 fps, XviD build 73 ~1075 kbps avg, 0.19 bit/pixelАудио: 48 kHz, MPEG Layer 3, 2 ch, ~128.00 kbps avg 743,9 Mb 26 2
1 февраля 2016 11:53 Очень страшное кино 5 / Scary MoVie (2013) HDRip от Scarabey | D | Лицензия .torrent   [Информация о файле (нажмите для просмотра)] Перевод: Профессиональный (дублированный)Качество: HDRipФормат: AVIВидео: 720x400 (1.80:1), 24 fps, XviD build 73 ~1960 kbps avg, 0.28 bit/pixelАудио: 48 kHz, AC3 Dolby Digital, 3/2 (L,C,R,l,r) + LFE ch, ~448 kbps 1,45 Gb 31 4
1 февраля 2016 11:53 Очень страшное кино 5 / Scary Movie 5 (2013) BDRip 720p | Лицензия .torrent   [Информация о файле (нажмите для просмотра)] Качество: BDRip (720p)Видео: MPEG-4 AVC, 5000 Кбит/с, 1280x720Аудио: DTS, 6 ch, 1510 Кбит/сПеревод: Дублированный [лицензия]Видео: Идентификатор : 1 Формат : AVC Формат/Информация : Advanced Video Codec Профиль формата : [email protected] Параметр CABAC формата : Да Параметр ReFrames формата : 9 кадров Идентификатор кодека : V_MPEG4/ISO/AVC Продолжительность : 1 ч. 25 м. Битрейт : 5000 Кбит/сек Ширина : 1280 пикселей Высота : 720 пикселей Соотношение сторон : 16:9 Режим частоты кадров : Постоянный Частота кадров : 24,000 кадра/сек Цветовое пространство : YUV Субдискретизация насыщенности : 4:2:0 Битовая глубина : 8 бит Тип развёртки : Прогрессивная Бит/(Пиксели*Кадры) : 0.226 Размер потока : 2,92 Гбайт (75%) Заголовок : -=Rip by GIU=- Библиотека кодирования : x264 core 133 r2334 a3ac64b Настройки программы : cabac=1 / ref=9 / deblock=1:-3:-3 / analyse=0x3:0x113 / me=umh / subme=11 / psy=1 / psy_rd=1.00:0.50 / mixed_ref=1 / me_range=32 / chroma_me=1 / trellis=2 / 8x8dct=1 / cqm=0 / deadzone=21,11 / fast_pskip=1 / chroma_qp_offset=-4 / threads=12 / lookahead_threads=2 / sliced_threads=0 / nr=0 / decimate=1 / interlaced=0 / bluray_compat=0 / constrained_intra=0 / bframes=8 / b_pyramid=2 / b_adapt=2 / b_bias=0 / direct=3 / weightb=0 / open_gop=0 / weightp=2 / keyint=240 / keyint_min=24 / scenecut=50 / intra_refresh=0 / rc_lookahead=40 / rc=2pass / mbtree=1 / bitrate=5000 / ratetol=1.0 / qcomp=0.80 / qpmin=0 / qpmax=69 / qpstep=4 / cplxblur=20.0 / qblur=0.5 / ip_ratio=1.40 / aq=1:1.00 Язык : English Default : Нет Forced : НетАудио: Идентификатор : 2 Формат : DTS Формат/Информация : Digital Theater Systems Режим : 16 Параметр Endianness формата : Big Идентификатор кодека : A_DTS Продолжительность : 1 ч. 25 м. Вид битрейта : Постоянный Битрейт : 1509 Кбит/сек Каналы : 6 каналов Расположение каналов : Front: L C R, Side: L R, LFE Частота : 48,0 КГц Битовая глубина : 16 бит Метод сжатия : С потерями Размер потока : 926 Мбайт (23%) Заголовок : DTS.1509.Kbps (6ch) Russian Язык : Russian Default : Да Forced : Нет 3,9 Gb 22 3
1 февраля 2016 11:53 Очень страшное кино 5 / Scary Movie 5 (2013) BDRip-AVC от potroks | D | Лицензия .torrent   [Информация о файле (нажмите для просмотра)] Перевод: Профессиональный (полное дублирование)Качество: BDRip-AVC [SCARY MOVIE 5_HDCLUB]Формат: MKVВидео: H.264, 1088x612 (16:9), 24,000 fps, 3190 Кbps, 0.200 bit/pixelАудио: 48 kHz, AC3 Dolby Digital, 3/2 (L,C,R,l,r) + LFE ch, 448.00 kbpsВидео: Идентификатор : 1 Формат : AVC Формат/Информация : Advanced Video Codec Профиль формата : [email protected] Параметр CABAC формата : Да Параметр ReFrames формата : 9 кадров Идентификатор кодека : V_MPEG4/ISO/AVC Продолжительность : 1 ч. 25 м. Битрейт : 3190 Кбит/сек Ширина : 1088 пикселей Высота : 612 пикселей Соотношение сторон : 16:9 Режим частоты кадров : Постоянный Частота кадров : 24,000 кадра/сек Цветовое пространство : YUV Субдискретизация насыщенности : 4:2:0 Битовая глубина : 8 бит Тип развёртки : Прогрессивная Бит/(Пиксели*Кадры) : 0.200 Размер потока : 1,87 Гбайт (86%) Заголовок : Scary Movie 5 Библиотека кодирования : x264 core 128 r2216M 198a7ea Настройки программы : cabac=1 / ref=10 / deblock=1:-2:-2 / analyse=0x3:0x133 / me=umh / subme=11 / psy=1 / psy_rd=1.08:0.05 / mixed_ref=1 / me_range=32 / chroma_me=1 / trellis=2 / 8x8dct=1 / cqm=0 / deadzone=21,11 / fast_pskip=0 / chroma_qp_offset=-3 / threads=6 / lookahead_threads=1 / sliced_threads=0 / nr=0 / decimate=0 / interlaced=0 / bluray_compat=0 / constrained_intra=0 / bframes=11 / b_pyramid=1 / b_adapt=2 / b_bias=0 / direct=3 / weightb=1 / open_gop=0 / weightp=2 / keyint=240 / keyint_min=24 / scenecut=40 / intra_refresh=0 / rc_lookahead=150 / rc=2pass / mbtree=1 / bitrate=3190 / ratetol=1.0 / qcomp=0.70 / qpmin=0 / qpmax=69 / qpstep=4 / cplxblur=20.0 / qblur=0.5 / vbv_maxrate=20000 / vbv_bufsize=25000 / nal_hrd=none / ip_ratio=1.35 / aq=1:0.85 Язык : English Default : Да Forced : НетАудио: Идентификатор : 2 Формат : AC-3 Формат/Информация : Audio Coding 3 Расширение режима : CM (complete main) Параметр Endianness формата : Big Идентификатор кодека : A_AC3 Продолжительность : 1 ч. 25 м. Вид битрейта : Постоянный Битрейт : 448 Кбит/сек Каналы : 6 каналов Расположение каналов : Front: L C R, Side: L R, LFE Частота : 48,0 КГц Битовая глубина : 16 бит Метод сжатия : С потерями Размер потока : 275 Мбайт (12%) Заголовок : Dub | DD 5.1 @ 448 kbps Язык : Russian Default : Да Forced : Да 2,18 Gb 17 1
1 февраля 2016 11:53 Очень страшное кино 5 / Scary Movie 5 (2013) BDRip-AVC от ExKinoRay | Лицензия .torrent   [Информация о файле (нажмите для просмотра)] Перевод: ДублированныйСубтитры: отсутствуютКачество: BDRip-AVCВидео: 1024x576, 2110 Кбит/с, 23.976 кадр/сАудио: Русский (AC3, 6 ch, 448 Кбит/с)Видео: Идентификатор : 1 Формат : AVC Формат/Информация : Advanced Video Codec Профиль формата : [email protected] Параметр CABAC формата : Да Параметр ReFrames формата : 9 кадров Режим смешивания : Container [email protected] Идентификатор кодека : V_MPEG4/ISO/AVC Продолжительность : 1 ч. 25 м. Битрейт : 2060 Кбит/сек Номинальный битрейт : 2110 Кбит/сек Ширина : 1024 пикселей Высота : 576 пикселей Соотношение сторон : 16:9 Частота кадров : 24,000 кадра/сек Разрешение : 24 бит Колориметрия : 4:2:0 Тип развёртки : Прогрессивная Бит/(Пиксели*Кадры) : 0.146 Размер потока : 1,23 Гбайт (81%) Библиотека кодирования : x264 core 125 r2200 999b753 Настройки программы : cabac=1 / ref=9 / deblock=1:-2:-2 / analyse=0x3:0x133 / me=umh / subme=11 / psy=1 / psy_rd=1.00:0.00 / mixed_ref=1 / me_range=32 / chroma_me=1 / trellis=2 / 8x8dct=1 / cqm=0 / deadzone=21,11 / fast_pskip=0 / chroma_qp_offset=-2 / threads=12 / lookahead_threads=2 / sliced_threads=0 / nr=0 / decimate=0 / interlaced=0 / bluray_compat=0 / constrained_intra=0 / bframes=9 / b_pyramid=2 / b_adapt=1 / b_bias=0 / direct=3 / weightb=1 / open_gop=0 / weightp=2 / keyint=240 / keyint_min=23 / scenecut=40 / intra_refresh=0 / rc_lookahead=80 / rc=2pass / mbtree=1 / bitrate=2110 / ratetol=1.0 / qcomp=0.60 / qpmin=0 / qpmax=69 / qpstep=4 / cplxblur=20.0 / qblur=0.5 / ip_ratio=1.40 / aq=1:1.00Аудио: Идентификатор : 2 Формат : AC-3 Формат/Информация : Audio Coding 3 Идентификатор кодека : A_AC3 Продолжительность : 1 ч. 25 м. Вид битрейта : Постоянный Битрейт : 448 Кбит/сек Каналы : 6 каналов Расположение каналов : Front: L C R, Surround: L R, LFE Частота : 48,0 КГц Размер потока : 275 Мбайт (18%) Заголовок : Дублированый (Лицензия) Язык : RussianСкриншоты 1,53 Gb 75 9
1 февраля 2016 11:53 Очень страшное кино 5 / Scary Movie 5 (2013) BDRip 1080p от MediaClub | Лицензия .torrent   [Информация о файле (нажмите для просмотра)] Перевод: Дублированный [Лицензия]Кодек: x264Качество: BDRip 1080pВидео: MPEG-4 AVC, 9800 Кбит/c, 1920x1080, 24.000 кадр/cАудио #1: Русский (AC3, 6 ch, 448 Кбит/c)Аудио #2: Русский (DTS, 6 ch, 1510 Кбит/c)Видео: Идентификатор : 1 Формат : AVC Формат/Информация : Advanced Video Codec Профиль формата : [email protected] Параметр CABAC формата : Да Параметр ReFrames формата : 4 кадра Идентификатор кодека : V_MPEG4/ISO/AVC Продолжительность : 1 ч. 25 м. Битрейт : 9800 Кбит/сек Ширина : 1920 пикселей Высота : 1080 пикселей Соотношение сторон : 16:9 Режим частоты кадров : Постоянный Частота кадров : 24,000 кадра/сек Цветовое пространство : YUV Субдискретизация насыщенности : 4:2:0 Битовая глубина : 8 бит Тип развёртки : Прогрессивная Бит/(Пиксели*Кадры) : 0.197 Размер потока : 5,73 Гбайт (81%) Заголовок : -=MediaClub-kaspr=- Библиотека кодирования : x264 core 133 r2334 a3ac64b Настройки программы : cabac=1 / ref=4 / deblock=1:-3:-3 / analyse=0x3:0x133 / me=umh / subme=11 / psy=1 / psy_rd=1.00:0.20 / mixed_ref=1 / me_range=32 / chroma_me=1 / trellis=2 / 8x8dct=1 / cqm=0 / deadzone=21,11 / fast_pskip=0 / chroma_qp_offset=-3 / threads=12 / lookahead_threads=2 / sliced_threads=0 / nr=0 / decimate=0 / interlaced=0 / bluray_compat=0 / constrained_intra=0 / bframes=8 / b_pyramid=2 / b_adapt=2 / b_bias=0 / direct=3 / weightb=1 / open_gop=0 / weightp=2 / keyint=240 / keyint_min=22 / scenecut=40 / intra_refresh=0 / rc=2pass / mbtree=0 / bitrate=9800 / ratetol=1.0 / qcomp=0.60 / qpmin=0 / qpmax=69 / qpstep=4 / cplxblur=20.0 / qblur=0.5 / ip_ratio=1.40 / pb_ratio=1.30 / aq=1:1.00 Default : Да Forced : ДаАудио #1: Идентификатор : 2 Формат : AC-3 Формат/Информация : Audio Coding 3 Расширение режима : CM (complete main) Параметр Endianness формата : Big Идентификатор кодека : A_AC3 Продолжительность : 1 ч. 25 м. Вид битрейта : Постоянный Битрейт : 448 Кбит/сек Каналы : 6 каналов Расположение каналов : Front: L C R, Side: L R, LFE Частота : 48,0 КГц Битовая глубина : 16 бит Метод сжатия : С потерями Размер потока : 275 Мбайт (4%) Заголовок : AC3 Язык : Russian Default : Да Forced : ДаАудио #2: Идентификатор : 3 Формат : DTS Формат/Информация : Digital Theater Systems Идентификатор кодека : A_DTS Продолжительность : 1 ч. 25 м. Вид битрейта : Постоянный Битрейт : 1510 Кбит/сек Каналы : 6 каналов Расположение каналов : Front: L C R, Side: L R, LFE Частота : 48,0 КГц Битовая глубина : 16 бит Метод сжатия : С потерями Размер потока : 926 Мбайт (13%) Заголовок : DTS Язык : Russian Default : Нет Forced : Нет 7,04 Gb 8 4
1 февраля 2016 11:53 Очень страшное кино 5 / Scary MoVie (2013) HDRip от Generalfilm | КПК | Лицензия .torrent   [Информация о файле (нажмите для просмотра)] Перевод: Дублированный [Лицензия]Кодек: AVCКачество: HDRip КПКВидео: AVC, 640x360 (16/9), 24.000 fps, 449 Kbps (0.081 bit/pixel)Звук: AAC LC, 48.0 KHz, 2 ch, 128 Kbps, VBR 355,36 Mb 13 2
1 февраля 2016 11:53 Очень страшное кино 5 / Scary MoVie (2013) DVD5 R5 от New-Team | лицензия .torrent   [Информация о файле (нажмите для просмотра)] Перевод: Профессиональный (дублированный)Качество: DVD5 R5Формат: DVD VideoВидео: PAL 16x9 (720х576) VBR ~ 5600 kbps, Auto LetterboxedАудио 1: 48 kHz, Dolby AC3, 6 ch, 448 kbps,русскийАудио 2: 48 kHz, DTS, 6 ch, 768 kbps,русский 4,36 Gb 5 2
1 февраля 2016 11:53 Очень страшное кино 5 / Scary MoVie (2013) BDRemux 1080p от New-Team .torrent   [Информация о файле (нажмите для просмотра)] Перевод: Профессиональный (дублированный)Качество: BDRemux 1080pФормат: MKVВидео: 1920x1080, MPEG-4 AVC Video 15874 kbps 1080p / 24 fps / 16:9 / Main Profile 4.1Аудио: DTS-HD Master Audio Russian 1923 kbps 5.1 / 48 kHz / 1923 kbps / 16-bit (DTS Core: 5.1 / 48 kHz / 1509 kbps / 16-bit)Видео: Идентификатор : 1 Формат : AVC Формат/Информация : Advanced Video Codec Профиль формата : [email protected] Параметр CABAC формата : Да Параметр ReFrames формата : 3 кадра Параметр GOP формата : M=4, N=18 Идентификатор кодека : V_MPEG4/ISO/AVC Продолжительность : 1 ч. 25 м. Вид битрейта : Переменный Максимальный битрейт : 25,0 Мбит/сек Ширина : 1920 пикселей Высота : 1080 пикселей Соотношение сторон : 16:9 Режим частоты кадров : Постоянный Частота кадров : 24,000 кадра/сек Стандарт вещания : NTSC Цветовое пространство : YUV Субдискретизация насыщенности : 4:2:0 Битовая глубина : 8 бит Тип развёртки : Прогрессивная Язык : English Default : Да Forced : НетАудио: Идентификатор : 2 Формат : DTS Формат/Информация : Digital Theater Systems Профиль формата : MA / Core Режим : 16 Параметр Endianness формата : Big Идентификатор кодека : A_DTS Продолжительность : 1 ч. 25 м. Вид битрейта : Переменный Битрейт : Неизвестно / 1509 Кбит/сек Каналы : 6 каналов Расположение каналов : Front: L C R, Side: L R, LFE Частота : 48,0 КГц Битовая глубина : 16 бит Метод сжатия : Без потерь / Lossy Язык : Russian Default : Да Forced : Нет 10,66 Gb 5 2

Скачать фильм Очень страшное кино 2 через торрент в хорошем качестве бесплатно BDRip

piratbit.ru

Размер: 1.46 GB | Добавлен: 4 мес. 27 д. назад | Торрент скачан:51 раз
Реклама Дарим 3000 рублей за регистрацию, не упусти свой шанс получить шикарный бонус!!!

29-05-2017 17:15 Очень страшное кино 2 Скачать торрент  

Очень страшное кино 2 / Scary Movie 2 Год выпуска: 2001Страна: США, КанадаЖанр: Чёрная комедия, пародияПродолжительность: 01:22:35Перевод: Профессиональный (одноголосый закадровый) Кураж-Бамбей / Денис КолесниковСубтитры: Отсутствуют

Режиссер: Кинен Айвори Уайанс

В ролях: Анна Фэрис, Марлон Уайанс, Шон Уайанс, Тори Спеллинг, Энди Рихтер, Наташа Лионн, Крис Эллиот, Реджина Холл, Кристофер Мастерсон, Тим Карри

Описание: Отыгравшись по полной программе в фильме «Очень страшное кино» на молодежных ужастиках, создатели картины окончательно потеряли стыд и совесть! Теперь пришла очередь киноклассики «Изгоняющий дьявола», «Полтергейст», «Кладбище домашних животных» и таких блокбастеров как: «Ангелы Чарли», «Миссия невыполнима 2», «Что скрывает ложь», «Ганнибал», «Призрак дома на холме». Мало не покажется!

Качество видео: BDRip (источник: BlueBird / Blu-ray / 1080р)Формат видео: AVIВидео: 704x400 (1.76:1), 23,976 fps, XviD build 65 ~2124 kbps avg, 0.31 bit/pixelАудио #1: 48 kHz, AC3 Dolby Digital, 2/0 (L,R), ~192.00 kbps avg Кураж-БамбейАудио #2: 48 kHz, AC3 Dolby Digital, 2/0 (L,R), ~192.00 kbps avg Original

Цитата:

Запись со спутника предоставил Beer kolesik Drinkers, за что ему громаднейшее спасибо!

Скачать Очень страшное кино 2 через торрент http://i93.fastpic.ru/big/2017/0529/fe/7b6428ab37e89ab6e542f9a27bf581fe.jpg Скачать фильм Очень страшное кино 2 через торрент бесплантно в хорошем качестве Описание: Отыгравшись по полной программе в фильме «Очень страшное кино» на молодежных ужастиках, создатели картины окончательно потеряли ... 2017-05-29 17:15 5 10 1

Loading...

Loading...

Рекламный пират

29-05-2017 18:09 Очень страшное кино 2 Скачать торрент  

Это гоблинский перевод или нет?)

29-05-2017 18:17 Очень страшное кино 2 Скачать торрент  

xxxMEIDANxxx писал(а):

Это гоблинский перевод или нет?)

при чем тут гоблинский ??? Перевод: Профессиональный (одноголосый закадровый) Кураж-Бамбей / Денис Колесников

Вот почитайте https://vk.com/kurajbambeyrf

29-05-2017 18:19 Очень страшное кино 2 Скачать торрент  

Ну, я не знаю кто такой этот Денис Колесников.Дабы не рыться в гугле, было проще спросить. Вопрос, - ответ.Теперь вопросов нет, спасибо за отзыв)

Дорогой пользователь! Огромная просьба, поблагодарите релизера, оцените раздачу и оставьте свои комментарий, если Вы скачали Очень страшное кино 2 через торрент бесплатно! Внесите свою лепту в развитие PiratBit!

Комментировать посты могут только пользователи прошедшие не сложную регистрацию

Очень страшное кино 2 через торрент Скачать бесплатно Очень страшное кино 2 Очень страшное кино 2 скачать торрент Очень страшное кино 2 смотреть онлайн Cкачать фильм Очень страшное кино 2 бесплатно Очень страшное кино 2 скачать торрент в хорошем качестве Очень страшное кино 2 смотреть онлайн бесплатно в хорошем качестве

Вы не можете начинать темыВы не можете отвечать на сообщенияВы не можете редактировать свои сообщенияВы не можете удалять свои сообщенияВы не можете голосовать в опросахВы не можете прикреплять файлы к сообщениямВы можете скачивать файлы

Скачать фильм Очень страшное кино 2 через торрент в хорошем качестве бесплатно 720p)

piratbit.ru

Размер: 1.46 GB | Добавлен: 6 лет 5 мес. назад | Торрент скачан:244 раза
Реклама Дарим 3000 рублей за регистрацию, не упусти свой шанс получить шикарный бонус!!!

15-05-2011 17:51 Очень страшное кино 2 Скачать торрент  

Очень страшное кино 2 / Scary Movie 2«More Laughs! More Screams! Less Clothes!» Год выпуска: 2001Страна: США , Канада Жанр: комедияПродолжительность: 83 мин.Перевод: Профессиональный (многоголосый, закадровый) [Лицензия] Режиссер: Кинен Айвори УайансПродюссер: Рик Альварез, Шоун Уайанс, Боб ВайнштейнСценарий: Шоун Уайанс, Майкл Энтони Сноуден, Крэйг УайансБюджет: $45 000 000R-Лицам до 17 лет обязательно присутствие взрослогоМировой рейтинг IMDB 4.80 (48 979) В ролях: Анна Фэрис, Марлон Уайанс, Джеймс ДеБелло, Шоун Уайанс, Дэвид Кросс, Реджина Холл, Кристофер Мастерсон, Тим Карри, Кэтлин Робертсон, Крис ЭллиОписание: Отыгравшись по полной программе в фильме «Очень страшное кино» на молодежных ужастиках, создатели картины окончательно потеряли стыд и совесть! Теперь пришла очередь киноклассики «Изгоняющий дьявола», «Полтергейст», «Кладбище домашних животных» и таких блокбастеров как: «Ангелы Чарли», «Миссия невыполнима 2», «Что скрывает ложь», «Ганнибал», «Призрак дома на холме». Мало не покажется! Качество: BDRipФормат: MKVВидео кодек: H.26xВидео: AVC, 1280x720 (16/9), 24.000 fps, 2 090 Kbps (0.094 bit/pixel)Аудио #1: AAC LC, 48.0 KHz, 6 ch (Russian) Аудио #2: AAC LC, 48.0 KHz, 6 ch (English) Скачать Очень страшное кино 2 через торрент http://ib1.keep4u.ru/b/2011/05/15/8e/8edaf951108116fcb4bcea5af619ab79.jpg Скачать фильм Очень страшное кино 2 через торрент бесплантно в хорошем качестве Описание: Отыгравшись по полной программе в фильме «Очень страшное кино» на молодежных ужастиках, создатели картины окончательно потеряли ... 2011-05-15 17:51 9.4 10 7

Loading...

Loading...

Рекламный пират

Дорогой пользователь! Огромная просьба, поблагодарите релизера, оцените раздачу и оставьте свои комментарий, если Вы скачали Очень страшное кино 2 через торрент бесплатно! Внесите свою лепту в развитие PiratBit!

Комментировать посты могут только пользователи прошедшие не сложную регистрацию

Очень страшное кино 2 через торрент Скачать бесплатно Очень страшное кино 2 Очень страшное кино 2 скачать торрент Очень страшное кино 2 смотреть онлайн Cкачать фильм Очень страшное кино 2 бесплатно Очень страшное кино 2 скачать торрент в хорошем качестве Очень страшное кино 2 смотреть онлайн бесплатно в хорошем качестве

Вы не можете начинать темыВы не можете отвечать на сообщенияВы не можете редактировать свои сообщенияВы не можете удалять свои сообщенияВы не можете голосовать в опросахВы не можете прикреплять файлы к сообщениямВы можете скачивать файлы

Очень страшное кино 2 2001

www.kinovit.net

Название: Очень страшное кино 2 / Scary Movie 2 (2001) HDRip-AVC от ImperiaFilm | D
Качество видео: HDRip-AVC
Перевод: Дубляж
Формат видео: MKV
Видео: 704х396 (16:9), 23.976 fps, x264, 1184 kbps, 0.177 bit/pixel
Аудио: 48.0 kHz, AAC-LC, 2 ch, ~72 kbps avg
Скачать

Загрузка начнется в течение 5 сек.

741.74 MB

Название: Очень страшное кино 2 / Scary Movie 2 (2001) BDRip от HQCLUB
Качество видео: BDRip (источник: BlueBird / Blu-ray / 1080р)
Перевод: профессиональный (полное дублирование)
Формат видео: AVI
Видео: 704x400 (1.76:1), 23,976 fps, XviD build 65 ~2124 kbps avg, 0.31 bit/pixel
Аудио: + Профессиональный (многоголосый, закадровый)48 kHz, AC3 Dolby Digital, 3/2 (L,C,R,l,r) + LFE ch, ~384 kbps avg (DUB)48 kHz, AC3 Dolby Digital, 3/2 (L,C,R,l,r) + LFE ch, ~384 kbps avg (MVO) (отдельно)48 kHz, AC3 Dolby Digital, 3/2 (L,C,R,l,r) + LFE ch, ~384 kbps avg (AVO.ESAREV) (отдельно)48 kHz, AC3 Dolby Digital, 3/2 (L,C,R,l,r) + LFE ch, ~384 kbps avg (ENG) (отдельно)
Скачать

Загрузка начнется в течение 5 сек.

1.45 GB

Название: Очень страшное кино 2 / Scary Movie 2 (2001) BDRip 1080p от Freeisland
Качество видео: BDRip
Перевод: Профессиональный (дублированный)
Формат видео: MKV
Видео: AVC 1920x1080 (16:9), 23.976 fps, AVC, 8 205 Kbps
Аудио: AC3AC3, 448 Kbps, 48.0 KHz, 6 ch (Дубляяж)AC3, 448 Kbps, 48.0 KHz, 6 ch (AVO - Stroev)AC3, 448 Kbps, 48.0 KHz, 6 ch (AVO - Grankin)AC3, 448 Kbps, 48.0 KHz, 6 ch (English)
Скачать

Загрузка начнется в течение 5 сек.

5.75 GB

Название: Очень страшное кино 2 / Scary Movie 2 (2001) HDRip-AVC | iPad
Качество видео: HDRip Исходник: BDRip 1080p
Перевод: Дублированный
Формат видео: MP4 (контейнер m4v)
Видео: AVC, 1024x576 (16:9) at 23.976 fps, AVC at 2501 kbps avg, 0.177 bit/pixel
Аудио: 48 kHz, AAC, 2ch, 148 Kbps | Russian | Дублированный48 kHz, AAC, 2ch, 144 Kbps | English | Original
Скачать

Загрузка начнется в течение 5 сек.

1.62 GB


Смотрите также