Скачать kingsman секретная служба скачать торрент в хорошем качестве 720


Скачать торрент Kingsman: Секретная служба / Kingsman: The Secret Service (2014) BDRip 1080p от NNNB

Format : Matroska Format version : Version 2 File size : 11.5 GiB Duration : 2h 8mn Overall bit rate : 12.8 Mbps Movie name : Kingsman.The Secret Service.(2014).BDRip.1080p.[denis100] Encoded date : UTC 2016-02-09 16:00:17 Writing application : mkvmerge v5.8.0 ('No Sleep / Pillow') built on Sep 2 2012 15:37:04 Writing library : libebml v1.2.3 + libmatroska v1.3.0

Video ID : 1 Format : AVC Format/Info : Advanced Video Codec Format profile : [email protected] Format settings, CABAC : Yes Format settings, ReFrames : 5 frames Codec ID : V_MPEG4/ISO/AVC Duration : 2h 8mn Bit rate : 9 797 Kbps Width : 1 920 pixels Height : 804 pixels Display aspect ratio : 2.40:1 Frame rate : 23.976 fps Color space : YUV Chroma subsampling : 4:2:0 Bit depth : 8 bits Scan type : Progressive Bits/(Pixel*Frame) : 0.265 Stream size : 8.58 GiB (75%) Title : Kingsman.The Secret Service.(2014).BDRip.1080p.[denis100] Writing library : x264 core 148 r2638 7599210 Encoding settings : cabac=1 / ref=5 / deblock=1:-3:-3 / analyse=0x3:0x133 / me=umh / subme=11 / psy=1 / psy_rd=1.00:0.00 / mixed_ref=1 / me_range=32 / chroma_me=1 / trellis=2 / 8x8dct=1 / cqm=0 / deadzone=21,11 / fast_pskip=0 / chroma_qp_offset=-2 / threads=6 / lookahead_threads=1 / sliced_threads=0 / nr=0 / decimate=1 / interlaced=0 / bluray_compat=0 / constrained_intra=0 / bframes=14 / b_pyramid=2 / b_adapt=2 / b_bias=0 / direct=3 / weightb=1 / open_gop=0 / weightp=2 / keyint=240 / keyint_min=23 / scenecut=40 / intra_refresh=0 / rc=2pass / mbtree=0 / bitrate=9797 / ratetol=1.0 / qcomp=0.60 / qpmin=0 / qpmax=69 / qpstep=4 / cplxblur=20.0 / qblur=0.5 / ip_ratio=1.40 / pb_ratio=1.30 / aq=2:1.00 Language : English Default : Yes Forced : No

Audio #1 ID : 2 Format : AC-3 Format/Info : Audio Coding 3 Mode extension : CM (complete main) Codec ID : A_AC3 Duration : 2h 8mn Bit rate mode : Constant Bit rate : 448 Kbps Channel(s) : 6 channels Channel positions : Front: L C R, Side: L R, LFE Sampling rate : 48.0 KHz Bit depth : 16 bits Compression mode : Lossy Stream size : 413 MiB (3%) Title : DUB, лицензия BD CEE Language : Russian Default : Yes Forced : No

Audio #2 ID : 3 Format : AC-3 Format/Info : Audio Coding 3 Mode extension : CM (complete main) Codec ID : A_AC3 Duration : 2h 8mn Bit rate mode : Constant Bit rate : 640 Kbps Channel(s) : 6 channels Channel positions : Front: L C R, Side: L R, LFE Sampling rate : 48.0 KHz Bit depth : 16 bits Compression mode : Lossy Stream size : 589 MiB (5%) Title : AVO, Сербин Language : Russian Default : No Forced : No

Audio #3 ID : 4 Format : AC-3 Format/Info : Audio Coding 3 Mode extension : CM (complete main) Codec ID : A_AC3 Duration : 2h 8mn Bit rate mode : Constant Bit rate : 640 Kbps Channel(s) : 6 channels Channel positions : Front: L C R, Side: L R, LFE Sampling rate : 48.0 KHz Bit depth : 16 bits Compression mode : Lossy Stream size : 589 MiB (5%) Title : AVO, Володарский Language : Russian Default : No Forced : No

Audio #4 ID : 5 Format : AC-3 Format/Info : Audio Coding 3 Mode extension : CM (complete main) Codec ID : A_AC3 Duration : 2h 8mn Bit rate mode : Constant Bit rate : 640 Kbps Channel(s) : 6 channels Channel positions : Front: L C R, Side: L R, LFE Sampling rate : 48.0 KHz Bit depth : 16 bits Compression mode : Lossy Stream size : 589 MiB (5%) Title : AVO, Матвеев Language : Russian Default : No Forced : No

Audio #5 ID : 6 Format : AC-3 Format/Info : Audio Coding 3 Mode extension : CM (complete main) Codec ID : A_AC3 Duration : 2h 8mn Bit rate mode : Constant Bit rate : 640 Kbps Channel(s) : 6 channels Channel positions : Front: L C R, Side: L R, LFE Sampling rate : 48.0 KHz Bit depth : 16 bits Compression mode : Lossy Stream size : 589 MiB (5%) Language : English Default : No Forced : No

Text #1 ID : 7 Format : UTF-8 Codec ID : S_TEXT/UTF8 Codec ID/Info : UTF-8 Plain Text Language : Russian Default : No Forced : No

Text #2 ID : 8 Format : UTF-8 Codec ID : S_TEXT/UTF8 Codec ID/Info : UTF-8 Plain Text Language : English Default : No Forced : No

Text #3 ID : 9 Format : UTF-8 Codec ID : S_TEXT/UTF8 Codec ID/Info : UTF-8 Plain Text Title : SDH Language : English Default : No Forced : No

Text #4 ID : 10 Format : UTF-8 Codec ID : S_TEXT/UTF8 Codec ID/Info : UTF-8 Plain Text Title : SDH-Colored Language : English Default : No Forced : No

Menu 00:00:00.000 : en:00:00:00.000 00:02:55.466 : en:00:02:55.466 00:04:50.665 : en:00:04:50.665 00:08:34.177 : en:00:08:34.177 00:11:49.875 : en:00:11:49.875 00:13:04.575 : en:00:13:04.575 00:15:57.998 : en:00:15:57.998 00:18:25.979 : en:00:18:25.979 00:23:48.048 : en:00:23:48.048 00:25:37.326 : en:00:25:37.326 00:29:53.750 : en:00:29:53.750 00:32:25.276 : en:00:32:25.276 00:33:47.900 : en:00:33:47.900 00:37:01.469 : en:00:37:01.469 00:38:49.617 : en:00:38:49.617 00:42:46.021 : en:00:42:46.021 00:45:03.867 : en:00:45:03.867 00:47:42.275 : en:00:47:42.275 00:53:47.556 : en:00:53:47.556 00:57:28.193 : en:00:57:28.193 01:03:29.514 : en:01:03:29.514 01:05:21.876 : en:01:05:21.876 01:10:27.930 : en:01:10:27.930 01:13:10.219 : en:01:13:10.219 01:15:01.953 : en:01:15:01.953 01:16:58.194 : en:01:16:58.194 01:23:03.810 : en:01:23:03.810 01:25:57.402 : en:01:25:57.402 01:31:21.309 : en:01:31:21.309 01:34:38.796 : en:01:34:38.796 01:36:27.948 : en:01:36:27.948 01:39:59.993 : en:01:39:59.993 01:44:07.863 : en:01:44:07.863 01:50:31.082 : en:01:50:31.082 01:58:21.219 : en:01:58:21.219 01:59:38.462 : en:01:59:38.462

krutor.org

Секретная служба через торрент в хорошем качестве бесплатно 720p

GeneralUnique ID                                : 240190433520989586996308494206066679648 (0xB4B2FEAD0135703A91D5DF1FE82EDF60)Complete name                            : D:\Торенты\K1ngsm4n.2014.D.WEB-DL.720p.mkvFormat                                   : MatroskaFormat version                           : Version 4 / Version 2File size                                : 4.27 GiBDuration                                 : 2h 9mnOverall bit rate                         : 4 725 KbpsEncoded date                             : UTC 2015-05-14 18:23:09Writing application                      : mkvmerge v6.9.1 ('Blue Panther') 64bit built on Apr 18 2014 18:23:38Writing library                          : libebml v1.3.0 + libmatroska v1.4.1

VideoID                                       : 1Format                                   : AVCFormat/Info                              : Advanced Video CodecFormat profile                           : [email protected] settings, CABAC                   : NoFormat settings, ReFrames                : 2 framesCodec ID                                 : V_MPEG4/ISO/AVCDuration                                 : 2h 9mnWidth                                    : 1 280 pixelsHeight                                   : 534 pixelsDisplay aspect ratio                     : 2.40:1Frame rate                               : 23.976 fpsColor space                              : YUVChroma subsampling                       : 4:2:0Bit depth                                : 8 bitsScan type                                : ProgressiveLanguage                                 : EnglishDefault                                  : YesForced                                   : NoColor primaries                          : BT.709-5, BT.1361, IEC 61966-2-4, SMPTE RP177Transfer characteristics                 : BT.709-5, BT.1361Matrix coefficients                      : BT.709-5, BT.1361, IEC 61966-2-4 709, SMPTE RP177

Audio #1ID                                       : 2Format                                   : AC-3Format/Info                              : Audio Coding 3Mode extension                           : CM (complete main)Codec ID                                 : A_AC3Duration                                 : 2h 9mnBit rate mode                            : ConstantBit rate                                 : 384 KbpsChannel(s)                               : 6 channelsChannel positions                        : Front: L C R, Side: L R, LFESampling rate                            : 48.0 KHzBit depth                                : 16 bitsCompression mode                         : LossyStream size                              : 355 MiB (8%)Language                                 : RussianDefault                                  : YesForced                                   : No

Audio #2ID                                       : 3Format                                   : AACFormat/Info                              : Advanced Audio CodecFormat profile                           : LCCodec ID                                 : A_AACDuration                                 : 2h 9mnChannel(s)                               : 2 channelsChannel positions                        : Front: L RSampling rate                            : 48.0 KHzCompression mode                         : LossyLanguage                                 : EnglishDefault                                  : NoForced                                   : No

Audio #3ID                                       : 4Format                                   : AACFormat/Info                              : Advanced Audio CodecFormat profile                           : LCCodec ID                                 : A_AACDuration                                 : 2h 9mnChannel(s)                               : 2 channelsChannel positions                        : Front: L RSampling rate                            : 48.0 KHzCompression mode                         : LossyLanguage                                 : UkrainianDefault                                  : NoForced                                   : No

Menu00:00:00.000                             : en:100:02:54.000                             : en:200:04:49.000                             : en:300:08:32.000                             : en:400:11:48.000                             : en:500:13:02.000                             : en:600:15:56.000                             : en:700:18:23.000                             : en:800:23:45.000                             : en:900:25:34.000                             : en:1000:29:50.000                             : en:1100:32:22.000                             : en:1200:33:44.000                             : en:1300:36:58.000                             : en:1400:38:46.000                             : en:1500:42:42.000                             : en:1600:45:00.000                             : en:1700:47:38.000                             : en:1800:53:43.000                             : en:1900:57:23.000                             : en:2001:03:24.000                             : en:2101:05:16.000                             : en:2201:10:22.000                             : en:2301:13:04.000                             : en:2401:14:56.000                             : en:2501:16:52.000                             : en:2601:22:57.000                             : en:2701:25:51.000                             : en:2801:31:14.000                             : en:2901:34:32.000                             : en:3001:36:42.000                             : en:3101:39:53.000                             : en:3201:44:00.000                             : en:3301:50:23.000                             : en:3401:58:13.000                             : en:3501:59:30.000                             : en:36

piratbit.ru

The Secret Service (2014) BDRip 720p

Информация о фильмеНазвание: Kingsman: Секретная службаОригинальное название: Kingsman: The Secret ServiceГод выхода: 2014Жанр: боевик, комедия, криминал, приключенияРежиссер: Мэттью ВонВ ролях: Тэрон Эджертон, Колин Фёрт, Сэмюэл Л. Джексон, Марк Стронг, Софи Куксон, Майкл Кейн, София Бутелла, Саманта Янус, Джофф Белл, Марк Хэмилл

О фильме: Эггси — молодой парень, который прошел службу в морской пехоте и имеет очень высокий уровень интеллекта. Он мог бы добиться многого, но выбрал другой путь и стал мелким преступником. Однажды он знакомится с Гарри Хартом, которому его отец когда-то спас жизнь. Этот человек решил сделать все возможное, чтобы сделать жизнь Эггси лучше и открыть для него новые возможности.

Гарри рассказал ему, что является агентом секретной независимой организации, которая стоит на защите всего мира. Он предложил парню пройти обучение и стать новым членом их команды. Эггси принял предложение Харта, но сможет ли он справиться со всеми испытаниями и оправдать его надежды?..

Выпущено: Twentieth Century Fox Film CorporationПродолжительность: 02:08:44Перевод: Дублированный (лицензия)

ФайлКодек: x264Качество: BDRip (источник: Blu-ray Disc)Видео: 1280x536 (2,40:1), 23.976 fps, 3960 kbpsАудио #1: AC-3, 6 ch, 448 kbps (Rus)Аудио #2: AC-3, 6 ch, 448 kbps (Eng)Субтитры: Русские (форс,полные), АнглийскиеСкачать: сэмпл

Скриншоты

MI

Общее Уникальный идентификатор : 237943557368508420094993130125267947672 (0xB3024320EA6946D8A8EDBE9B3D8DD098) Полное имя : Kingsman.The.Secret.Service.2014.BDRip.720p.Rus.Eng.mkv Формат : Matroska Версия формата : Version 2 Размер файла : 4,37 Гбайт Продолжительность : 2 ч. 8 м. Общий поток : 4858 Кбит/сек Название фильма : Kingsman: Секретная служба / Kingsman: The Secret Service (2014) Дата кодирования : UTC 2015-07-04 06:41:53 Программа кодирования : mkvmerge v5.8.0 ('No Sleep / Pillow') built on Sep 2 2012 15:37:04 Библиотека кодирования : libebml v1.2.3 + libmatroska v1.3.0

Видео Идентификатор : 1 Формат : AVC Формат/Информация : Advanced Video Codec Профиль формата : [email protected] Параметр CABAC формата : Да Параметр ReFrames формата : 10 кадров Идентификатор кодека : V_MPEG4/ISO/AVC Продолжительность : 2 ч. 8 м. Битрейт : 3960 Кбит/сек Ширина : 1280 пикселей Высота : 536 пикселей Соотношение сторон : 2,40:1 Режим частоты кадров : Постоянный Частота кадров : 23,976 кадра/сек Цветовое пространство : YUV Субдискретизация насыщенности : 4:2:0 Битовая глубина : 8 бит Тип развёртки : Прогрессивная Бит/(Пиксели*Кадры) : 0.241 Размер потока : 3,48 Гбайт (80%) Заголовок : Release by AlexKa Библиотека кодирования : x264 core 146 r2538 121396c Настройки программы : cabac=1 / ref=10 / deblock=1:-3:-3 / analyse=0x3:0x133 / me=umh / subme=11 / psy=1 / psy_rd=1.00:0.00 / mixed_ref=1 / me_range=32 / chroma_me=1 / trellis=2 / 8x8dct=1 / cqm=0 / deadzone=21,11 / fast_pskip=0 / chroma_qp_offset=-2 / threads=12 / lookahead_threads=3 / sliced_threads=0 / nr=0 / decimate=0 / interlaced=0 / bluray_compat=0 / constrained_intra=0 / bframes=13 / b_pyramid=2 / b_adapt=2 / b_bias=0 / direct=3 / weightb=1 / open_gop=0 / weightp=2 / keyint=240 / keyint_min=23 / scenecut=40 / intra_refresh=0 / rc=2pass / mbtree=0 / bitrate=3960 / ratetol=1.0 / qcomp=0.60 / qpmin=0 / qpmax=69 / qpstep=4 / cplxblur=20.0 / qblur=0.5 / ip_ratio=1.40 / pb_ratio=1.30 / aq=1:0.70 Язык : English

Аудио #1 Идентификатор : 2 Формат : AC-3 Формат/Информация : Audio Coding 3 Расширение режима : CM (complete main) Параметр Endianness формата : Big Идентификатор кодека : A_AC3 Продолжительность : 2 ч. 8 м. Вид битрейта : Постоянный Битрейт : 448 Кбит/сек Каналы : 6 каналов Расположение каналов : Front: L C R, Side: L R, LFE Частота : 48,0 КГц Метод сжатия : С потерями Размер потока : 413 Мбайт (9%) Заголовок : Rus Язык : Russian

Аудио #2 Идентификатор : 3 Формат : AC-3 Формат/Информация : Audio Coding 3 Расширение режима : CM (complete main) Параметр Endianness формата : Big Идентификатор кодека : A_AC3 Продолжительность : 2 ч. 8 м. Вид битрейта : Постоянный Битрейт : 448 Кбит/сек Каналы : 6 каналов Расположение каналов : Front: L C R, Side: L R, LFE Частота : 48,0 КГц Метод сжатия : С потерями Размер потока : 413 Мбайт (9%) Заголовок : Eng Язык : English

Текст #1 Идентификатор : 4 Формат : UTF-8 Идентификатор кодека : S_TEXT/UTF8 Идентификатор кодека/Информация : UTF-8 Plain Text Заголовок : Rus forced Язык : Russian

Текст #2 Идентификатор : 5 Формат : UTF-8 Идентификатор кодека : S_TEXT/UTF8 Идентификатор кодека/Информация : UTF-8 Plain Text Заголовок : Rus Язык : Russian

Текст #3 Идентификатор : 6 Формат : UTF-8 Идентификатор кодека : S_TEXT/UTF8 Идентификатор кодека/Информация : UTF-8 Plain Text Заголовок : Eng Язык : English

Меню 00:00:00.000 : :Chapter 01 00:02:55.466 : :Chapter 02 00:04:50.665 : :Chapter 03 00:08:34.180 : :Chapter 04 00:11:49.875 : :Chapter 05 00:13:04.575 : :Chapter 06 00:15:57.998 : :Chapter 07 00:18:25.979 : :Chapter 08 00:23:48.051 : :Chapter 09 00:25:37.327 : :Chapter 10 00:29:53.750 : :Chapter 11 00:32:25.276 : :Chapter 12 00:33:47.900 : :Chapter 13 00:37:01.469 : :Chapter 14 00:38:49.618 : :Chapter 15 00:42:46.021 : :Chapter 16 00:45:03.867 : :Chapter 17 00:47:42.276 : :Chapter 18 00:53:47.557 : :Chapter 19 00:57:28.194 : :Chapter 20 01:03:29.514 : :Chapter 21 01:05:21.876 : :Chapter 22 01:10:27.932 : :Chapter 23 01:13:10.219 : :Chapter 24 01:15:01.955 : :Chapter 25 01:16:58.196 : :Chapter 26 01:23:03.812 : :Chapter 27 01:25:57.402 : :Chapter 28 01:31:21.309 : :Chapter 29 01:34:38.798 : :Chapter 30 01:36:27.948 : :Chapter 31 01:39:59.994 : :Chapter 32 01:44:07.866 : :Chapter 33 01:50:31.082 : :Chapter 34 01:58:21.219 : :Chapter 35 01:59:38.462 : :Chapter 36 02:08:43.924 : :Chapter 37

x264

x264 [info]: frame I:1858 Avg QP:12.54 size:132108 x264 [info]: frame P:43835 Avg QP:15.93 size: 42765 x264 [info]: frame B:139502 Avg QP:17.50 size: 12210 x264 [info]: consecutive B-frames: 4.2% 3.6% 10.0% 20.5% 16.1% 31.8% 6.3% 2.3% 1.6% 0.9% 0.8% 0.5% 0.5% 0.7%

krutor.org

Секретная служба через торрент в хорошем качестве бесплатно WEB-DLRip

piratbit.ru

Раздают: 20 [ 60 KB/s ]
Размер: 1.46 GB | Добавлен: 2 года назад | Торрент скачан:885 раз
Реклама Дарим 3000 рублей за регистрацию, не упусти свой шанс получить шикарный бонус!!!

14-05-2015 20:01 Kingsman: Секретная служба Скачать торрент  

Kingsman: Секретная служба ИНФОРМАЦИЯ: Год выпуска:2014 Страна: Великобритания Жанр: боевик, комедия, криминал, приключения Продолжительность: 02:09:19 Перевод: Дубляж - [Лицензия / iTunes] Режиссер: Мэттью Вон В Ролях: Тэрон Эджертон (Gary «Eggsy» Unwin), Колин Фёрт (Harry Hart / Galahad), Сэмюэл Л. Джексон (Valentine), Марк Стронг (Merlin), Софи Куксон (Roxy), Майкл Кейн (Arthur), София Бутелла (Gazelle), Саманта Янус (Michelle Unwin), Джофф Белл (Dean), Марк Хэмилл (Professor Arnold), Джек Девенпорт (Lancelot), Эдвард Холкрофт (Charlie)Описание: Эггси - молодой парень, который прошел службу в морской пехоте и имеет очень высокий уровень интеллекта. Он мог бы добиться многого, но выбрал другой путь и стал мелким преступником. Однажды он знакомится с Гарри Хартом, которому его отец когда-то спас жизнь. Этот человек решил сделать все возможное, чтобы сделать жизнь Эггси лучше и открыть для него новые возможности. Гарри рассказал ему, что является агентом секретной независимой организации, которая стоит на защите всего мира. Он предложил парню пройти обучение и стать новым членом их команды. Эггси принял предложение Харта, но сможет ли он справиться со всеми испытаниями и оправдать его надежды?..
  • Мировая премьера:13 декабря 2014 ТЕХ.ДАННЫЕ: Качество: WEB-DLRip Формат: AVI Видео кодек: XviD Аудио кодек: AC3 Видео: XviD, 720x304 (2.35:1), 1224 kbps, 23,976 fps, 0,221 bpp Аудио: AC3 / 5.1 / 48 kHz / 384 kbps / 16 bit

    Код:

    GeneralComplete name                            : D:\Торенты\K1ngsm4n.2014.D.WEB-DLRip.1.46GB.aviFormat                                   : AVIFormat/Info                              : Audio Video InterleaveFile size                                : 1.46 GiBDuration                                 : 2h 9mnOverall bit rate                         : 1 615 KbpsWriting application                      : VirtualDubMod 1.5.10.3 | www.virtualdub-fr.org || (build 2550/release)Writing library                          : VirtualDubMod build 2550/release

    VideoID                                       : 0Format                                   : MPEG-4 VisualFormat profile                           : Advanced [email protected] settings, BVOP                    : 2Format settings, QPel                    : NoFormat settings, GMC                     : No warppointsFormat settings, Matrix                  : Default (MPEG)Codec ID                                 : XVIDCodec ID/Hint                            : XviDDuration                                 : 2h 9mnBit rate                                 : 1224 KbpsWidth                                    : 720 pixelsHeight                                   : 304 pixelsDisplay aspect ratio                     : 2.35:1Frame rate                               : 23.976 fpsColor space                              : YUVChroma subsampling                       : 4:2:0Bit depth                                : 8 bitsScan type                                : ProgressiveCompression mode                         : LossyBits/(Pixel*Frame)                       : 0.221Stream size                              : 1.05 GiB (72%)Writing library                          : XviD 1.2.1 (UTC 2008-12-04)

    AudioID                                       : 1Format                                   : AC-3Format/Info                              : Audio Coding 3Mode extension                           : CM (complete main)Codec ID                                 : 2000Duration                                 : 2h 8mnBit rate mode                            : ConstantBit rate                                 : 384 KbpsChannel(s)                               : 6 channelsChannel positions                        : Front: L C R, Side: L R, LFESampling rate                            : 48.0 KHzBit depth                                : 16 bitsCompression mode                         : LossyStream size                              : 354 MiB (24%)Alignment                                : Split accross interleaves

    Скриншоты: © Оформление by Ворон
  • Скачать Kingsman: Секретная служба через торрент http://pic.pb.wtf/images/6/ordi9.jpg Скачать фильм Kingsman: Секретная служба через торрент бесплантно в хорошем качестве Описание: Эггси - молодой парень, который прошел службу в морской пехоте и имеет очень высокий уровень интеллекта. Он мог бы добиться ... 2015-10-18 16:15 9.4 10 118

    Loading...

    Loading...

    Рекламный пират

    15-05-2015 17:11 Kingsman: Секретная служба Скачать торрент  

    16-05-2015 18:51 Kingsman: Секретная служба Скачать торрент  

    Ржаки не заметил. Круть - непонятная, т.е. без ржаки. Не пойму что хотели сотворить? Комедию? Боевик? По мне так ни то, ни енто не удалось.

    17-05-2015 10:33 Kingsman: Секретная служба Скачать торрент  

    Типичный английский фильм с "английским юмором".

    17-05-2015 17:01 Kingsman: Секретная служба Скачать торрент  

    Угарный фильм, мне понравился.

    17-05-2015 18:55 Kingsman: Секретная служба Скачать торрент  

    не какого нормального здесь сша английского Юмора нет пафос дещевый вот и всё

    18-05-2015 20:35 Kingsman: Секретная служба Скачать торрент  

    Обаме башку взорвали, годно =)

    24-05-2015 16:55 Kingsman: Секретная служба Скачать торрент  

    отличный фильм!

    28-05-2015 12:00 Kingsman: Секретная служба Скачать торрент  

    А по моему хрень

    Pекламный агент PB

    03-06-2015 05:27 Kingsman: Секретная служба Скачать торрент  

    Отличный фильм и снят как то необычно... 8/10

    23-06-2015 17:06 Kingsman: Секретная служба Скачать торрент  

    интересный фильм, но на разок, не больше

    30-06-2015 15:31 Kingsman: Секретная служба Скачать торрент  

    Фильм на 7 из 10. Можно сказать, что понравился, но вспоминая длину ножей на протезах "убивашки", невольно задаешься вопросом, а куда эти ножи прячутся???))) У Росомахи всё в руках, а тут ее ножики до попика дотянутся :rofle:

    19-09-2015 22:22 Kingsman: Секретная служба Скачать торрент  

    персонаж самуюля просто высший класс))))))а так фильм конечно просто разок глянуть )но смотрится легко хотя и по детски наивен

    22-09-2015 08:38 Kingsman: Секретная служба Скачать торрент  

    Хороший фильмец.Всем советую!

    22-09-2015 09:12 Kingsman: Секретная служба Скачать торрент  

    Visp1024 писал(а):

    Обаме башку взорвали, годно =)

    вам походу на рос кино надо перейти, а не загнивающий кинематограф смотреть

    22-09-2015 14:54 Kingsman: Секретная служба Скачать торрент  

    на раз. говнище одним словом

    22-09-2015 21:24 Kingsman: Секретная служба Скачать торрент  

    Вначале интригует, ближе к концу скатывается в трешак.

    Pекламный агент PB

    25-09-2015 10:35 Kingsman: Секретная служба Скачать торрент  

    Объясните как это на разок? Что кто-то смотрит 2-3-4-5 раз?

    19-10-2015 08:36 Kingsman: Секретная служба Скачать торрент  

    нда фильм для разжижения мозгов, короче for slaves

    Дорогой пользователь! Огромная просьба, поблагодарите релизера, оцените раздачу и оставьте свои комментарий, если Вы скачали Kingsman: Секретная служба через торрент бесплатно! Внесите свою лепту в развитие PiratBit!

    Комментировать посты могут только пользователи прошедшие не сложную регистрацию

    Kingsman: Секретная служба через торрент Скачать бесплатно Kingsman: Секретная служба Kingsman: Секретная служба скачать торрент Kingsman: Секретная служба смотреть онлайн Cкачать фильм Kingsman: Секретная служба бесплатно Kingsman: Секретная служба скачать торрент в хорошем качестве Kingsman: Секретная служба смотреть онлайн бесплатно в хорошем качестве

    Вы не можете начинать темыВы не можете отвечать на сообщенияВы не можете редактировать свои сообщенияВы не можете удалять свои сообщенияВы не можете голосовать в опросахВы не можете прикреплять файлы к сообщениямВы можете скачивать файлы

    kingsman торрент скачать | Скачать торренты в BDRip и HDRip качестве

    Kingsman The Golden Circle 2017 720p BrRip x264 - SPARKS693.36 MBKingsman The Golden Circle 2017 720p BrRip x264 - iFT693.36 MBKingsman The Golden Circle 2017 720p BrRip x264 - AFG693.36 MBKingsman The Golden Circle 2017 720p BrRip x264 - IMMERSE693.36 MBKingsman The Golden Circle 2017 720p BrRip x264 - DIMENSION693.34 MBKingsman The Golden Circle 2017 720p BrRip x264 - LEGi0N693.34 MBKingsman The Golden Circle 2017 720p BrRip x264 - CM693.36 MBKingsman: The Secret Service (2014) 720p BrRip x264 - YIFY875.08 MBKingsman The Golden Circle 2017 TS Xvid AC31.37 GBKingsman The Golden Circle 2017 720p BrRip x264 - 2HD705.21 MBKingsman The Golden Circle 2017 720p HD-TS x2641.31 GBKingsman: Секретная служба / Kingsman: The Secret Service (2014) HDTVRip 1080p4.63 GBKingsman The Golden Circle 2017 720p HD-TS x264 HQ - CPG3.99 GBKingsman The Golden Circle 2017 720p BrRip x264 - PLAYNOW693.36 MBKingsman: Секретная служба / Kingsman: The Secret Service (2014) WEB-DL 1080p | iTunes4.63 GBKingsman: Секретная служба / Kingsman: The Secret Service (2014) HDTVRip-AVC | Чистый звук1.91 GBKingsman: The Secret Service (2014) 1080p BrRip x264 - YIFY1.95 GBKingsman The Golden Circle 2017 720p HD-TS x264 - NextBit1.82 GBKingsman: Золотое кольцо / Kingsman: The Golden Circle (Мэттью Вон) [2017 г., боевик, комедия, приключения, TS] Dub1.37 GBKingsman: Секретная служба / Kingsman: The Secret Service (2014) BDRip 720p | iTunes5.97 GBKingsman: Золотое кольцо / Kingsman: The Golden Circle / 2017 / ДБ / TS / 1.37 ГБ1.37 GBKingsman: Секретная служба / Kingsman: The Secret Service (2014) BDRip 1080p | D | iTunes11.92 GBKingsman.The.Secret.Service.2014.UNCENSORED.1080p.BluRay-ETRG3.6 GBKingsman: Золотое кольцо / Kingsman: The Golden Circle (2017) CAMRip | D1.37 GBKingsman: Секретная служба / Kingsman: The Secret Service (2014) HDRip | iTunes2.06 GBKingsman: Секретная служба / Kingsman: The Secret Service (2014) HDRip | iTunes2.06 GBKingsman: Секретная служба / Kingsman: The Secret Service (2014) HDTVRip | Звук с TS2.06 GBKingsman: Секретная служба / Kingsman: The Secret Service (2014) WEB-DL 720p | iTunes4.27 GBKingsman.The.Golden.Circle.2017.720p.HD-TS.x264-NoGRP1.31 GBKingsman: Секретная служба / Kingsman: The Secret Service (2014) HDTVRip-AVC | Звук с TS2.14 GBKingsman: Секретная служба / Kingsman: The Secret Service (2014) HDTV 720p | Звук с TS3.54 GBKingsman The Golden Circle 2017 HDTS ACC3 Dolby Surround 720P DT1.01 GBKingsman: Секретная служба / Kingsman: The Secret Service (Мэттью Вон / Matthew Vaughn) [2014, Великобритания, боевик, комедия, криминал, приключения, HDRip] Dub1.47 GBKingsman: Секретная служба / Kingsman: The Secret Service (2014) CAMRip от UNIONGANG2.06 GBKingsman: Секретная служба / Kingsman: The Secret Service (2014) CAMRip от UNIONGANG2.06 GBKingsman: Секретная служба / Kingsman: The Secret Service / 2014 / ДБ / HDRip / 2.18 ГБ2.18 GBKingsman.The.Golden.Circle.2017.HD-TS.700MB704.71 MBKingsman The Golden Circle 2017 HDCAM x264 ACC - Makintos13697.04 MBKingsman: Секретная служба / Kingsman: The Secret Service (Мэттью Вон) [2014 г., боевик, комедия, криминал, приключения, WEB-DLRip] Dub [iTunes]1.46 GBKingsman: Секретная служба / Kingsman: The Secret Service (2014) TS699.89 MBKingsman: Секретная служба / Kingsman: The Secret Service (2014) TS699.89 MBKingsman: Секретная служба / Kingsman: The Secret Service (2014) BDRip 720p | D, A6.96 GBKingsman: Секретная служба / Kingsman: The Secret Service (Мэттью Вон / Matthew Vaughn) [2014, Великобритания, боевик, комедия, криминал, приключения, HDRip-AVC] Dub + Original (Eng) + Sub (Rus, Ukr, Eng)2.18 GBKingsman: Секретная служба / Kingsman: The Secret Service (2014) WEB-DLRip-AVC | iTunes1.49 GBKingsman The Golden Circle 2017 English HD TC x2641.33 GBKingsman.The.Golden.Circle.2017.CAM.READNFO.XViD-26k.avi1.64 GBKingsman: Секретная служба / Kingsman: The Secret Service / 2014 / ДБ / HDRip / 1.46 ГБ1.46 GBKingsman The Golden Circle 2017 720p HD-TS x264 HQ-CPG3.99 GBKingsman: Секретная служба / Kingsman: The Secret Service (2014) BDRip 720p4.37 GBKingsman The Golden Circle 2017 HD-TS704.85 MB tparser.org – торрент поисковик по популярным торрент трекерам. Находить и скачивать новинки кино в HDRip и BDRip качестве через tparser намного проще! Добро пожаловать на крупный торрент архив фильмов и игр tparser.org. Вам больше не придется искать торренты на основных торрент трекерах в поисках нужной раздачи – мы предлагаем найти и скачать фильмы в хорошем качестве прямо на нашем сайте. Наш сервис поиска торрентов в реальном времени собирает информацию с крупных торрент трекеров и сортирует полученные результаты в удобную таблицу. Скачивайте торренты без ограничений и без всяких регистраций на трекерах. Начните скачивать торрент kingsman прямо сейчас!

    tparser.org


    Смотрите также