Скачать хоббит 2 через торрент в хорошем качестве торрент


Пустошь Смауга через торрент в хорошем качестве бесплатно BDRemux

бщееУникальный идентификатор : 172599680094457253751087159058502044699 (0x81D97D3E152DC4CB9C4C203A5C74CC1B)Полное имя : D:\Films\The.Hobbit.The.Desolation.of.Smaug.Extended.BDRemux.1080p.mkvФормат : MatroskaВерсия формата : Version 2Размер файла : 34,3 ГбайтПродолжительность : 3 ч. 6 м.Режим общего битрейта : ПеременныйОбщий поток : 26,3 Мбит/секДата кодирования : UTC 2014-10-25 07:11:00Программа кодирования : mkvmerge v5.2.0 ('I can't explain') built on Dec 18 2011 18:12:03Библиотека кодирования : libebml v1.2.3 + libmatroska v1.3.0

ВидеоИдентификатор : 1Формат : AVCФормат/Информация : Advanced Video CodecПрофиль формата : [email protected]Параметр CABAC формата : ДаПараметр ReFrames формата : 2 кадраИдентификатор кодека : V_MPEG4/ISO/AVCПродолжительность : 3 ч. 6 м.Вид битрейта : ПеременныйШирина : 1920 пикселейВысота : 1080 пикселейСоотношение сторон : 16:9Режим частоты кадров : ПостоянныйЧастота кадров : 23,976 кадра/секЦветовое пространство : YUVСубдискретизация насыщенности : 4:2:0Битовая глубина : 8 битТип развёртки : ПрогрессивнаяЯзык : EnglishDefault : ДаForced : Нет

Аудио #1Идентификатор : 2Формат : AC-3Формат/Информация : Audio Coding 3Расширение режима : CM (complete main)Параметр Endianness формата : BigИдентификатор кодека : A_AC3Продолжительность : 3 ч. 6 м.Вид битрейта : ПостоянныйБитрейт : 384 Кбит/секКаналы : 6 каналовРасположение каналов : Front: L C R, Side: L R, LFEЧастота : 48,0 КГцБитовая глубина : 16 битМетод сжатия : С потерямиРазмер потока : 513 Мбайт (1%)Заголовок : DUB, iTunesЯзык : RussianDefault : ДаForced : Нет

Аудио #2Идентификатор : 3Формат : DTSФормат/Информация : Digital Theater SystemsПрофиль формата : MA / CoreРежим : 16Параметр Endianness формата : BigИдентификатор кодека : A_DTSПродолжительность : 3 ч. 6 м.Вид битрейта : ПеременныйБитрейт : Неизвестно / 1509 Кбит/секКаналы : 8 каналов / 6 каналовРасположение каналов : Front: L C R, Side: L R, Back: L R, LFE / Front: L C R, Side: L R, LFEЧастота : 48,0 КГцБитовая глубина : 24 битМетод сжатия : Без потерь / LossyЗаголовок : OriginalЯзык : EnglishDefault : НетForced : Нет

Аудио #3Идентификатор : 4Формат : AC-3Формат/Информация : Audio Coding 3Профиль формата : Dolby DigitalРасширение режима : CM (complete main)Параметр Endianness формата : BigИдентификатор кодека : A_AC3Продолжительность : 3 ч. 6 м.Вид битрейта : ПостоянныйБитрейт : 192 Кбит/секКаналы : 2 каналаРасположение каналов : Front: L RЧастота : 48,0 КГцБитовая глубина : 16 битМетод сжатия : С потерямиРазмер потока : 256 Мбайт (1%)Заголовок : CommentaryЯзык : EnglishDefault : НетForced : Нет

Текст #1Идентификатор : 5Формат : UTF-8Идентификатор кодека : S_TEXT/UTF8Идентификатор кодека/Информация : UTF-8 Plain TextЗаголовок : ForcedЯзык : RussianDefault : ДаForced : Нет

Текст #2Идентификатор : 6Формат : UTF-8Идентификатор кодека : S_TEXT/UTF8Идентификатор кодека/Информация : UTF-8 Plain TextЗаголовок : FullЯзык : RussianDefault : НетForced : Нет

Текст #3Идентификатор : 7Формат : UTF-8Идентификатор кодека : S_TEXT/UTF8Идентификатор кодека/Информация : UTF-8 Plain TextЗаголовок : FullЯзык : UkrainianDefault : НетForced : Нет

Текст #4Идентификатор : 8Формат : UTF-8Идентификатор кодека : S_TEXT/UTF8Идентификатор кодека/Информация : UTF-8 Plain TextЗаголовок : FullЯзык : EnglishDefault : НетForced : Нет

Текст #5Идентификатор : 9Формат : UTF-8Идентификатор кодека : S_TEXT/UTF8Идентификатор кодека/Информация : UTF-8 Plain TextЗаголовок : SDHЯзык : EnglishDefault : НетForced : Нет

Меню00:00:00.000 : en:Chapter 0100:07:33.411 : en:Chapter 0200:12:00.261 : en:Chapter 0300:12:59.403 : en:Chapter 0400:15:55.329 : en:Chapter 0500:20:56.880 : en:Chapter 0600:23:15.310 : en:Chapter 0700:25:52.634 : en:Chapter 0800:29:59.214 : en:Chapter 0900:38:13.708 : en:Chapter 1000:46:43.717 : en:Chapter 1100:49:46.274 : en:Chapter 1200:53:19.196 : en:Chapter 1300:55:10.181 : en:Chapter 1400:58:07.817 : en:Chapter 1501:08:42.284 : en:Chapter 1601:12:22.296 : en:Chapter 1701:15:45.332 : en:Chapter 1801:19:09.828 : en:Chapter 1901:22:46.795 : en:Chapter 2001:25:09.395 : en:Chapter 2101:28:07.490 : en:Chapter 2201:31:15.178 : en:Chapter 2301:36:02.757 : en:Chapter 2401:37:35.724 : en:Chapter 2501:40:35.320 : en:Chapter 2601:45:16.476 : en:Chapter 2701:48:44.434 : en:Chapter 2801:50:31.625 : en:Chapter 2901:52:36.332 : en:Chapter 3001:53:08.239 : en:Chapter 3101:59:16.315 : en:Chapter 3202:07:11.790 : en:Chapter 3302:07:39.068 : en:Chapter 3402:09:22.629 : en:Chapter 3502:12:48.335 : en:Chapter 3602:22:00.803 : en:Chapter 3702:22:43.429 : en:Chapter 3802:23:17.880 : en:Chapter 3902:24:56.187 : en:Chapter 4002:26:45.046 : en:Chapter 4102:29:18.783 : en:Chapter 4202:33:12.683 : en:Chapter 4302:34:57.579 : en:Chapter 4402:36:13.155 : en:Chapter 4502:37:45.914 : en:Chapter 4602:39:08.789 : en:Chapter 4702:41:39.815 : en:Chapter 4802:44:05.794 : en:Chapter 4902:51:16.683 : en:Chapter 5002:56:05.179 : en:Chapter 51

piratbit.ru

Пустошь Смауга через торрент в хорошем качестве бесплатно 1080p

GeneralUnique ID : 202033007308525867914162627514202209829 (0x97FE24507A94BE98BE54E45576A23E25)Complete name : D:\Торенты\The.Hobbit.The.Desolation.of.Smaug.2013.EXTENDED.D.BDRip.1080p_.mkvFormat : MatroskaFormat version : Version 4 / Version 2File size : 13.6 GiBDuration : 3h 6mnOverall bit rate : 10.4 MbpsEncoded date : UTC 2014-10-23 02:00:09Writing application : mkvmerge v6.1.0 ('Old Devil') built on Mar 4 2013 09:10:42Writing library : libebml v1.3.0 + libmatroska v1.4.0

VideoID : 1Format : AVCFormat/Info : Advanced Video CodecFormat profile : [email protected] settings, CABAC : YesFormat settings, ReFrames : 5 framesCodec ID : V_MPEG4/ISO/AVCDuration : 3h 6mnBit rate : 8 554 KbpsWidth : 1 920 pixelsHeight : 800 pixelsDisplay aspect ratio : 2.40:1Frame rate mode : ConstantFrame rate : 23.976 fpsColor space : YUVChroma subsampling : 4:2:0Bit depth : 8 bitsScan type : ProgressiveBits/(Pixel*Frame) : 0.232Stream size : 10.9 GiB (80%)Writing library : x264 core 142 r2479 dd79a61Encoding settings : cabac=1 / ref=5 / deblock=1:0:0 / analyse=0x3:0x133 / me=umh / subme=7 / psy=1 / psy_rd=1.00:0.00 / mixed_ref=1 / me_range=16 / chroma_me=1 / trellis=1 / 8x8dct=1 / cqm=0 / deadzone=21,11 / fast_pskip=0 / chroma_qp_offset=-2 / threads=18 / lookahead_threads=3 / sliced_threads=0 / nr=0 / decimate=1 / interlaced=0 / bluray_compat=0 / constrained_intra=0 / bframes=3 / b_pyramid=2 / b_adapt=1 / b_bias=0 / direct=1 / weightb=1 / open_gop=0 / weightp=2 / keyint=250 / keyint_min=23 / scenecut=40 / intra_refresh=0 / rc_lookahead=40 / rc=2pass / mbtree=1 / bitrate=8554 / ratetol=1.0 / qcomp=0.60 / qpmin=0 / qpmax=69 / qpstep=4 / cplxblur=20.0 / qblur=0.5 / ip_ratio=1.40 / aq=1:1.00Language : EnglishDefault : YesForced : No

Audio #1ID : 2Format : AC-3Format/Info : Audio Coding 3Mode extension : CM (complete main)Format settings, Endianness : BigCodec ID : A_AC3Duration : 3h 6mnBit rate mode : ConstantBit rate : 384 KbpsChannel(s) : 6 channelsChannel positions : Front: L C R, Side: L R, LFESampling rate : 48.0 KHzBit depth : 16 bitsCompression mode : LossyStream size : 513 MiB (4%)Language : RussianDefault : NoForced : No

Audio #2ID : 3Format : DTSFormat/Info : Digital Theater SystemsMode : 16Format settings, Endianness : BigCodec ID : A_DTSDuration : 3h 6mnBit rate mode : ConstantBit rate : 1 509 KbpsChannel(s) : 6 channelsChannel positions : Front: L C R, Side: L R, LFESampling rate : 48.0 KHzBit depth : 24 bitsCompression mode : LossyStream size : 1.97 GiB (14%)Language : EnglishDefault : NoForced : No

TextID : 4Format : UTF-8Codec ID : S_TEXT/UTF8Codec ID/Info : UTF-8 Plain TextLanguage : RussianDefault : YesForced : No

Menu00:00:00.000 : en:00:00:00.00000:07:33.411 : en:00:07:33.41100:12:00.303 : en:00:12:00.30300:12:59.445 : en:00:12:59.44500:15:55.371 : en:00:15:55.37100:20:56.922 : en:00:20:56.92200:23:15.436 : en:00:23:15.43600:25:52.676 : en:00:25:52.67600:29:59.256 : en:00:29:59.25600:38:14.042 : en:00:38:14.04200:46:43.843 : en:00:46:43.84300:49:46.317 : en:00:49:46.31700:53:19.530 : en:00:53:19.53000:55:10.224 : en:00:55:10.22400:58:07.859 : en:00:58:07.85901:08:42.327 : en:01:08:42.32701:12:22.338 : en:01:12:22.33801:15:45.708 : en:01:15:45.70801:19:10.162 : en:01:19:10.16201:22:46.837 : en:01:22:46.83701:25:09.688 : en:01:25:09.68801:28:07.741 : en:01:28:07.74101:31:15.553 : en:01:31:15.55301:36:02.757 : en:01:36:02.75701:37:35.892 : en:01:37:35.89201:40:35.404 : en:01:40:35.40401:45:16.519 : en:01:45:16.51901:48:44.476 : en:01:48:44.47601:50:31.750 : en:01:50:31.75001:52:36.541 : en:01:52:36.54101:53:08.448 : en:01:53:08.44801:59:16.358 : en:01:59:16.35802:07:11.833 : en:02:07:11.83302:07:39.110 : en:02:07:39.11002:09:22.672 : en:02:09:22.67202:12:48.586 : en:02:12:48.58602:22:00.846 : en:02:22:00.84602:22:43.430 : en:02:22:43.43002:23:17.923 : en:02:23:17.92302:24:56.396 : en:02:24:56.39602:26:45.088 : en:02:26:45.08802:29:18.825 : en:02:29:18.82502:33:12.975 : en:02:33:12.97502:34:57.622 : en:02:34:57.62202:36:13.155 : en:02:36:13.15502:37:45.956 : en:02:37:45.95602:39:08.831 : en:02:39:08.83102:41:39.940 : en:02:41:39.94002:44:06.003 : en:02:44:06.00302:51:16.683 : en:02:51:16.68302:56:05.555 : en:02:56:05.555

piratbit.ru

Скачать торрент Хоббит: Пустошь Смауга / The Hobbit: The Desolation of Smaug (2013) 2xDVD5

krutor.org

«Beyond darkness... beyond desolation... lies the greatest danger of all»

Год выпуска: 2012Производство: США, Новая Зеландия / Warner Bros., New Line Cinema, Metro-Goldwyn-Mayer (MGM), WingNut FilmsЖанр: Фэнтези, приключения

Режиссер: Питер ДжексонПродюсеры: Кэролинн Каннингэм, Питер Джексон, Фрэнсис УолшАктеры: Мартин Фриман, Ричард Армитедж, Иэн МакКеллен, Эванджелин Лилли, Орландо Блум, Люк Эванс, Бенедикт Камбербэтч, Ли Пейс, Кен Стотт, Эйдан Тернер

Описание фильма: Продолжение путешествия хоббита Бильбо Бэггинса, волшебника Гэндальфа и 13 отважных гномов. Их компания обязана завершить своё путешествие к Одинокой горе. Там они должны встретиться с величайшей опасностью из всех — созданием куда более ужасающим, чем все их прошлые противники, которое проверит на прочность не только их мужество, но крепость их дружбы и правильность выбранного пути, — драконом Смаугом.

Перевод: ДублированныйСубтитры: Русские, английские

Дата мировой премьеры: 2 декабря 2013Дата российской премьеры: 18 декабря 2013, «Каро-Премьер»Дата выхода DVD/Blu-Ray релиза: 17 апреля 2014, «CP Дистрибуция»

Продолжительность: 01:27:31 + 01:31:25Качество видео: 2xDVD5 [BD -> DVD]

Видео: MPEG-2, [email protected] (PAL 16:9), ~6300 Кбит/секАудио 1: AC3 5.1, 448 Кбит/сек [Русский - дублированный]Аудио 2: AC3 5.1, 448 Кбит/сек [Английский - оригинал]

DVDInfo:

Title: Disc 1 Size: 4.34 Gb ( 4 554 434,00 KBytes ) - DVD-5 Enabled regions: 1, 2, 3, 4, 5, 6, 7, 8

VTS_01 : Play Length: 01:27:31 Video: PAL 16:9 (720x576) VBR, Auto Letterboxed Audio: Russian (Dolby AC3, 6 ch) English (Dolby AC3, 6 ch) Subtitles: Russian Russian English

* Menus Information *

VIDEO_TS Menu Video: PAL 4:3 (720x576) VBR English Language Unit : Title Menu

VTS_01 Menu Video: PAL 16:9 (720x576) VBR Auto Letterboxed Audio: Not specified (Dolby AC3, 2 ch) English Language Unit : Root Menu

Title: Disc 2 Size: 4.35 Gb ( 4 564 670,00 KBytes ) - DVD-5 Enabled regions: 1, 2, 3, 4, 5, 6, 7, 8

VTS_01 : Play Length: 01:31:25 Video: PAL 16:9 (720x576) VBR, Auto Letterboxed Audio: Russian (Dolby AC3, 6 ch) English (Dolby AC3, 6 ch) Subtitles: Russian Russian English

* Menus Information *

VIDEO_TS Menu Video: PAL 4:3 (720x576) VBR English Language Unit : Title Menu

VTS_01 Menu Video: PAL 16:9 (720x576) VBR Auto Letterboxed Audio: Not specified (Dolby AC3, 2 ch) English Language Unit : Root Menu

MediaInfo:

Общее Полное имя : F:ВидеоThe Hobbit. The Desolation of Smaug (2013) 2xDVD5 [BD-DVD] Extended editionDisc 1VIDEO_TSVTS_01_2.VOB Формат : MPEG-PS Размер файла : 1024 Мбайт Продолжительность : 19 м. Режим общего битрейта : Переменный Общий поток : 7356 Кбит/сек

Видео Идентификатор : 224 (0xE0) Формат : MPEG Video Версия формата : Version 2 Профиль формата : [email protected] Параметр BVOP формата : Да Параметр матрицы формата : Выборочная Параметр GOP формата : M=3, N=15 Продолжительность : 19 м. Вид битрейта : Переменный Битрейт : 6313 Кбит/сек Максимальный битрейт : 8900 Кбит/сек Ширина : 720 пикселей Высота : 576 пикселей Соотношение сторон : 16:9 Частота кадров : 25,000 кадров/сек Стандарт вещания : PAL Цветовое пространство : YUV Субдискретизация насыщенности : 4:2:0 Битовая глубина : 8 бит Тип развёртки : Прогрессивная Метод сжатия : С потерями Бит/(Пиксели*Кадры) : 0.609 Временной код первого кадра : 00:22:43:20 Оригинал временного кода : Group of pictures header GOP, открыто/закрыто : Открыто Размер потока : 879 Мбайт (86%)

Аудио #1 Идентификатор : 189 (0xBD)-128 (0x80) Формат : AC-3 Формат/Информация : Audio Coding 3 Расширение режима : CM (complete main) Параметр Endianness формата : Big Режим смешивания : DVD-Video Продолжительность : 19 м. Вид битрейта : Постоянный Битрейт : 448 Кбит/сек Каналы : 6 каналов Расположение каналов : Front: L C R, Side: L R, LFE Частота : 48,0 КГц Битовая глубина : 16 бит Метод сжатия : С потерями Задержка видео : -680 мс. Размер потока : 62,4 Мбайт (6%)

Аудио #2 Идентификатор : 189 (0xBD)-129 (0x81) Формат : AC-3 Формат/Информация : Audio Coding 3 Расширение режима : CM (complete main) Параметр Endianness формата : Big Режим смешивания : DVD-Video Продолжительность : 19 м. Вид битрейта : Постоянный Битрейт : 448 Кбит/сек Каналы : 6 каналов Расположение каналов : Front: L C R, Side: L R, LFE Частота : 48,0 КГц Битовая глубина : 16 бит Метод сжатия : С потерями Задержка видео : -680 мс. Размер потока : 62,4 Мбайт (6%)

Текст #1 Идентификатор : 189 (0xBD)-32 (0x20) Формат : RLE Формат/Информация : Run-length encoding Режим смешивания : DVD-Video Продолжительность : 19 м. Задержка видео : 2 с. 160 мс.

Текст #2 Идентификатор : 189 (0xBD)-34 (0x22) Формат : RLE Формат/Информация : Run-length encoding Режим смешивания : DVD-Video Продолжительность : 19 м. Задержка видео : 2 с. 160 мс.

Меню

Общее Полное имя : F:ВидеоThe Hobbit. The Desolation of Smaug (2013) 2xDVD5 [BD-DVD] Extended editionDisc 2VIDEO_TSVTS_01_1.VOB Формат : MPEG-PS Размер файла : 1024 Мбайт Продолжительность : 20 м. Режим общего битрейта : Переменный Общий поток : 6831 Кбит/сек

Видео Идентификатор : 224 (0xE0) Формат : MPEG Video Версия формата : Version 2 Профиль формата : [email protected] Параметр BVOP формата : Да Параметр матрицы формата : Выборочная Параметр GOP формата : Variable Продолжительность : 20 м. Вид битрейта : Переменный Битрейт : 5799 Кбит/сек Максимальный битрейт : 8900 Кбит/сек Ширина : 720 пикселей Высота : 576 пикселей Соотношение сторон : 16:9 Частота кадров : 25,000 кадров/сек Стандарт вещания : PAL Цветовое пространство : YUV Субдискретизация насыщенности : 4:2:0 Битовая глубина : 8 бит Тип развёртки : Прогрессивная Метод сжатия : С потерями Бит/(Пиксели*Кадры) : 0.559 Временной код первого кадра : 01:27:31:06 Оригинал временного кода : Group of pictures header GOP, открыто/закрыто : Открыто GOP, открыто/закрыто на первом кадре : Закрыто Размер потока : 869 Мбайт (85%)

Аудио #1 Идентификатор : 189 (0xBD)-128 (0x80) Формат : AC-3 Формат/Информация : Audio Coding 3 Расширение режима : CM (complete main) Параметр Endianness формата : Big Режим смешивания : DVD-Video Продолжительность : 20 м. Вид битрейта : Постоянный Битрейт : 448 Кбит/сек Каналы : 6 каналов Расположение каналов : Front: L C R, Side: L R, LFE Частота : 48,0 КГц Битовая глубина : 16 бит Метод сжатия : С потерями Размер потока : 67,1 Мбайт (7%)

Аудио #2 Идентификатор : 189 (0xBD)-129 (0x81) Формат : AC-3 Формат/Информация : Audio Coding 3 Расширение режима : CM (complete main) Параметр Endianness формата : Big Режим смешивания : DVD-Video Продолжительность : 20 м. Вид битрейта : Постоянный Битрейт : 448 Кбит/сек Каналы : 6 каналов Расположение каналов : Front: L C R, Side: L R, LFE Частота : 48,0 КГц Битовая глубина : 16 бит Метод сжатия : С потерями Размер потока : 67,1 Мбайт (7%)

Текст #1 Идентификатор : 189 (0xBD)-32 (0x20) Формат : RLE Формат/Информация : Run-length encoding Режим смешивания : DVD-Video Продолжительность : 20 м. Задержка видео : 1 с. 40 мс.

Текст #2 Идентификатор : 189 (0xBD)-34 (0x22) Формат : RLE Формат/Информация : Run-length encoding Режим смешивания : DVD-Video Продолжительность : 20 м. Задержка видео : 1 с. 40 мс.

Меню

Доп. информация:

Исходником послужил BDRemux. Видео обрабатывалось в Rhozet Carbon Coder за 2 прохода. Звуковые дорожки обрабатывались в Sony Vegas. Меню самодельное, на русском языке сделанное в DVD-lab PRO 2. Главное меню и меню выбора эпизода анимированное. С помощью программы Subtitle Edit перегнал субтитры из 23,976 fps до 25. Главы взятые с BDRemux перегнал из 23,976 fps до 25 с помощью ChapterGen.Скриншоты Disc 1: Скриншоты Disc 2:

Хоббит Пустошь Смауга Расширенная версия торрент скачать

Хоббит: Пустошь Смауга / The Hobbit: The Desolation of Smaug (Питер Джексон / Peter Jackson) [2013, США, Новая Зеландия, фэнтези, приключения, BDRip] [Расширенная версия / Extended Edition] MVO (Омикрон) + Original Eng + Subs2.2 GBХоббит: Пустошь Смауга / The Hobbit: The Desolation of Smaug (Питер Джексон / Peter Jackson) [2013, США, Новая Зеландия, Фэнтези, приключения, BDRip-AVC] [Расширенная версия] Dub + AVO (Ю. Сербин) + AVO (В. Горчаков) + Sub Rus, Eng + Original Eng6.79 GBХоббит: Пустошь Смауга (Расширенная версия) / The Hobbit: The Desolation of Smaug (Extended Cut) / 2013 / ДБ / BDRip / 2.18 ГБ2.18 GBХоббит: Пустошь Смауга (Расширенная версия) / The Hobbit: The Desolation of Smaug (Extended Cut) / 2013 / ДБ, 2 x АП, СТ / BDRip (1080p) / 25.32 ГБ25.32 GBХоббит: Пустошь Смауга 3D / The Hobbit: The Desolation of Smaug 3D (Питер Джексон / Peter Jackson) [2013, фэнтези, приключения, BDRip-AVC] [Расширенная версия / Extended Edition] Half OverUnder / Вертикальная анаморфная стереопара13.27 GBХоббит: Пустошь Смауга / The Hobbit: The Desolation of Smaug (Питер Джексон / Peter Jackson) [2013, Фэнтези, приключения, BDRip 720p] DUB (RUS, BD 3D CEE) + Original (ENG) + Subs (RUS, UKR, ENG) | Расширенная версия| Лицензия7.12 GBХоббит: Пустошь Смауга (Расширенная версия) / The Hobbit: The Desolation of Smaug (Extended Cut) / 2013 / ДБ, СТ / 3D (HOU) / BDRip (1080p) / 13.13 ГБ13.13 GBХоббит: Пустошь Смауга / The Hobbit: The Desolation of Smaug (Питер Джексон / Peter Jackson) [2013, США, Новая Зеландия, Фэнтези, приключения, BDRip] [Расширенная версия / Extended Cut] Dub + Sub (Rus)2.19 GBХоббит: Пустошь Смауга (Расширенная версия) / The Hobbit: The Desolation of Smaug (Extended Cut) / 2013 / ДБ / BDRip / 2.73 ГБ2.73 GBХоббит: Пустошь Смауга (Расширенная версия) / The Hobbit: The Desolation of Smaug (Extended Cut) / 2013 / ДБ, СТ / Blu-Ray Remux (1080p) / 34.36 ГБ34.36 GBХоббит: Пустошь Смауга (Расширенная версия) / The Hobbit: The Desolation of Smaug (Extended Cut) / 2013 / ДБ, 2 x АП, СТ / BDRip (720p) / 11.38 ГБ11.38 GBХоббит: Пустошь Смауга в 3Д (Расширенная Версия) / The Hobbit: The Desolation of Smaug 3D (Extended Cut) (Питер Джексон / Peter Jackson) [2013, фэнтези, приключения, BDremux, 1080p] BD3D [Re-Encode - Left foreshortening first]57.93 GBХоббит: Пустошь Смауга (Расширенная версия) / The Hobbit: The Desolation of Smaug (Extended Cut) / 2013 / ДБ / BDRip (1080p) / 19.42 ГБ19.42 GBХоббит: Пустошь Смауга (Расширенная версия) / The Hobbit: The Desolation of Smaug (Extended Cut) / 2013 / ДБ, СТ / BDRip (AVC) / 4.37 ГБ4.37 GBХоббит: Пустошь Смауга (Расширенная версия) / The Hobbit: The Desolation of Smaug (Extended Cut) / 2013 / ДБ, СТ / 2D, 3D / Blu-Ray Remux (1080p) / 57.91 ГБ57.91 GBХоббит: Пустошь Смауга / The Hobbit: The Desolation of Smaug (Питер Джексон / Peter Jackson) [2013, США, Новая Зеландия, Фэнтези, приключения, BDRip] [Расширенная версия / Extended Cut] Dub + Sub (Rus)2.19 GBХоббит: Пустошь Смауга / The Hobbit: The Desolation of Smaug (Питер Джексон / Peter Jackson) [2013, США, Новая Зеландия, фэнтези, приключения, BD > DVD9+DVD5 (Custom)] [Расширенная версия / Extended Cut] DUB + AVO (Ю. Сербин) + AVO (В. Горчаков)12.1 GBХоббит: Пустошь Смауга (Расширенная версия) / The Hobbit: The Desolation of Smaug (Extended Cut) / 2013 / АП (Горчаков, Сербин), СТ / HDRip / 2.9 ГБ2.9 GBХоббит: Пустошь Смауга (Расширенная версия) в 3Д / The Hobbit: The Desolation of Smaug (Extended Cut) 3D (Питер Джексон / Peter Jackson) [2013, Фэнтези, Приключения, BDrip, 1080p] OverUnder / Вертикальная стереопара24.94 GBХоббит: Пустошь Смауга (Расширенная версия) / The Hobbit: The Desolation of Smaug (Extended Cut) / 2013 / ДБ, СТ / WEB-DL (1080p) / 5.89 ГБ5.89 GBХоббит: Пустошь Смауга (Расширенная версия) / The Hobbit: The Desolation of Smaug (Extended Cut) / 2013 / ДБ, 2 x АП, СТ / BDRip (1080p) / 20.21 ГБ20.21 GBХоббит: Пустошь Смауга (Расширенная версия) / The Hobbit: The Desolation of Smaug (Extended Cut) / 2013 / ДБ, 2 x АП, СТ / Blu-Ray Remux (1080p) / 57.08 ГБ57.08 GBХоббит: Пустошь Смауга (Расширенная версия) / The Hobbit: The Desolation of Smaug (Extended Cut) / 2013 / ДБ / BDRip / 1.45 ГБ1.45 GBХоббит: Пустошь Смауга (Расширенная версия) / The Hobbit: The Desolation of Smaug (Extended Cut) / 2013 / ДБ, СТ / Blu-Ray CEE (1080p) / 40.43 ГБ40.43 GBХоббит: Пустошь Смауга (Расширенная версия) / The Hobbit: The Desolation of Smaug (Extended Cut) / 2013 / ДБ / BDRip (720p) / 10.01 ГБ10.01 GBХоббит: Пустошь Смауга (Расширенная версия) / The Hobbit: The Desolation of Smaug (Extended Cut) / 2013 / ДБ, СТ / 3D / Blu-Ray CEE (1080p) / 64.79 ГБ64.79 GBХоббит: Пустошь Смауга (Расширенная версия) / The Hobbit: The Desolation of Smaug (Extended Cut) / 2013 / ДБ, СТ / 3D (HOU) / BDRip (1080p) / 19.54 ГБ19.54 GBХоббит: Пустошь Смауга (Расширенная версия) / The Hobbit: The Desolation of Smaug / 2013 / ДБ, 2 x АП, СТ / 2D, 3D / Blu-Ray Remux (1080p) / 77.44 ГБ77.44 GBХоббит: Пустошь Смауга / The Hobbit: The Desolation of Smaug (Питер Джексон / Peter Jackson) [2013, США, Новая Зеландия, фэнтези, приключения, AC3, NTSC] [Extended Cut / Расширенная версия] Dub (вставки AVO Сербин)597.9 MBХоббит: Пустошь Смауга (Расширенная версия) / The Hobbit: The Desolation of Smaug (Extended Cut) / 2013 / ДБ, СТ / 3D (OU) / HEVC / BDRip (1080p) / 12.07 ГБ12.07 GBХоббит: Пустошь Смауга (Расширенная версия) / 2013 / ДБ, АП (Сербин), СТ / 3D (HOU) / BDRip (1080p) / 19.64 ГБ19.64 GBХоббит: Пустошь Смауга (Расширенная версия) / The Hobbit: The Desolation of Smaug (Extended Cut) / 2013 / ДБ, СТ / 2D, 3D / Blu-Ray Remux (1080p) / 57.93 ГБ57.93 GBХоббит: Пустошь Смауга (Расширенная версия) / The Hobbit: The Desolation of Smaug (Extended Cut) / 2013 / ДБ, СТ / 3D (OU) / BDRip (1080p) / 31.3 ГБ31.3 GBХоббит: Пустошь Смауга (Расширенная версия) / The Hobbit: The Desolation of Smaug (Extended Cut) / 2013 / ДБ, СТ / 3D (OU) / BDRip (1080p) / 24.94 ГБ24.94 GBХоббит: Пустошь Смауга (Расширенная версия) / The Hobbit: The Desolation of Smaug (Extended Cut) / 2013 / ДБ, 2 x ПМ, 2 x АП, СТ / BDRip (720p) / 19.76 ГБ19.76 GBХоббит: Пустошь Смауга (Расширенная версия) / The Hobbit: The Desolation of Smaug (Extended Cut) / 2013 / ПМ, СТ / Blu-Ray Remux (1080p) / 49.37 ГБ49.37 GBХоббит: Пустошь Смауга (Расширенная версия) / The Hobbit: The Desolation of Smaug (Extended Cut) / 2013 / ДБ, СТ / 2D, 3D / Blu-Ray Remux (1080p) / 44.55 ГБ44.55 GBХоббит: Пустошь Смауга (Расширенная версия) / The Hobbit: The Desolation of Smaug / 2013 / ДБ, АП (Сербин, Горчаков), СТ / DVD-9 + DVD-5 / 12.1 ГБ12.1 GB tparser.org – торрент поисковик по популярным торрент трекерам. Находить и скачивать новинки кино в HDRip и BDRip качестве через tparser намного проще! Добро пожаловать на крупный торрент архив фильмов и игр tparser.org. Вам больше не придется искать торренты на основных торрент трекерах в поисках нужной раздачи – мы предлагаем найти и скачать фильмы в хорошем качестве прямо на нашем сайте. Наш сервис поиска торрентов в реальном времени собирает информацию с крупных торрент трекеров и сортирует полученные результаты в удобную таблицу. Скачивайте торренты без ограничений и без всяких регистраций на трекерах. Начните скачивать торрент Хоббит Пустошь Смауга Расширенная версия прямо сейчас!

tparser.org


Смотрите также