Скачать голодный кролик атакует торрент в хорошем качестве


Скачать фильм Голодный кролик атакует (2011) через торрент

gig-torrent.net

20 января 2016 10:17 Голодный кролик атакует / Seeking Justice (2011) Blu-Ray | Rus Transfer | Лицензия .torrent   [Информация о файле (нажмите для просмотра)] Перевод: Дублированный (Лицензия)Кодек: MPEG-4 AVCКачество: Blu-RayВидео: 1920x1080 ~ 14560 kbps / 23,976 fps /Аудио#1: RussianСубтитры: Нет 12,94 Gb 10 5
20 января 2016 10:17 Голодный кролик атакует / Seeking Justice (2011) BDRip 720p от Leonardo and Scarabey | Лицензия | Rus Transfer .torrent   [Информация о файле (нажмите для просмотра)] Перевод: Профессиональный (полное дублирование) ЛицензияФормат: MKVВидео кодек: MPEG-4 AVC Аудио кодек: AC3Видео: AVC, 1280x536 (2.40:1) at 23.976 fps, AVC at 4134 kbps avg, 0.246 bit/pixelАудио: 48 kHz, AC3 Dolby Digital, 3/2 (L,C,R,l,r) + LFE ch, 640.00 kbps - Russian 3,5 Gb 82 4
20 января 2016 10:17 Голодный кролик атакует / Seeking Justice (2011) BDRip-AVC | iPad .torrent   [Информация о файле (нажмите для просмотра)] Перевод: ДублированныйСубтитры: английскиеФормат: MP4 (контейнер m4v)Видео: AVC,, 1024x440 (2.35:1) at 24.000 fps, AVC at 2019 kbps avg, 0.187 bit/pixelАудио: Русский: 48 kHz, AAC, 2ch, 127 kbps | ДублированныйАудио: Английский: 48 kHz, AAC, 2ch, 124 Kbps | Оригинал 1,67 Gb 7 4
20 января 2016 10:17 Голодный кролик атакует / Seeking Justice (2011) HDRip от Scarabey | Лицензия .torrent   [Информация о файле (нажмите для просмотра)] Перевод: Профессиональный (дублированный)Видео: 720x304 (2.37:1), 24.000 fps, XviD build 50 ~1520 kbps avg, 0.29 bit/pixelАудио: 48 kHz, AC3 Dolby Digital, 3/2 (L,C,R,l,r) + LFE ch, ~384.00 kbps avg 1,4 Gb 140 8
20 января 2016 10:17 Голодный кролик атакует / Seeking Justice (2011) HDRip от Scarabey | Лицензия .torrent   [Информация о файле (нажмите для просмотра)] Перевод: Профессиональный (дублированный)Видео: 688x288 (2.39:1), 24.000 fps, XviD build 50 ~854 kbps avg, 0.18 bit/pixelАудио: 48 kHz, MPEG Layer 3, 2 ch, ~128.00 kbps avg 745,21 Mb 24 2
20 января 2016 10:17 Голодный кролик атакует / Seeking Justice (2011) DVD5 .torrent   [Информация о файле (нажмите для просмотра)] Перевод: Профессиональный (дублированный)Кодек: MPEG-2Качество: DVD5 (источник: DVD9)Видео: (PAL 16:9), 25 fps, 5738 kbpsЗвук: AC3, 6 ch, 448 kbpsСубтитры: Не имеются 4,35 Gb 2 4
20 января 2016 10:17 Голодный кролик атакует / Seeking Justice (2011) DVDRip | КПК от Generalfilm .torrent   [Информация о файле (нажмите для просмотра)] Качество: DVDRip | КПКВидео: кодеккодек: x264,формат: mp4,размер кадра: 480x208, битрейт: 300 кб/сАудио: языкрусский, перевод: дублированный (дубляж), 299,35 Mb 6 4
20 января 2016 10:17 Голодный кролик атакует / Seeking Justice (2011) BDRip 720p .torrent   [Информация о файле (нажмите для просмотра)] Перевод: ДублированныйФормат: MKVКачество: BDRip 720pВидео: MPEG-4 AVC, 7058 Кбит/с, 1280x546Звук: Аудио 1 Русский (DTS, 6 ch, 1510 Кбит/с) Аудио 2 Английский (DTS, 6 ch, 1510 Кбит/с)Субтитры: Английские 7,54 Gb 6 2
20 января 2016 10:17 Голодный кролик атакует / Seeking Justice (2011) HDRip от AllSmartPhones | КПК .torrent   463,01 Mb 1 4
20 января 2016 10:17 Голодный Кролик Атакует / Seeking Justice (2011) BDRip 1080p .torrent   [Информация о файле (нажмите для просмотра)] Перевод: ДублированныйКодек: h364Качество: BDRip 1080pВидео: 1920x816, 5516 Kbps, 24.000 fpsЗвук: 48 kHz, AC3, 6c, 448 kbps 4,37 Gb 10 1
20 января 2016 10:17 Голодный кролик атакует / Seeking Justice (2011) BDRip 1080p .torrent   [Информация о файле (нажмите для просмотра)] Перевод: Дублированный (Лицензия, Blu-ray)Контейнер: .mkvКачество: BDRip (1080p)Видео: MPEG-4 AVC, 7978 Кбит/с, 1920x820, 24.000 кадр/сАудио: Русский / английский (AC3, 6 ch, 448 Кбит/c, 48,0 КГц)Субтитры: английские 6,64 Gb 6 1
20 января 2016 10:17 Голодный кролик атакует / Seeking Justice (2011) HDRip-AVC .torrent   [Информация о файле (нажмите для просмотра)] Перевод: Дублированный (Лицензия) + ОригиналСубтитры: АнглийскиеФормат: MKVКачество: HDRip-AVC (BDRip 1080p -BlueBird)Видео: H.264/AVC, 768x328, 24.000 fps, 1481 кбит/сек, 0.245 bit/pixelАудио #1: 48.0 KHz / 24.0 KHz, HE-AAC, 2 channels (Front: L R), 64 kbps |DUBАудио #2: 48.0 KHz / 24.0 KHz, HE-AAC, 2 channels (Front: L R), 64 kbps |ENG | Отдельно 1,07 Gb 7 4
20 января 2016 10:17 Голодный кролик атакует / Seeking Justice (2011) BDRip 720p .torrent   4,29 Gb 4 2
20 января 2016 10:17 Голодный кролик атакует / Seeking Justice (2011) BDRip от HELLYWOOD | Лицензия .torrent   [Информация о файле (нажмите для просмотра)] Перевод: Дубляж | ЛицензияСубтитры: ОтсутствуютФормат: AVIКачество: BDRip (источник: /Blu-Ray Disc {ITA Transfer} -BLUEBIRD /1080p) Видео: 720x304 (2.37:1), 24 fps, XviD build 65, 2072 kbps avg, 0.39 bit/pixelАудио №1: 48 kHz, AC3 Dolby Digital, 3/2 (L,C,R,l,r) + LFE ch, ~448 kbps|DUB|Аудио №2: 48 kHz, AC3 Dolby Digital, 3/2 (L,C,R,l,r) + LFE ch, ~448 kbps|Оригинал| 2,18 Gb 3 4
20 января 2016 10:17 Голодный кролик атакует / Seeking Justice (2011) BDRip 720p | Лицензия .torrent   [Информация о файле (нажмите для просмотра)] Формат: MKV(H.264)Качество: BDRip 720pВидео: 1280x544, 6682 kb/sАудио: Russian: AC3, 384 kb/s (6 ch) / English: DTS, 1510 kb/s (6 ch)Субтитры: АнглийскиеMediaInfoОбщее Complete name : Golodniy.krolik.atakuet.2011.D.BDRip.720p.mkv Format : Matroska File size : 5,28 Гбайт Duration : 1 ч. 45 м. Overall bit rate : 7202 Кбит/сек Encoded date : UTC 2012-02-13 19:59:59 Writing application : mkvmerge v5.2.0 ('I can't explain') built on Dec 18 2011 18:12:03 Writing library : libebml v1.2.3 + libmatroska v1.3.0 Видео: ID : 1 Format : AVC Format/Info : Advanced Video Codec Format profile : [email protected] Format settings, CABAC : Да Format settings, ReFrames : 12 кадры Format settings, GOP : M=1, N=24 Codec ID : V_MPEG4/ISO/AVC Duration : 1 ч. 45 м. Bit rate : 5307 Кбит/сек Width : 1280 пикс. Height : 544 пикс. Display aspect ratio : 2,35:1 Frame rate : 24,000 кадр/сек Color space : YUV Chroma subsampling : 4:2:0 Bit depth : 8 бит Scan type : Прогрессивная Bits/(Pixel*Frame) : 0.318 Stream size : 3,79 Гбайт (72%) Writing library : x264 core 119 r2106+636 fcb18f7 Encoding settings : cabac=1 / ref=12 / deblock=1:-3:-3 / analyse=0x3:0x113 / me=umh / subme=11 / psy=1 / fade_compensate=0.00 / psy_rd=1.05:0.10 / mixed_ref=1 / me_range=32 / chroma_me=1 / trellis=2 / 8x8dct=1 / cqm=1 / deadzone=21,11 / fast_pskip=0 / chroma_qp_offset=-2 / threads=12 / sliced_threads=0 / nr=0 / decimate=1 / interlaced=0 / bluray_compat=0 / constrained_intra=0 / fgo=0 / bframes=6 / b_pyramid=2 / b_adapt=2 / b_bias=0 / direct=3 / weightb=1 / open_gop=0 / weightp=2 / keyint=250 / keyint_min=24 / scenecut=40 / intra_refresh=0 / rc_lookahead=40 / rc=2pass / mbtree=1 / bitrate=5307 / ratetol=1.0 / qcomp=0.70 / qpmin=3 / qpmax=69 / qpstep=4 / cplxblur=20.0 / qblur=0.5 / vbv_maxrate=40000 / vbv_bufsize=30000 / nal_hrd=none / ip_ratio=1.40 / aq=2:1.00 Language : English Аудио #1: ID : 2 Format : AC-3 Format/Info : Audio Coding 3 Mode extension : CM (complete main) Codec ID : A_AC3 Duration : 1 ч. 45 м. Bit rate mode : Постоянный Bit rate : 384 Кбит/сек Channel(s) : 6 канала(ов) Channel positions : Front: L C R, Side: L R, LFE Sampling rate : 48,0 КГц Bit depth : 16 бит Compression mode : С потерями Stream size : 288 Мбайт (5%) Language : Russian Аудио #2: ID : 3 Format : DTS Format/Info : Digital Theater Systems Codec ID : A_DTS Duration : 1 ч. 45 м. Bit rate mode : Постоянный Bit rate : 1510 Кбит/сек Channel(s) : 6 канала(ов) Channel positions : Front: L C R, Side: L R, LFE Sampling rate : 48,0 КГц Bit depth : 24 бит Compression mode : С потерями Stream size : 1,11 Гбайт (21%) Language : English 5,28 Gb 4 1
20 января 2016 10:16 Голодный кролик атакует / Seeking Justice (2011) BDRip 1080p | Лицензия .torrent   [Информация о файле (нажмите для просмотра)] Качество: BDRip 1080pВидео: MPEG-4 AVC, 12.1 Мбит/с, 1920x816, 24.000 кадр/сАудио: Русский (DTS, 6 ch, 1536 Кбит/с), английский (DTS, 6 ch, 1536 Кбит/с)Перевод: Дублированный [лицензия]Субтитры: Английские 11,11 Gb 8 5
20 января 2016 10:16 Голодный кролик атакует / Seeking Justice (2011) HDRip-AVC от R.G. AVI | AVC | Лицензия .torrent   [Информация о файле (нажмите для просмотра)] Перевод: Профессиональный (полное дублирование)Качество: HDRip-AVC [BDRip 720p]Формат: MKVВидео: H.264, 1072x456 (2,35:1), 23,976 кадр/сек, 2221 Кбит/сек, 0.189 bit/pixelАудио#1: AC3, 6 ch., 48 kHz, ~384.00 kbps |RUSАудио#2: AC3, 6 ch., 48 kHz, ~448.00 kbps |ENG 2,24 Gb 7 2
20 января 2016 10:16 Голодный кролик атакует / Seeking Justice (2011) DVD9 | Лицензия .torrent   [Информация о файле (нажмите для просмотра)] Качество: DVD9Видео: PAL 16:9 (720x576) VBR, 25.00 fps, 7812 kbpsАудио: Русский (Dolby AC3, 6 ch), (DTS, 5 ch), 448.00 kbps, 48 KHzПеревод: Дублированный [лицензия] 6,27 Gb 3 1

Голодный кролик атакует 2011 - скачать бесплатно через торрент в хорошем качестве. Без регистрации

www.kinovit.net

Название: Голодный кролик атакует / Seeking Justice (2011) Blu-Ray | Rus Transfer | Лицензия
Качество видео: Blu-Ray
Перевод: Дублированный (Лицензия)
Видео: MPEG-4 AVC 1920x1080 ~ 14560 kbps / 23,976 fps /
Аудио: DTS-HD MA 5.1 (48 kHz / 2030 kbps / 16-bit) | Дубляж
Скачать

Загрузка начнется в течение 5 сек.

12.94 GB

Название: Голодный кролик атакует / Seeking Justice (2011) BDRip 720p от LEONARDO and Scarabey | Лицензия | Rus Transfer
Качество видео: BDRip 720p Исходник: Blu-ray {Rus Transfer}
Перевод: Профессиональный (полное дублирование) Лицензия
Формат видео: MKV Видео кодек: MPEG-4 AVC Аудио кодек: AC3
Видео: AVC, 1280x536 (2.40:1) at 23.976 fps, AVC at 4134 kbps avg, 0.246 bit/pixel
Аудио: 48 kHz, AC3 Dolby Digital, 3/2 (L,C,R,l,r) + LFE ch, 640.00 kbps - Russian
Скачать

Загрузка начнется в течение 5 сек.

3.50 GB

Название: Голодный кролик атакует / Seeking Justice (2011) BDRip-AVC | iPad
Качество видео: BDRip Исходник: Blu-ray
Перевод: Дублированный
Формат видео: MP4 (контейнер m4v)
Видео: AVC, [email protected], 1024x440 (2.35:1) at 24.000 fps, AVC at 2019 kbps avg, 0.187 bit/pixel
Аудио: Русский: 48 kHz, AAC, 2ch, 127 kbps | ДублированныйАнглийский: 48 kHz, AAC, 2ch, 124 Kbps | Оригинал
Скачать

Загрузка начнется в течение 5 сек.

1.67 GB

Название: Голодный кролик атакует / Seeking Justice (2011) HDRip от Scarabey | Лицензия
Качество видео: HDRip
Перевод: Профессиональный (дублированный)
Видео: 688x288 (2.39:1), 24.000 fps, XviD build 50 ~854 kbps avg, 0.18 bit/pixel
Аудио: 48 kHz, MPEG Layer 3, 2 ch, ~128.00 kbps avg
Скачать

Загрузка начнется в течение 5 сек.

745.21 MB

Название: Голодный кролик атакует / Seeking Justice (2011) HDRip от Scarabey | Лицензия
Качество видео: HDRip
Перевод: Профессиональный (дублированный)
Видео: 720x304 (2.37:1), 24.000 fps, XviD build 50 ~1520 kbps avg, 0.29 bit/pixel
Аудио: 48 kHz, AC3 Dolby Digital, 3/2 (L,C,R,l,r) + LFE ch, ~384.00 kbps avg
Скачать

Загрузка начнется в течение 5 сек.

1.40 GB

Название: Голодный кролик атакует / Seeking Justice (2011) BDRip 720p
Качество видео: BDRip 720p
Перевод: Дублированный
Формат видео: MKV
Видео: MPEG-4 AVC, 7058 Кбит/с, 1280x546
Аудио: Аудио 1 Русский (DTS, 6 ch, 1510 Кбит/с)
Скачать

Загрузка начнется в течение 5 сек.

7.54 GB

Название: Голодный кролик атакует / Seeking Justice (2011) DVDRip | КПК от Generalfilm
Качество видео: DVDRip | КПК
Видео: кодек: x264, формат: mp4, размер кадра: 480x208, битрейт: 300 кб/с
Аудио: язык: русский, перевод: дублированный (дубляж), кодек: AAC LC 2.0, битрейт: 96 кб/с
Скачать

Загрузка начнется в течение 5 сек.

299.35 MB

Название: Голодный кролик атакует / Seeking Justice (2011) HDRip от AllSmartPhones | КПК
Качество видео: HDRip [источник BDRip 720p]
Формат видео: mp4
Видео: MPEG4 (DivX)
Аудио: 48000 Hz, AAC, ~96.00 kbps avg, 2ch
Скачать

Загрузка начнется в течение 5 сек.

463.01 MB

Название: Голодный Кролик Атакует / Seeking Justice (2011) BDRip 1080p
Качество видео: BDRip 1080p
Перевод: Дублированный
Видео: h364 1920x816, 5516 Kbps, 24.000 fps
Аудио: 48 kHz, AC3, 6c, 448 kbps
Скачать

Загрузка начнется в течение 5 сек.

4.37 GB

Название: Голодный кролик атакует / Seeking Justice (2011) BDRip от HQCLUB | Лицензия
Качество видео: BDRip (источник: HANSMER / Blu-Ray Remux [ITA] / 1080р)
Перевод: Профессиональный (полное дублирование) + Оригинал (английский)
Формат видео: AVI
Видео: 720x304 (2.37:1), 24.000 fps, XviD build 72 ~2072 kbps avg, 0.39 bit/pixel
Аудио: 48 kHz, AC3 Dolby Digital, 3/2 (L,C,R,l,r) + LFE ch, ~448 kbps avg (RUS)48 kHz, AC3 Dolby Digital, 3/2 (L,C,R,l,r) + LFE ch, ~448 kbps avg (ENG)
Скачать

Загрузка начнется в течение 5 сек.

2.18 GB

Название: Голодный кролик атакует / Seeking Justice (2011) BDRip-AVC
Качество видео: BDRip (Рип с Блю-рей, subme=11 / rc=2pass)
Перевод: Дублированный (Лицензия, Blu-ray)
Видео: MPEG-4 AVC, 2209 Кбит/с, 1280x544, 24.000 кадр/с
Аудио: Русский / английский (AC3, 6 ch, 448 Кбит/c, 48,0 КГц)
Скачать

Загрузка начнется в течение 5 сек.

2.28 GB

Название: Голодный кролик атакует / Seeking Justice (2011) BDRip 1080p от R.G. GoldenShara | Лицензия
Качество видео: BDRip [1080p] (Исходник Blu-Ray)
Перевод: Дублированное [лицензия]
Видео: 1920x820, 5569 Кбит/сек, 24,000 кадр/сек, AVC, x264, 2,35:1, 0.147 Бит/[Пиксели*Кадры], 2pass
Аудио: AC-3, 384 Кбит/сек, 6 канала(ов), 48,0 КГц
Скачать

Загрузка начнется в течение 5 сек.

4.36 GB

Название: Голодный кролик атакует / Seeking Justice (2011) BDRip-AVC
Качество видео: BDRip (Рип с Блю-рей, subme=11 / rc=2pass)
Перевод: Дублированный (Лицензия, Blu-ray)
Видео: MPEG-4 AVC, 1598 Кбит/с, 1120x476, 24.000 кадр/с
Аудио: Русский (AC3, 6 ch, 448 Кбит/c, 48,0 КГц)
Скачать

Загрузка начнется в течение 5 сек.

1.50 GB

Название: Голодный кролик атакует / Seeking Justice (2011) BDRip от HQ-ViDEO
Качество видео: BDRip (Исходник: Blu-ray)
Формат видео: AVI
Видео: XviD, build 65 , 720 x 304 (2.37:1), 24 fps; ~2059 kbps; 0.39 bit/pixel
Аудио: 48 kHz, AC3 Dolby Digital, 3/2 (L,C,R,l,r) + LFE ch, ~448.00 kbps avg48 kHz, AC3 Dolby Digital, 3/2 (L,C,R,l,r) + LFE ch, ~448.00 kbps avg
Скачать

Загрузка начнется в течение 5 сек.

2.18 GB

Название: Голодный Кролик Атакует / Seeking Justice (2011) Blu-Ray
Качество видео: Blu-Ray (1080p)
Перевод: Дублированный[color='red'][лицензия][/color]
Видео: М2ТS MPEG-4 AVC, 19998 Кбит/с, 1920x1080, 23.976 кадр/с
Аудио: Русский (DTS-HD МА, 6 ch, 2033 Кбит/с), английский (DTS-HD МА, 6 ch, 2683 Кбит/с)
Скачать

Загрузка начнется в течение 5 сек.

19.70 GB

Название: Голодный кролик атакует / Seeking Justice (2011) HDRip | Лицензия
Качество видео: HDRip
Перевод: Дублированный [лицензия]
Видео: XviD, 1407 Кбит/с, 720x304
Аудио: АС3, 6 ch, 448 Кбит/с
Скачать

Загрузка начнется в течение 5 сек.

1.37 GB

Название: Голодный кролик атакует / Seeking Justice (2011) BDRip 720p от R.G. GoldenShara | Лицензия
Качество видео: BDRip [720p]
Перевод: Дублированное [лицензия]
Видео: 1280x544, 2597 Кбит/сек, 24,000 кадр/сек, AVC, x264, 2,35:1, 0.155 Бит/[Пиксели*Кадры], 2pass
Аудио: AC-3, 384 Кбит/сек, 6 канала(ов), 48,0 КГц
Скачать

Загрузка начнется в течение 5 сек.

2.18 GB

Название: Голодный кролик атакует / Seeking Justice (2011) BDRip 720p | Лицензия
Качество видео: BDRip 720p
Формат видео: MKV(H.264)
Видео: 1280x544, 6682 kb/s
Аудио: Russian: AC3, 384 kb/s (6 ch) / English: DTS, 1510 kb/s (6 ch)
Скачать

Загрузка начнется в течение 5 сек.

5.28 GB

Название: Голодный кролик атакует / Seeking Justice (2011) HDRip-AVC от R.G. AVI | AVC | Лицензия
Перевод: Профессиональный (полное дублирование) лицензия
Формат видео: MKV
Видео: H.264, 1072x456 (2,35:1), 23,976 кадр/сек, 2466 Кбит/сек, 0.230 bit/pixel
Аудио: AC3, 6 ch., 48 kHz, ~384.00 kbps | RUSAC3, 6 ch., 48 kHz, ~448.00 kbps | ENG
Скачать

Загрузка начнется в течение 5 сек.

2.24 GB

Название: Голодный кролик атакует / Seeking Justice (2011) DVD9 | Лицензия
Качество видео: DVD9
Перевод: Дублированный [лицензия]
Видео: PAL 16:9 (720x576) VBR, 25.00 fps, 7812 kbps
Аудио: Русский (Dolby AC3, 6 ch), (DTS, 5 ch), 448.00 kbps, 48 KHz
Скачать

Загрузка начнется в течение 5 сек.

6.27 GB

Название: Голодный кролик атакует / Seeking Justice (2011) HDRip | Лицензия
Качество видео: HDRip
Перевод: Дублированный [лицензия]
Видео: XviD, 791 kb/s, 640x272, 23.976 fps
Аудио: MP3, 128 kb/s, 2 канала, 48.0 KHz
Скачать

Загрузка начнется в течение 5 сек.

698.66 MB

Название: Голодный кролик атакует / Seeking Justice (2011) HDRip | Лицензия
Качество видео: HDRip [Рип с BDRip 720p]
Перевод: Дублированный [лицензия]
Видео: 720x304 (2.37:1), 24.000 fps, XviD MPEG-4 ~1896 kbps avg, 0.36 bit/pixel
Аудио: Russian / English 48 kHz, AC3 Dolby Digital, 3/2 (L,C,R,l,r) + LFE ch, ~448 kbps
Скачать

Загрузка начнется в течение 5 сек.

2.05 GB

Название: Голодный кролик атакует / Seeking Justice (2011) BDRip 1080p | Лицензия
Качество видео: BDRip 1080p
Перевод: Дублированный [лицензия]
Видео: MPEG-4 AVC, 12.1 Мбит/с, 1920x816, 24.000 кадр/с
Аудио: Русский (DTS, 6 ch, 1536 Кбит/с), английский (DTS, 6 ch, 1536 Кбит/с)
Скачать

Загрузка начнется в течение 5 сек.

11.11 GB

Название: Голодный кролик атакует / Seeking Justice (2011) BDRip от HELLYWOOD | Лицензия
Качество видео: BDRip (источник: /Blu-Ray Disc {ITA Transfer} -BLUEBIRD /1080p)
Перевод: Дубляж | Лицензия
Формат видео: AVI
Видео: 720x304 (2.37:1), 24 fps, XviD build 65, 2072 kbps avg, 0.39 bit/pixel
Аудио: 48 kHz, AC3 Dolby Digital, 3/2 (L,C,R,l,r) + LFE ch, ~448 kbps |DUB|48 kHz, AC3 Dolby Digital, 3/2 (L,C,R,l,r) + LFE ch, ~448 kbps |Оригинал|
Скачать

Загрузка начнется в течение 5 сек.

2.18 GB

Голодный кролик атакует через торрент

piratbit.ru

Размер: 2.05 GB | Добавлен: 5 лет 8 мес. назад | Торрент скачан:935 раз
Реклама Дарим 3000 рублей за регистрацию, не упусти свой шанс получить шикарный бонус!!!

14-02-2012 05:40 Голодный кролик атакует Скачать торрент  

Голодный кролик атакует / Seeking Justice

Год выпуска: 2011Страна: СШАЖанр: боевик, триллер, драмаПродолжительность: 105 мин. Перевод: Профессиональный (полное дублирование) [Лицензия]

Режиссер: Роджер ДональдсонПродюссер: Рэм Бергман, Тоби Магуайр, Джеймс Д. ШтернСценарий: Роберт Таннен, Тодд Хикки

Премьера в мире: 2 сентября 2011

R-лицам до 17 лет обязательно присутствие взрослогоМировой рейтинг IMDB 6.10 (4 485)

В ролях: Николас Кейдж, Дженьюэри Джонс, Гай Пирс, Дженнифер Карпентер, Хэролд Перрино, Ксандер Беркли, Айрон Э. Синглтон, Майк Пневски, Моника Акоста, Джо Крест, Василий Дахненко, Наталья Фищук, Даниил Щебланов, Томас Шлеккер

Описание: «Месть всегда имеет свою цену»Фильм сфокусируется на человеке, супруга которого становится жертвой жестокого преступления, и он внедряется в тайную организацию мстителей.

Качество: HDRipФормат: AVIВидео кодек: XviDАудио кодек: AC3Видео: 1 885 Kbps, 720 pixels х 304 pixels, 24.000 fps, 0.359Аудио#1: 448 Кбит/сек, 6 каналов, 48,0 КГц(Русская)Аудио#2: 448 kbps, 6ch, 48 kHz(Английская)

Скачать Голодный кролик атакует через торрент http://i31.fastpic.ru/big/2012/0214/0e/a60ad8ded3ad8d4d6f5f080c63f9960e.jpg Скачать фильм Голодный кролик атакует через торрент бесплантно в хорошем качестве Описание: «Месть всегда имеет свою цену»Фильм сфокусируется на человеке, супруга которого становится жертвой жестокого преступления, и он ... 2012-02-14 05:40 9.3 10 6

Loading...

Loading...

% Раздел Тема Автор DL S | L
Фильмы [HD 720p, 1080p] (Хороший звук DUB, MVO) [ 5.28 GB ] Голодный кролик атакует / Seeking Justice [2011 BDRip ] m9sо Скачать
Фильмы [HD 720p, 1080p] (Хороший звук DUB, MVO) [ 7.55 GB ] Голодный кролик атакует / Seeking Justice [2011 BDRip 720p] diletant Скачать
Фильмы 2011 [ 699 MB ] Голодный кролик атакует / Seeking Justice [2011 HDRipлицензия] WISE Скачать
Фильмы (Blu-ray, BD-Remux, HDDVD) [ 19.69 GB ] Голодный кролик атакует / Seeking Justice [2011 . Blu-ray Disc 1080p] {ITA Transfer} ACFIORENTINA Скачать
Фильмы [HD 720p, 1080p] (Хороший звук DUB, MVO) [ 11.45 GB ] Голодный кролик атакует / Seeking Justice [2011 . . BDRip 1080p] Shmel Скачать
Фильмы [HD 720p, 1080p] (Хороший звук DUB, MVO) [ 7.54 GB ] Голодный кролик атакует / Seeking Justice [2011 BDRip лицензия] ~Relizer~ Скачать
Фильмы 2011 [ 1.96 GB ] Голодный кролик атакует / Seeking Justice [2011 //HDRip-AVCлицензия] slaventi-69 Скачать

Рекламный пират

14-02-2012 07:39 Голодный кролик атакует Скачать торрент  

Ещё не смотрел, но качество - звук и изо оч хорошее!Несомненное спасибо автору!Сугубо личное мнение.

14-02-2012 10:17 Голодный кролик атакует Скачать торрент  

Фильм не плохой, как и актеры, сам сюжет очень смотрибелен, но вот подкачали толи режиссерское виденье, толи операторская работа. Мое субъективное мнение. Но в общем, фильм оставил хорошее впечатление.

17-02-2012 17:39 Голодный кролик атакует Скачать торрент  

Для меня так на один раз, хотя актеры великолепные.

Дорогой пользователь! Огромная просьба, поблагодарите релизера, оцените раздачу и оставьте свои комментарий, если Вы скачали Голодный кролик атакует через торрент бесплатно! Внесите свою лепту в развитие PiratBit!

Комментировать посты могут только пользователи прошедшие не сложную регистрацию

Голодный кролик атакует через торрент Скачать бесплатно Голодный кролик атакует Голодный кролик атакует скачать торрент Голодный кролик атакует смотреть онлайн Cкачать фильм Голодный кролик атакует бесплатно Голодный кролик атакует скачать торрент в хорошем качестве Голодный кролик атакует смотреть онлайн бесплатно в хорошем качестве

Вы не можете начинать темыВы не можете отвечать на сообщенияВы не можете редактировать свои сообщенияВы не можете удалять свои сообщенияВы не можете голосовать в опросахВы не можете прикреплять файлы к сообщениямВы можете скачивать файлы

Голодный кролик атакует через торрент

Disc Title: SEEKING_JUSTICE_BD_BLUEBIRDDisc Size: 21 143 676 897 bytesProtection: AACSBD-Java: YesBDInfo: 0.5.2Notes:BDINFO HOME AND REPORTS SUBMISSION:Cinema Squidhttp://www.cinemasquid.com/Tools.aspxINCLUDES FORUMS REPORT FOR:Unofficial Blu-ray Audio and Video Specifications Threadhttp://www.avsforum.com/avs-vb/showthread.php?t=760714http://forum.blu-ray.com/showthread.php?t=3338********************PLAYLIST: 00002.MPLS********************

Код:

Total   VideoTitle                                                           Codec   Length  Movie Size      Disc Size       Bitrate Bitrate Main Audio Track                          Secondary Audio Track-----                                                           ------  ------- --------------  --------------  ------- ------- ------------------                        ---------------------00002.MPLS                                                      AVC     1:45:01 20 766 013 440  21 143 676 897  26,37   20,00   DTS-HD Master 5.1 2683Kbps (48kHz/16-bit)

Код:

DISC INFO:Disc Title:     SEEKING_JUSTICE_BD_BLUEBIRDDisc Size:      21 143 676 897 bytesProtection:     AACSBD-Java:        YesBDInfo:         0.5.2PLAYLIST REPORT:Name:                   00002.MPLSSize:                   20 766 013 440 bytesLength:                 1:45:01 (h:m:s)Total Bitrate:          26,37 MbpsDescription:VIDEO:Codec                   Bitrate             Description-----                   -------             -----------MPEG-4 AVC Video        19998 kbps          1080p / 24 fps / 16:9 / High Profile 4.1AUDIO:Codec                           Language        Bitrate         Description-----                           --------        -------         -----------DTS-HD Master Audio             English         2683 kbps       5.1 / 48 kHz / 2683 kbps / 16-bit (DTS Core: 5.1 / 48 kHz / 1509 kbps / 16-bit)DTS-HD Master Audio             Russian         2036 kbps       5.1 / 48 kHz / 2036 kbps / 16-bit (DTS Core: 5.1 / 48 kHz / 1509 kbps / 16-bit)SUBTITLES:Codec                           Language        Bitrate         Description-----                           --------        -------         -----------Presentation Graphics           Italian         38,673 kbpsFILES:Name            Time In         Length          Size            Total Bitrate----            -------         ------          ----            -------------00002.M2TS      0:00:00.000     1:45:01.000     20 766 013 440  26 365CHAPTERS:Number          Time In         Length          Avg Video Rate  Max 1-Sec Rate  Max 1-Sec Time  Max 5-Sec Rate  Max 5-Sec Time  Max 10Sec Rate  Max 10Sec Time  Avg Frame Size  Max Frame Size  Max Frame Time------          -------         ------          --------------  --------------  --------------  --------------  --------------  --------------  --------------  --------------  --------------  --------------1               0:00:00.000     0:08:46.833     20 842 kbps     40 394 kbps     00:02:32.041    36 437 kbps     00:02:28.666    34 582 kbps     00:02:24.041    108 534 bytes   569 105 bytes   00:05:08.9162               0:08:46.833     0:10:43.166     18 405 kbps     36 845 kbps     00:18:57.416    33 756 kbps     00:12:20.708    29 315 kbps     00:16:25.333    95 861 bytes    581 595 bytes   00:12:22.2913               0:19:30.000     0:09:06.416     25 188 kbps     39 986 kbps     00:19:51.208    34 994 kbps     00:19:51.416    33 901 kbps     00:19:47.999    131 188 bytes   575 574 bytes   00:24:22.0414               0:28:36.416     0:08:09.416     19 271 kbps     44 938 kbps     00:34:38.041    36 159 kbps     00:34:36.708    32 030 kbps     00:34:35.958    100 368 bytes   583 278 bytes   00:33:38.3335               0:36:45.833     0:09:33.583     23 968 kbps     43 206 kbps     00:46:06.208    34 614 kbps     00:40:01.624    33 871 kbps     00:40:01.249    124 836 bytes   580 574 bytes   00:40:03.1666               0:46:19.416     0:10:01.583     29 815 kbps     39 082 kbps     00:46:19.666    33 428 kbps     00:46:19.458    32 069 kbps     00:46:19.624    155 287 bytes   579 000 bytes   00:47:09.0417               0:56:21.000     0:07:09.000     18 919 kbps     33 897 kbps     00:56:42.083    31 529 kbps     00:56:42.249    31 076 kbps     00:56:34.583    98 538 bytes    530 357 bytes   00:59:11.9588               1:03:30.000     0:09:08.500     18 195 kbps     39 923 kbps     01:08:23.541    31 880 kbps     01:06:19.041    28 148 kbps     01:09:44.249    94 764 bytes    558 494 bytes   01:09:47.2919               1:12:38.500     0:08:25.583     18 176 kbps     41 176 kbps     01:14:32.874    34 478 kbps     01:14:29.708    31 454 kbps     01:14:28.958    94 668 bytes    530 614 bytes   01:14:32.91610              1:21:04.083     0:08:30.083     18 413 kbps     36 993 kbps     01:28:20.916    32 007 kbps     01:28:18.708    30 492 kbps     01:27:30.208    95 902 bytes    514 545 bytes   01:28:51.41611              1:29:34.166     0:10:14.833     14 993 kbps     40 166 kbps     01:34:19.749    27 713 kbps     01:35:05.749    24 107 kbps     01:32:14.833    78 087 bytes    466 848 bytes   01:39:45.70812              1:39:49.000     0:05:12.000     7 747 kbps      16 216 kbps     01:43:58.333    14 962 kbps     01:43:56.083    14 311 kbps     01:43:53.833    40 359 bytes    156 145 bytes   01:43:58.458STREAM DIAGNOSTICS:File            PID             Type            Codec           Language                Seconds                 Bitrate                 Bytes           Packets----            ---             ----            -----           --------                --------------          --------------          -------------   -----00002.M2TS      4113 (0x1011)   0x1B            AVC                                     6300,833                19 999                  15 751 211 659  85 692 73700002.M2TS      4352 (0x1100)   0x86            DTS-HD MA       rus (Russian)           6300,833                2 036                   1 603 411 124   9 694 55600002.M2TS      4353 (0x1101)   0x86            DTS-HD MA       eng (English)           6300,833                2 683                   2 113 177 220   12 464 88900002.M2TS      4608 (0x1200)   0x90            PGS             ita (Italian)           6300,833                39                      30 459 872      171 779

QUICK SUMMARY:Disc Title: SEEKING_JUSTICE_BD_BLUEBIRDDisc Size: 21 143 676 897 bytesProtection: AACSBD-Java: YesPlaylist: 00002.MPLSSize: 20 766 013 440 bytesLength: 1:45:01Total Bitrate: 26,37 MbpsVideo: MPEG-4 AVC Video / 19998 kbps / 1080p / 24 fps / 16:9 / High Profile 4.1Audio: English / DTS-HD Master Audio / 5.1 / 48 kHz / 2683 kbps / 16-bit (DTS Core: 5.1 / 48 kHz / 1509 kbps / 16-bit)Audio: Russian / DTS-HD Master Audio / 5.1 / 48 kHz / 2036 kbps / 16-bit (DTS Core: 5.1 / 48 kHz / 1509 kbps / 16-bit)Subtitle: Italian / 38,673 kbps********************PLAYLIST: 00004.MPLS********************

Код:

Total   VideoTitle                                                           Codec   Length  Movie Size      Disc Size       Bitrate Bitrate Main Audio Track                          Secondary Audio Track-----                                                           ------  ------- --------------  --------------  ------- ------- ------------------                        ---------------------00004.MPLS                                                      MPEG-2  0:01:44 261 120 000     21 143 676 897  19,99   18,85   DD AC3 2.0 192Kbps

Код:

DISC INFO:Disc Title:     SEEKING_JUSTICE_BD_BLUEBIRDDisc Size:      21 143 676 897 bytesProtection:     AACSBD-Java:        YesBDInfo:         0.5.2PLAYLIST REPORT:Name:                   00004.MPLSSize:                   261 120 000 bytesLength:                 0:01:44 (h:m:s)Total Bitrate:          19,99 MbpsDescription:VIDEO:Codec                   Bitrate             Description-----                   -------             -----------MPEG-2 Video            18852 kbps          1080i / 25 fps / 16:9AUDIO:Codec                           Language        Bitrate         Description-----                           --------        -------         -----------Dolby Digital Audio             Italian         192 kbps        2.0 / 48 kHz / 192 kbps / Dolby SurroundFILES:Name            Time In         Length          Size            Total Bitrate----            -------         ------          ----            -------------00004.M2TS      0:00:00.000     0:01:44.519     261 120 000     19 986CHAPTERS:Number          Time In         Length          Avg Video Rate  Max 1-Sec Rate  Max 1-Sec Time  Max 5-Sec Rate  Max 5-Sec Time  Max 10Sec Rate  Max 10Sec Time  Avg Frame Size  Max Frame Size  Max Frame Time------          -------         ------          --------------  --------------  --------------  --------------  --------------  --------------  --------------  --------------  --------------  --------------1               0:00:00.000     0:01:44.519     18 852 kbps     32 187 kbps     00:00:56.519    25 921 kbps     00:00:56.519    23 313 kbps     00:00:55.440    94 261 bytes    491 152 bytes   00:00:56.799STREAM DIAGNOSTICS:File            PID             Type            Codec           Language                Seconds                 Bitrate                 Bytes           Packets----            ---             ----            -----           --------                --------------          --------------          -------------   -----00004.M2TS      4113 (0x1011)   0x02            MPEG-2                                  104,400                 18 874                  246 305 170     1 340 14400004.M2TS      4352 (0x1100)   0x81            AC3             ita (Italian)           104,400                 192                     2 508 288       16 330

QUICK SUMMARY:Disc Title: SEEKING_JUSTICE_BD_BLUEBIRDDisc Size: 21 143 676 897 bytesProtection: AACSBD-Java: YesPlaylist: 00004.MPLSSize: 261 120 000 bytesLength: 0:01:44Total Bitrate: 19,99 MbpsVideo: MPEG-2 Video / 18852 kbps / 1080i / 25 fps / 16:9Audio: Italian / Dolby Digital Audio / 2.0 / 48 kHz / 192 kbps / Dolby Surround********************PLAYLIST: 00001.MPLS********************

Код:

Total   VideoTitle                                                           Codec   Length  Movie Size      Disc Size       Bitrate Bitrate Main Audio Track                          Secondary Audio Track-----                                                           ------  ------- --------------  --------------  ------- ------- ------------------                        ---------------------00001.MPLS                                                      AVC     0:00:14 884 736         21 143 676 897  0,50    0,41

Код:

DISC INFO:Disc Title:     SEEKING_JUSTICE_BD_BLUEBIRDDisc Size:      21 143 676 897 bytesProtection:     AACSBD-Java:        YesBDInfo:         0.5.2PLAYLIST REPORT:Name:                   00001.MPLSSize:                   884 736 bytesLength:                 0:00:14 (h:m:s)Total Bitrate:          0,50 MbpsDescription:VIDEO:Codec                   Bitrate             Description-----                   -------             -----------MPEG-4 AVC Video        409 kbps            1080p / 23,976 fps / 16:9 / High Profile 4.1FILES:Name            Time In         Length          Size            Total Bitrate----            -------         ------          ----            -------------00001.M2TS      0:00:00.000     0:00:13.263     866 304         52300000.M2TS      0:00:13.263     0:00:01.000     18 432          147CHAPTERS:Number          Time In         Length          Avg Video Rate  Max 1-Sec Rate  Max 1-Sec Time  Max 5-Sec Rate  Max 5-Sec Time  Max 10Sec Rate  Max 10Sec Time  Avg Frame Size  Max Frame Size  Max Frame Time------          -------         ------          --------------  --------------  --------------  --------------  --------------  --------------  --------------  --------------  --------------  --------------1               0:00:00.000     0:00:14.264     409 kbps        886 kbps        00:00:11.511    605 kbps        00:00:07.382    482 kbps        00:00:03.253    2 132 bytes     44 674 bytes    00:00:07.507STREAM DIAGNOSTICS:File            PID             Type            Codec           Language                Seconds                 Bitrate                 Bytes           Packets----            ---             ----            -----           --------                --------------          --------------          -------------   -----00001.M2TS      4113 (0x1011)   0x1B            AVC                                     13,138                  438                     719 385         4 04900000.M2TS      4113 (0x1011)   0x1B            AVC                                     0,876                   88                      9 666           60

QUICK SUMMARY:Disc Title: SEEKING_JUSTICE_BD_BLUEBIRDDisc Size: 21 143 676 897 bytesProtection: AACSBD-Java: YesPlaylist: 00001.MPLSSize: 884 736 bytesLength: 0:00:14Total Bitrate: 0,50 MbpsVideo: MPEG-4 AVC Video / 409 kbps / 1080p / 23,976 fps / 16:9 / High Profile 4.1

piratbit.ru

Голодный кролик атакует через торрент

piratbit.ru

Размер: 11.45 GB | Добавлен: 5 лет 8 мес. назад | Торрент скачан:253 раза
Реклама Дарим 3000 рублей за регистрацию, не упусти свой шанс получить шикарный бонус!!!

14-02-2012 15:59 Голодный кролик атакует Скачать торрент  

[font="monospace"]Голодный кролик атакует / Seeking Justice[font="cursive"]«Vengeance always has a price» Страна: СШАЖанр: боевик, триллер, драмаГод выпуска: 2011Продолжительность: 01:45:01Перевод: Профессиональный (полное дублирование)Формат субтитров: srtОригинальная аудиодорожка: АнглийскаяРежиссёр: Роджер Дональдсон / Roger DonaldsonВ ролях: Николас Кейдж, Дженьюэри Джонс, Гай Пирс, Дженнифер Карпентер, Хэролд Перрино, Ксандер Беркли, Айрон Э. Синглтон, Майк Пневски, Моника Акоста, Джо КрестОписание: Фильм сфокусируется на человеке, супруга которого становится жертвой жестокого преступления, и он внедряется в тайную организацию мстителей...Доп. инфо: Релиз от Исходник: Seeking Justice 2011 1080p ITA Blu-ray AVC DTS-HD MA 5.1Тип релиза: BDRip 1080p (NF)Контейнер: MKVВидео кодек: H.26xАудио кодек: DTSВидео: h364 / 12584 kbps / 1920x820 / 24 fps / 16:9 / High Profile 4.1Аудио 1: Русский дубляж / DTS / 5.1 / 1536 kbps / 48 kHzАудио 2: Английский / DTS / 5.1 / 1536 kbps / 48 kHzСубтитры : Английские srtЧаптеры: есть

Полное имя : Seeking.Justice.2011.Blu-ray.1080p.x264-NF.Rus.Eng.mkvФормат : MatroskaВерсия формата : Version 2Размер файла : 11,4 ГбайтПродолжительность : 1 ч. 45 м.Общий поток : 15,6 Мбит/секНазвание фильма : HANSMERДата кодирования : UTC 2012-02-14 06:01:25Программа кодирования : mkvmerge v5.3.0 ('I could have danced') built on Feb 9 2012 10:38:07Библиотека кодирования : libebml v1.2.3 + libmatroska v1.3.0ВидеоИдентификатор : 1Формат : AVCФормат/Информация : Advanced Video CodecПрофиль формата : [email protected]Параметр CABAC формата : ДаПараметр ReFrames формата : 5 кадровИдентификатор кодека : V_MPEG4/ISO/AVCПродолжительность : 1 ч. 45 м.Битрейт : 12,3 Мбит/секШирина : 1920 пикселейВысота : 820 пикселейСоотношение сторон : 2,35:1Частота кадров : 24,000 кадра/секЦветовое пространство : YUVСубдискретизация насыщенности : 4:2:0Битовая глубина : 8 битТип развёртки : ПрогрессивнаяБит/(Пиксели*Кадры) : 0.325Размер потока : 9,00 Гбайт (79%)Заголовок : Seeking Justice 2011 1080p BluRay x264-NFБиблиотека кодирования : x264 core 120 r2146 bcd41dbНастройки программы : cabac=1 / ref=5 / deblock=1:-3:-3 / analyse=0x3:0x113 / me=umh / subme=11 / psy=1 / psy_rd=1.00:0.00 / mixed_ref=1 / me_range=16 / chroma_me=1 / trellis=2 / 8x8dct=1 / cqm=0 / deadzone=21,11 / fast_pskip=0 / chroma_qp_offset=-2 / threads=6 / sliced_threads=0 / nr=0 / decimate=0 / interlaced=0 / bluray_compat=0 / constrained_intra=0 / bframes=7 / b_pyramid=2 / b_adapt=2 / b_bias=0 / direct=3 / weightb=1 / open_gop=0 / weightp=2 / keyint=240 / keyint_min=24 / scenecut=40 / intra_refresh=0 / rc=crf / mbtree=0 / crf=18.3 / qcomp=0.70 / qpmin=0 / qpmax=69 / qpstep=4 / ip_ratio=1.40 / pb_ratio=1.30 / aq=1:0.70Язык : EnglishАудио #1Идентификатор : 2Формат : DTSФормат/Информация : Digital Theater SystemsИдентификатор кодека : A_DTSПродолжительность : 1 ч. 45 м.Вид битрейта : ПостоянныйБитрейт : 1510 Кбит/секКаналы : 6 каналовРасположение каналов : Front: L C R, Side: L R, LFEЧастота : 48,0 КГцБитовая глубина : 24 битМетод сжатия : С потерямиРазмер потока : 1,11 Гбайт (10%)Язык : RussianАудио #2Идентификатор : 3Формат : DTSФормат/Информация : Digital Theater SystemsИдентификатор кодека : A_DTSПродолжительность : 1 ч. 45 м.Вид битрейта : ПостоянныйБитрейт : 1510 Кбит/секКаналы : 6 каналовРасположение каналов : Front: L C R, Side: L R, LFEЧастота : 48,0 КГцБитовая глубина : 24 битМетод сжатия : С потерямиРазмер потока : 1,11 Гбайт (10%)Язык : EnglishТекстИдентификатор : 4Формат : UTF-8Идентификатор кодека : S_TEXT/UTF8Идентификатор кодека/Информация : UTF-8 Plain TextЯзык : EnglishМеню00:00:00.000 : en:Chapter 0100:08:46.833 : en:Chapter 0200:19:30.000 : en:Chapter 0300:28:36.417 : en:Chapter 0400:36:45.833 : en:Chapter 0500:46:19.417 : en:Chapter 0600:56:21.000 : en:Chapter 0701:03:30.000 : en:Chapter 0801:12:38.500 : en:Chapter 0901:21:04.083 : en:Chapter 1001:29:34.167 : en:Chapter 1101:39:49.000 : en:Chapter 12

Скачать Голодный кролик атакует через торрент http://i28.fastpic.ru/big/2012/0213/40/480e5bab6597d9dd3e2441952470aa40.png Скачать фильм Голодный кролик атакует через торрент бесплантно в хорошем качестве Описание: Фильм сфокусируется на человеке, супруга которого становится жертвой жестокого преступления, и он внедряется в тайную организацию ... 2012-02-14 15:59 5 10 7

Loading...

Loading...

Рекламный пират

Дорогой пользователь! Огромная просьба, поблагодарите релизера, оцените раздачу и оставьте свои комментарий, если Вы скачали Голодный кролик атакует через торрент бесплатно! Внесите свою лепту в развитие PiratBit!

Комментировать посты могут только пользователи прошедшие не сложную регистрацию

Голодный кролик атакует через торрент Скачать бесплатно Голодный кролик атакует Голодный кролик атакует скачать торрент Голодный кролик атакует смотреть онлайн Cкачать фильм Голодный кролик атакует бесплатно Голодный кролик атакует скачать торрент в хорошем качестве Голодный кролик атакует смотреть онлайн бесплатно в хорошем качестве

Вы не можете начинать темыВы не можете отвечать на сообщенияВы не можете редактировать свои сообщенияВы не можете удалять свои сообщенияВы не можете голосовать в опросахВы не можете прикреплять файлы к сообщениямВы можете скачивать файлы


Смотрите также