Скачать голодные игры сойка пересмешница скачать торрент в хорошем качестве


Сойка-пересмешница. Часть I через торрент в хорошем качестве бесплатно 720p

Общее Уникальный идентификатор : 248105125191826534811968294674921769794 (0xBAA74F1A6178B0E38C7CD6E7E6294B42) Полное имя : G.I.Soyka.Peresmeshnitca.Chast'.I.2014.DUAL.BDRip.720p.-HELLYWOOD.mkv Формат : Matroska Версия формата : Version 4 / Version 2 Размер файла : 3,91 Гбайт Продолжительность : 2 ч. 2 м. Общий поток : 4553 Кбит/сек Название фильма : The Hunger Games: Mockingjay - Part 1 (2014) - HELLYWOOD Дата кодирования : UTC 2010-02-22 21:41:31 Программа кодирования : mkvmerge v5.8.0 ('No Sleep / Pillow') built on Sep 30 2012 10:57:14 Библиотека кодирования : libebml v1.3.0 + libmatroska v1.4.0

Видео Идентификатор : 1 Формат : AVC Формат/Информация : Advanced Video Codec Профиль формата : [email protected] Параметр CABAC формата : Да Параметр ReFrames формата : 9 кадров Идентификатор кодека : V_MPEG4/ISO/AVC Продолжительность : 2 ч. 2 м. Битрейт : 3271 Кбит/сек Ширина : 1280 пикселей Высота : 534 пикселя Соотношение сторон : 2,40:1 Режим частоты кадров : Постоянный Частота кадров : 23,976 кадра/сек Цветовое пространство : YUV Субдискретизация насыщенности : 4:2:0 Битовая глубина : 8 бит Тип развёртки : Прогрессивная Бит/(Пиксели*Кадры) : 0.200 Размер потока : 2,73 Гбайт (70%) Заголовок : potroks Библиотека кодирования : x264 core 130 r2273 b3065e6 Настройки программы : cabac=1 / ref=9 / deblock=1:-3:-3 / analyse=0x3:0x133 / me=umh / subme=11 / psy=1 / psy_rd=1.00:0.05 / mixed_ref=1 / me_range=48 / chroma_me=1 / trellis=2 / 8x8dct=1 / cqm=0 / deadzone=21,11 / fast_pskip=0 / chroma_qp_offset=-3 / threads=9 / lookahead_threads=6 / sliced_threads=0 / nr=0 / decimate=0 / interlaced=0 / bluray_compat=0 / constrained_intra=0 / bframes=11 / b_pyramid=2 / b_adapt=2 / b_bias=0 / direct=3 / weightb=1 / open_gop=0 / weightp=2 / keyint=250 / keyint_min=23 / scenecut=40 / intra_refresh=0 / rc_lookahead=60 / rc=2pass / mbtree=0 / bitrate=3271 / ratetol=1.0 / qcomp=0.70 / qpmin=0 / qpmax=69 / qpstep=4 / cplxblur=20.0 / qblur=0.5 / vbv_maxrate=50000 / vbv_bufsize=62500 / nal_hrd=none / ip_ratio=1.35 / pb_ratio=1.25 / aq=1:0.70 Язык : English Default : Да Forced : Нет

Аудио #1 Идентификатор : 2 Формат : AC-3 Формат/Информация : Audio Coding 3 Расширение режима : CM (complete main) Параметр Endianness формата : Big Идентификатор кодека : A_AC3 Продолжительность : 2 ч. 2 м. Вид битрейта : Постоянный Битрейт : 640 Кбит/сек Каналы : 6 каналов Расположение каналов : Front: L C R, Side: L R, LFE Частота : 48,0 КГц Битовая глубина : 16 бит Метод сжатия : С потерями Задержка видео : 1 с. 700 мс. Размер потока : 562 Мбайт (14%) Заголовок : Dub | DD 5.1 @ 640 kbps - Blu-Ray RUS Язык : Russian Default : Да Forced : Нет

Аудио #2 Идентификатор : 3 Формат : AC-3 Формат/Информация : Audio Coding 3 Расширение режима : CM (complete main) Параметр Endianness формата : Big Идентификатор кодека : A_AC3 Продолжительность : 2 ч. 2 м. Вид битрейта : Постоянный Битрейт : 640 Кбит/сек Каналы : 6 каналов Расположение каналов : Front: L C R, Side: L R, LFE Частота : 48,0 КГц Битовая глубина : 16 бит Метод сжатия : С потерями Задержка видео : 750 мс. Размер потока : 562 Мбайт (14%) Заголовок : Original | DD 5.1 @ 640 kbps Язык : English Default : Нет Forced : Нет

Текст #1 Идентификатор : 4 Формат : UTF-8 Идентификатор кодека : S_TEXT/UTF8 Идентификатор кодека/Информация : UTF-8 Plain Text Заголовок : форс. [MartinaG] Язык : Russian Default : Да Forced : Нет

Текст #2 Идентификатор : 5 Формат : UTF-8 Идентификатор кодека : S_TEXT/UTF8 Идентификатор кодека/Информация : UTF-8 Plain Text Язык : Russian Default : Нет Forced : Нет

Текст #3 Идентификатор : 6 Формат : UTF-8 Идентификатор кодека : S_TEXT/UTF8 Идентификатор кодека/Информация : UTF-8 Plain Text Заголовок : Full Язык : English Default : Нет Forced : Нет

Текст #4 Идентификатор : 7 Формат : UTF-8 Идентификатор кодека : S_TEXT/UTF8 Идентификатор кодека/Информация : UTF-8 Plain Text Заголовок : SDH Язык : English Default : Нет Forced : Нет

Текст #5 Идентификатор : 8 Формат : UTF-8 Идентификатор кодека : S_TEXT/UTF8 Идентификатор кодека/Информация : UTF-8 Plain Text Заголовок : SDH-Colored Язык : English Default : Нет Forced : Нет

Меню 00:00:00.000 : en:(01)00:00:00:000 00:08:43.648 : en:(02)00:08:43:648 00:15:21.378 : en:(03)00:15:21:378 00:22:56.082 : en:(04)00:22:56:082 00:29:52.457 : en:(05)00:29:52:457 00:36:45.744 : en:(06)00:36:45:744 00:42:34.967 : en:(07)00:42:34:967 00:50:33.989 : en:(08)00:50:33:989 00:56:31.012 : en:(09)00:56:31:012 01:02:14.896 : en:(10)01:02:14:896 01:09:27.829 : en:(11)01:09:27:829 01:17:37.444 : en:(12)01:17:37:444 01:25:10.104 : en:(13)01:25:10:104 01:34:20.945 : en:(14)01:34:20:945 01:41:33.837 : en:(15)01:41:33:837 01:47:20.100 : en:(16)01:47:20:100 02:02:50.154 : en:(17)02:02:50:154

piratbit.ru

Сойка-пересмешница. Часть I через торрент в хорошем качестве бесплатно HDRip

piratbit.ru

Раздают: 1 [ 0 KB/s ]
Размер: 1.46 GB | Добавлен: 2 года 7 мес. назад | Торрент скачан:2587 раз
Реклама Дарим 3000 рублей за регистрацию, не упусти свой шанс получить шикарный бонус!!!

19-03-2015 03:00 Голодные игры: Сойка-пересмешница. Часть I Скачать торрент  

Голодные игры: Сойка-пересмешница. Часть I / The Hunger Games: Mockingjay - Part 1 «Храбрость одного изменит мир» Информация:✦ Год выпуска:2014✦ Страна: США✦ Жанр:фантастика, приключения✦ Продолжительность02:02:50✦ Перевод:Дублированное [iTunes] ✦ Режиссер:Френсис Лоуренс В ролях: Дженнифер Лоуренс (Katniss Everdeen), Лиам Хемсворт (Gale Hawthorne), Джош Хатчерсон (Peeta Mellark), Джулианна Мур (President Alma Coin), Филип Сеймур Хоффман (Plutarch Heavensbee), Дональд Сазерленд (President Snow), Вуди Харрельсон (Haymitch Abernathy), Элизабет Бэнкс (Effie Trinket), Натали Дормер (Cressida), Сэм Клафлин (Finnick Odair), Уиллоу Шилдс (Primrose Everdeen), Махершала Али (Boggs)Описание: 75-ые Голодные игры изменили все. Китнисс нарушила правила, и непоколебимое до той поры деспотичное правление Капитолия пошатнулось. У людей появилась надежда, и ее символ - Сойка-пересмешница. Теперь, чтобы освободить захваченного в плен Пита и защитить своих близких, Китнисс придется сражаться в настоящих битвах и стать еще сильнее, чем на арене игр.
  • Мировая премьера:10 ноября 2014 Тех.Данные: ✦ Качество: HDRip✦ Формат:AVI✦ Видео кодек: XviD✦ Аудио кодек:AC3✦Видео: XviD, 720x304 (2.40:1), 1500 kbps, 25 fps, 0,314 bpp✦Аудио №1: AC-3, 48.0 KHz, (6 ch), 384 Kbps, CBR (Russian)

    Скриншоты:

    © Оформление by Ворон
  • Скачать Голодные игры: Сойка-пересмешница. Часть I через торрент http://pic1.pb.wtf/images/9/2cnwg.jpg Скачать фильм Голодные игры: Сойка-пересмешница. Часть I через торрент бесплантно в хорошем качестве Год выпуска:2014✦ Страна: США✦ Жанр:фантастика, приключения ✦ Продолжительность02:02:50✦ Перевод:Дублированное [iTunes] ✦ ... 2015-03-19 03:00 8.9 10 60

    Loading...

    Loading...

    % Раздел Тема Автор DL S | L
    Фильмы (Blu-ray, BD-Remux, HDDVD) [ 20.27 GB ] Голодные игры: Сойка-пересмешница. Часть I / The Hunger Games: Mockingjay - Part 1 [2014 Blu-ray 1080p] Dub «Lizard Cinema Trade» voovaz Скачать
    Фильмы (Blu-ray, BD-Remux, HDDVD) [ 27.43 GB ] Голодные игры: Сойка-пересмешница. Часть I / The Hunger Games: Mockingjay - Part 1 [2014 BDRemux 1080p |DUB+AVO- Матвеев] Ворон Скачать
    Фильмы [HD 720p, 1080p] (Хороший звук DUB, MVO) [ 11.25 GB ] Голодные игры: Сойка-пересмешница. Часть I / The Hunger Games: Mockingjay - Part 1 [2014 BDRip 1080p / ] Ворон Скачать
    Фильмы [HD 720p, 1080p] (Хороший звук DUB, MVO) [ 3.91 GB ] Голодные игры: Сойка-пересмешница. Часть I / The Hunger Games: Mockingjay - Part 1 [2014 BDRip 720p] DUB [] potroks Скачать
    Фильмы 2014 [DVDrip, WEB-DLRip, HDrip] [ 2.18 GB ] Голодные игры: Сойка-пересмешница. Часть I / The Hunger Games: Mockingjay - Part 1 [2014 BDRip-AVC] DUB potroks Скачать
    Фильмы 2014 [DVDrip, WEB-DLRip, HDrip] [ 1.46 GB ] Голодные игры: Сойка-пересмешница. Часть I / The Hunger Games: Mockingjay - Part 1 [2014 BDRip-AVC] DUB potroks Скачать
    Фильмы [HD 720p, 1080p] (Хороший звук DUB, MVO) [ 9.17 GB ] Голодные игры: Сойка-пересмешница. Часть I / The Hunger Games: Mockingjay - Part 1 [US Transfer] [2014 BDRip 1080p] [] + Original + Sub от R.G. PiratFilms Messa-fan Скачать

    Рекламный пират

    01-04-2015 11:39 Голодные игры: Сойка-пересмешница. Часть I Скачать торрент  

    Дорогой пользователь! Огромная просьба, поблагодарите релизера, оцените раздачу и оставьте свои комментарий, если Вы скачали Голодные игры: Сойка-пересмешница. Часть I через торрент бесплатно! Внесите свою лепту в развитие PiratBit!

    Комментировать посты могут только пользователи прошедшие не сложную регистрацию

    Голодные игры: Сойка-пересмешница. Часть I через торрент Скачать бесплатно Голодные игры: Сойка-пересмешница. Часть I Голодные игры: Сойка-пересмешница. Часть I скачать торрент Голодные игры: Сойка-пересмешница. Часть I смотреть онлайн Cкачать фильм Голодные игры: Сойка-пересмешница. Часть I бесплатно Голодные игры: Сойка-пересмешница. Часть I скачать торрент в хорошем качестве Голодные игры: Сойка-пересмешница. Часть I смотреть онлайн бесплатно в хорошем качестве

    Вы не можете начинать темыВы не можете отвечать на сообщенияВы не можете редактировать свои сообщенияВы не можете удалять свои сообщенияВы не можете голосовать в опросахВы не можете прикреплять файлы к сообщениямВы можете скачивать файлы

    Сойка-пересмешница. Часть II через торрент в хорошем качестве бесплатно 1080p / iTunes

    Format : Matroska

    Format version : Version 4 / Version 2

    File size : 11.0 GiB

    Duration : 2h 16mn

    Overall bit rate : 11.5 Mbps

    Movie name : Голодные игры: Сойка-пересмешница. Часть II. (Tonik)

    Encoded date : UTC 2016-03-21 19:59:02

    Writing application : mkvmerge v7.1.0 ('Good Love') 64bit built on Jul 27 2014 13:06:55

    Writing library : libebml v1.3.0 + libmatroska v1.4.1

    _STATISTICS_WRITING_APP : mkvmerge v7.1.0 ('Good Love') 64bit built on Jul 27 2014 13:06:55

    _STATISTICS_WRITING_DATE_UTC : 2016-03-21 19:59:02

    _STATISTICS_TAGS : BPS DURATION NUMBER_OF_FRAMES NUMBER_OF_BYTES

    DURATION : 02:16:57.251000000

    NUMBER_OF_FRAMES : 197017

    NUMBER_OF_BYTES : 10755851282

    Video

    ID : 1

    Format : AVC

    Format/Info : Advanced Video Codec

    Format profile : [email protected]

    Format settings, CABAC : Yes

    Format settings, ReFrames : 5 frames

    Codec ID : V_MPEG4/ISO/AVC

    Bit rate : 10.5 Mbps

    Width : 1 920 pixels

    Height : 800 pixels

    Display aspect ratio : 2.40:1

    Frame rate mode : Variable

    Original frame rate : 23.976 fps

    Color space : YUV

    Chroma subsampling : 4:2:0

    Bit depth : 8 bits

    Scan type : Progressive

    Bits/(Pixel*Frame) : 0.285

    Writing library : x264 core 148 r2597 e86f3a1

    Encoding settings : cabac=1 / ref=5 / deblock=1:0:0 / analyse=0x3:0x113 / me=umh / subme=10 / psy=1 / psy_rd=1.05:0.10 / mixed_ref=1 / me_range=48 / chroma_me=1 / trellis=2 / 8x8dct=1 / cqm=0 / deadzone=21,11 / fast_pskip=0 / chroma_qp_offset=-2 / threads=12 / lookahead_threads=1 / sliced_threads=0 / nr=0 / decimate=1 / interlaced=0 / bluray_compat=0 / constrained_intra=0 / bframes=6 / b_pyramid=2 / b_adapt=2 / b_bias=0 / direct=3 / weightb=1 / open_gop=0 / weightp=2 / keyint=250 / keyint_min=23 / scenecut=40 / intra_refresh=0 / rc=2pass / mbtree=0 / bitrate=10500 / ratetol=2.0 / qcomp=0.70 / qpmin=0 / qpmax=69 / qpstep=4 / cplxblur=20.0 / qblur=0.5 / ip_ratio=1.40 / pb_ratio=1.30 / aq=2:1.00

    Language : English

    Default : Yes

    Forced : No

    Audio #1

    ID : 2

    Format : AC-3

    Format/Info : Audio Coding 3

    Mode extension : CM (complete main)

    Format settings, Endianness : Big

    Codec ID : A_AC3

    Duration : 2h 16mn

    Bit rate mode : Constant

    Bit rate : 384 Kbps

    Channel(s) : 6 channels

    Channel positions : Front: L C R, Side: L R, LFE

    Sampling rate : 48.0 KHz

    Bit depth : 16 bits

    Compression mode : Lossy

    Stream size : 376 MiB (3%)

    Language : Russian

    Default : Yes

    Forced : No

    Audio #2

    ID : 3

    Format : AC-3

    Format/Info : Audio Coding 3

    Mode extension : CM (complete main)

    Format settings, Endianness : Big

    Codec ID : A_AC3

    Duration : 2h 16mn

    Bit rate mode : Constant

    Bit rate : 640 Kbps

    Channel(s) : 6 channels

    Channel positions : Front: L C R, Side: L R, LFE

    Sampling rate : 48.0 KHz

    Bit depth : 16 bits

    Compression mode : Lossy

    Stream size : 627 MiB (6%)

    Language : English

    Default : No

    Forced : No

    Text #1

    ID : 4

    Format : UTF-8

    Codec ID : S_TEXT/UTF8

    Codec ID/Info : UTF-8 Plain Text

    Language : Russian

    Default : No

    Forced : No

    Text #2

    ID : 5

    Format : UTF-8

    Codec ID : S_TEXT/UTF8

    Codec ID/Info : UTF-8 Plain Text

    Language : English

    Default : No

    Forced : No

    Text #3

    ID : 6

    Format : UTF-8

    Codec ID : S_TEXT/UTF8

    Codec ID/Info : UTF-8 Plain Text

    Title : SDH

    Language : English

    Default : No

    Forced : No

    Menu

    00:00:00.000 : en:00:00:00.000

    00:07:39.042 : en:00:07:39.042

    00:16:49.216 : en:00:16:49.216

    00:24:46.985 : en:00:24:46.985

    00:31:59.960 : en:00:31:59.960

    00:37:11.688 : en:00:37:11.688

    00:46:42.716 : en:00:46:42.716

    00:55:00.881 : en:00:55:00.881

    01:02:46.429 : en:01:02:46.429

    01:09:27.496 : en:01:09:27.496

    01:18:42.968 : en:01:18:42.968

    01:29:51.136 : en:01:29:51.136

    01:37:08.239 : en:01:37:08.239

    01:49:01.785 : en:01:49:01.785

    01:56:55.759 : en:01:56:55.759

    02:03:33.239 : en:02:03:33.239

    piratbit.ru

    Сойка-пересмешница. Часть I через торрент в хорошем качестве бесплатно BDRip-AVC

    Общее Уникальный идентификатор : 199343126526112099466810466566194276382 (0x95F816F3DB091B2EBC91FFD4B03F281E) Полное имя : G.I.Soyka.Peresmeshnitca.Chast'.I.2014.DUAL.BDRip.x264.-HELLYWOOD.mkv Формат : Matroska Версия формата : Version 4 / Version 2 Размер файла : 2,18 Гбайт Продолжительность : 2 ч. 2 м. Общий поток : 2543 Кбит/сек Название фильма : The Hunger Games: Mockingjay - Part 1 (2014) - HELLYWOOD Дата кодирования : UTC 2010-02-22 21:41:31 Программа кодирования : mkvmerge v5.8.0 ('No Sleep / Pillow') built on Sep 30 2012 10:57:14 Библиотека кодирования : libebml v1.3.0 + libmatroska v1.4.0

    Видео Идентификатор : 1 Формат : AVC Формат/Информация : Advanced Video Codec Профиль формата : [email protected] Параметр CABAC формата : Да Параметр ReFrames формата : 10 кадров Идентификатор кодека : V_MPEG4/ISO/AVC Продолжительность : 2 ч. 2 м. Битрейт : 1644 Кбит/сек Ширина : 1032 пикселя Высота : 430 пикселей Соотношение сторон : 2,40:1 Режим частоты кадров : Постоянный Частота кадров : 23,976 кадра/сек Цветовое пространство : YUV Субдискретизация насыщенности : 4:2:0 Битовая глубина : 8 бит Тип развёртки : Прогрессивная Бит/(Пиксели*Кадры) : 0.155 Размер потока : 1,37 Гбайт (63%) Заголовок : potroks Библиотека кодирования : x264 core 130 r2273 b3065e6 Настройки программы : cabac=1 / ref=10 / deblock=1:-2:-2 / analyse=0x3:0x133 / me=umh / subme=11 / psy=1 / psy_rd=1.02:0.05 / mixed_ref=1 / me_range=48 / chroma_me=1 / trellis=2 / 8x8dct=1 / cqm=0 / deadzone=21,11 / fast_pskip=0 / chroma_qp_offset=-3 / threads=9 / lookahead_threads=6 / sliced_threads=0 / nr=0 / decimate=0 / interlaced=0 / bluray_compat=0 / constrained_intra=0 / bframes=12 / b_pyramid=2 / b_adapt=2 / b_bias=0 / direct=3 / weightb=1 / open_gop=0 / weightp=2 / keyint=250 / keyint_min=23 / scenecut=40 / intra_refresh=0 / rc_lookahead=60 / rc=2pass / mbtree=0 / bitrate=1644 / ratetol=1.0 / qcomp=0.70 / qpmin=0 / qpmax=69 / qpstep=4 / cplxblur=20.0 / qblur=0.5 / vbv_maxrate=50000 / vbv_bufsize=62500 / nal_hrd=none / ip_ratio=1.35 / pb_ratio=1.25 / aq=1:0.80 Язык : English Default : Да Forced : Нет

    Аудио #1 Идентификатор : 2 Формат : AC-3 Формат/Информация : Audio Coding 3 Расширение режима : CM (complete main) Параметр Endianness формата : Big Идентификатор кодека : A_AC3 Продолжительность : 2 ч. 2 м. Вид битрейта : Постоянный Битрейт : 448 Кбит/сек Каналы : 6 каналов Расположение каналов : Front: L C R, Side: L R, LFE Частота : 48,0 КГц Битовая глубина : 16 бит Метод сжатия : С потерями Задержка видео : 1 с. 700 мс. Размер потока : 394 Мбайт (18%) Заголовок : Dub | DD 5.1 @ 448 kbps - Blu-Ray RUS Язык : Russian Default : Да Forced : Нет

    Аудио #2 Идентификатор : 3 Формат : AC-3 Формат/Информация : Audio Coding 3 Расширение режима : CM (complete main) Параметр Endianness формата : Big Идентификатор кодека : A_AC3 Продолжительность : 2 ч. 2 м. Вид битрейта : Постоянный Битрейт : 448 Кбит/сек Каналы : 6 каналов Расположение каналов : Front: L C R, Side: L R, LFE Частота : 48,0 КГц Битовая глубина : 16 бит Метод сжатия : С потерями Размер потока : 394 Мбайт (18%) Заголовок : Original | DD 5.1 @ 448 kbps Язык : English Default : Нет Forced : Нет

    Текст #1 Идентификатор : 4 Формат : UTF-8 Идентификатор кодека : S_TEXT/UTF8 Идентификатор кодека/Информация : UTF-8 Plain Text Заголовок : форс. [MartinaG] Язык : Russian Default : Да Forced : Нет

    Текст #2 Идентификатор : 5 Формат : UTF-8 Идентификатор кодека : S_TEXT/UTF8 Идентификатор кодека/Информация : UTF-8 Plain Text Язык : Russian Default : Нет Forced : Нет

    Текст #3 Идентификатор : 6 Формат : UTF-8 Идентификатор кодека : S_TEXT/UTF8 Идентификатор кодека/Информация : UTF-8 Plain Text Заголовок : Full Язык : English Default : Нет Forced : Нет

    Текст #4 Идентификатор : 7 Формат : UTF-8 Идентификатор кодека : S_TEXT/UTF8 Идентификатор кодека/Информация : UTF-8 Plain Text Заголовок : SDH Язык : English Default : Нет Forced : Нет

    Текст #5 Идентификатор : 8 Формат : UTF-8 Идентификатор кодека : S_TEXT/UTF8 Идентификатор кодека/Информация : UTF-8 Plain Text Заголовок : SDH-Colored Язык : English Default : Нет Forced : Нет

    Меню 00:00:00.000 : en:(01)00:00:00:000 00:08:43.648 : en:(02)00:08:43:648 00:15:21.378 : en:(03)00:15:21:378 00:22:56.082 : en:(04)00:22:56:082 00:29:52.457 : en:(05)00:29:52:457 00:36:45.744 : en:(06)00:36:45:744 00:42:34.967 : en:(07)00:42:34:967 00:50:33.989 : en:(08)00:50:33:989 00:56:31.012 : en:(09)00:56:31:012 01:02:14.896 : en:(10)01:02:14:896 01:09:27.829 : en:(11)01:09:27:829 01:17:37.444 : en:(12)01:17:37:444 01:25:10.104 : en:(13)01:25:10:104 01:34:20.945 : en:(14)01:34:20:945 01:41:33.837 : en:(15)01:41:33:837 01:47:20.100 : en:(16)01:47:20:100 02:02:50.154 : en:(17)02:02:50:154

    piratbit.ru

    Голодные игры Сойка пересмешница Часть ii торрент скачать

    Голодные игры: Сойка-пересмешница. Часть II / The Hunger Games: Mockingjay - Part 2 (2015) BDRip 720p от ExKinoRay | LINE6.04 GBГолодные игры: Сойка-пересмешница. Часть II / The Hunger Games: Mockingjay - Part 2 (2015) BDRip 1080p | Line14.05 GBГолодные игры: Сойка-пересмешница. Часть II / The Hunger Games: Mockingjay - Part 2 (2015) BDRip 720p | iTunes4.89 GBГолодные игры: Сойка-пересмешница. Часть II / The Hunger Games: Mockingjay - Part 2 (2015) BDRip от ExKinoRay | Line2.19 GBГолодные игры: Сойка-пересмешница. Часть II / The Hunger Games: Mockingjay - Part 2 (2015) BDRip 720p от Scarabey | Line7.47 GBГолодные игры: Сойка-пересмешница. Часть II / The Hunger Games: Mockingjay - Part 2 (2015) BDRip 1080p | iTunes11 GBГолодные игры: Сойка-пересмешница. Часть II / The Hunger Games: Mockingjay - Part 2 (Френсис Лоуренс / Francis Lawrence) [2015 г., фантастика, приключения, BDRip] Dub (чистый звук)1.46 GBГолодные игры: Сойка-пересмешница. Часть II / The Hunger Games: Mockingjay - Part 2 (2015) HDRip от Scarabey | iTunes795.49 MBГолодные игры: Сойка-пересмешница. Часть II / The Hunger Games: Mockingjay - Part 2 (2015) HDRip от Scarabey | iTunes795.49 MBГолодные игры: Сойка-пересмешница. Часть II / The Hunger Games: Mockingjay - Part 2 (2015) BDRip 1080p от Ash61 | 3D-Video | hOU | CamRip9.16 GBГолодные игры: Сойка-пересмешница. Часть II / The Hunger Games: Mockingjay - Part 2 (2015) BDRip-AVC | iTunes2.21 GBГолодные игры: Сойка-пересмешница. Часть II / The Hunger Games: Mockingjay - Part 2 (Френсис Лоуренс / Francis Lawrence) [2015, США, Фантастика, приключения, BDRip] Dub1.47 GBГолодные игры: Сойка-пересмешница. Часть II / The Hunger Games: Mockingjay - Part 2 / 2015 / ДБ / BDRip / 1.46 ГБ1.46 GBГолодные игры: Сойка-пересмешница. Часть II / The Hunger Games: Mockingjay - Part 2 (2015) BDRemux | iTunes27.56 GBГолодные игры: Сойка-пересмешница. Часть II / The Hunger Games: Mockingjay - Part 2 (2015) BDRemux | 3D-Video | iTunes31.2 GBГолодные игры: Сойка-пересмешница. Часть II / The Hunger Games: Mockingjay - Part 2 (Френсис Лоуренс / Francis Lawrence) [2015, США, Германия, фантастика, приключения, BDRip-AVC] Dub + Original + Sub (rus, eng)2.9 GBГолодные игры: Сойка-пересмешница. Часть II / The Hunger Games: Mockingjay - Part 2 / 2015 / ДБ, СТ / BDRip (1080p) / 11 ГБ11 GBГолодные игры: Сойка-пересмешница. Часть II / The Hunger Games: Mockingjay - Part 2 (Френсис Лоуренс / Francis Lawrence) [2015, США, Германия, фантастика, приключения, BDRip 1080p] Dub (iTunes) + Sub Rus, Eng + Original Eng11 GBГолодные игры: Сойка-пересмешница. Часть II / The Hunger Games: Mockingjay - Part 2 (Френсис Лоуренс / Francis Lawrence) [2015, США, Германия, фантастика, приключения, BDRip] Dub (iTunes) + Sub (Rus, Eng) + Original (Eng)2.91 GBГолодные игры: Сойка-пересмешница. Часть II / The Hunger Games: Mockingjay - Part 2 (2015) BDRip [H.264/1080p]13.1 GBГолодные игры: Сойка-пересмешница. Часть II / The Hunger Games: Mockingjay - Part 2 / 2015 / ДБ / BDRip / 2.74 ГБ2.74 GBГолодные игры: Сойка-пересмешница. Часть II / The Hunger Games: Mockingjay - Part 2 (2015) HD 1080p | Трейлер102.33 MBГолодные игры: Сойка-пересмешница. Часть II / The Hunger Games: Mockingjay - Part 2 (Френсис Лоуренс) [2015 г., фантастика, боевик, приключения, CAMRip] Dub2.05 GBГолодные игры: Сойка-пересмешница. Часть II в 3Д / The Hunger Games: Mockingjay - Part 2 3D (Френсис Лоуренс / Francis Lawrence) [2015, Фантастика, Приключения, BDrip-AVC] iTunes, Half OverUnder / Вертикальная анаморфная стереопара8.92 GBГолодные игры: Сойка-пересмешница. Часть II / The Hunger Games: Mockingjay - Part 2 (Френсис Лоуренс / Francis Lawrence) [2015 г., фантастика, приключения, HDRip] Dub (чистый звук)2.06 GBГолодные игры: Сойка-пересмешница. Часть II / The Hunger Games: Mockingjay - Part 2 (2015) BDRemux | Line25.01 GBГолодные игры: Сойка-пересмешница. Часть II / The Hunger Games: Mockingjay - Part 2 (2015) BDRip 3D [H.264/1080p] [Вертикальная анаморфная стереопара]8.92 GBГолодные игры: Сойка-пересмешница. Часть II / The Hunger Games: Mockingjay - Part 2 (Френсис Лоуренс / Francis Lawrence) [2015, США, Германия, фантастика, приключения, BDRip 720p] Dub (iTunes) + Original Eng + Sub rus, eng6.6 GBГолодные игры: Сойка-пересмешница. Часть II / The Hunger Games: Mockingjay - Part 2 (2015) BDRip [H.264/720p]8.48 GBГолодные игры: Сойка-пересмешница. Часть II / The Hunger Games: Mockingjay - Part 2 (2015) BDRemux [H.264/1080p] [Line]28.2 GBГолодные игры: Сойка-пересмешница. Часть II / The Hunger Games: Mockingjay - Part 2 (Френсис Лоуренс) [2015 г., фантастика, боевик, приключения, WEB-DL 1080p] Dub (звук с CAMRip) + Original4.83 GBГолодные игры: Сойка-пересмешница. Часть II / The Hunger Games: Mockingjay - Part 2 (Френсис Лоуренс / Francis Lawrence) [2015, США, Германия, фантастика, приключения, BDRip] Dub (iTunes)2.18 GBГолодные игры: Сойка-пересмешница. Часть II / The Hunger Games: Mockingjay - Part 2 (2015) BDRip [H.264]2.9 GBГолодные игры: Сойка-пересмешница. Часть II / The Hunger Games: Mockingjay - Part 2 (Френсис Лоуренс / Francis Lawrence) [2015 г., фантастика, приключения, HDRip] Dub (iTunes)1.45 GBГолодные игры: Сойка-пересмешница. Часть II / The Hunger Games: Mockingjay - Part 2 / 2015 / ДБ, СТ / BDRip (720p) / 4.89 ГБ4.89 GBГолодные игры: Сойка-пересмешница. Часть II / The Hunger Games: Mockingjay - Part 2 (2015) BDRip [H.264/720p-LQ] [Line]4.24 GBГолодные игры: Сойка-пересмешница. Часть II / The Hunger Games: Mockingjay - Part 2 (Френсис Лоуренс / Francis Lawrence) [2015 г., фантастика, приключения, BDRip 1080p] Dub (iTunes) + Original (Eng) + Sub (Rus, Eng)11 GBГолодные игры: Сойка-пересмешница. Часть II / The Hunger Games: Mockingjay - Part 2 / 2015 / ДБ, СТ / 3D (HOU) BDRip (1080p) / 8.92 ГБ8.92 GBГолодные игры: Сойка-пересмешница. Часть II / The Hunger Games: Mockingjay - Part 2 (2015) BDRip [H.264/720p] [Line]6.04 GBГолодные игры: Сойка-пересмешница. Часть II / The Hunger Games: Mockingjay - Part 2 (2015) BDRip 3D [H.264/1080p] [Вертикальная анаморфная стереопара] [Line]9.16 GBГолодные игры: Сойка-пересмешница. Часть II / The Hunger Games: Mockingjay - Part 2 (Френсис Лоуренс / Francis Lawrence) [2015, США, Германия, фантастика, приключения, BDRip-AVC] DUB (iTunes)745.2 MBГолодные игры: Сойка-пересмешница. Часть II / The Hunger Games: Mockingjay - Part 2 (2015) HDRip | Line1.37 GBГолодные игры: Сойка-пересмешница. Часть II / The Hunger Games: Mockingjay - Part 2 (Френсис Лоуренс) [2015, США, Германия, фантастика, приключения, WEB-DL HD (720p)] DUB, Original + SUB (rus, eng)4.87 GBГолодные игры: Сойка-пересмешница. Часть II / The Hunger Games: Mockingjay - Part 2 (Френсис Лоуренс / Francis Lawrence) [2015 г., фантастика, приключения, BDRip-AVC] Dub (iTunes) + Sub (Rus)1.46 GBГолодные игры: Сойка-пересмешница. Часть II / The Hunger Games: Mockingjay - Part 2 / 2015 / ДБ / BDRip (AVC) / 2.21 ГБ2.21 GBГолодные игры: Сойка-пересмешница. Часть II / The Hunger Games: Mockingjay - Part 2 (Френсис Лоуренс) [2015 г., фантастика, боевик, приключения, DVDRip] Dub (звук с CAMRip) + Original1.37 GBГолодные игры: Сойка-пересмешница. Часть II / The Hunger Games: Mockingjay - Part 2 (Френсис Лоуренс / Francis Lawrence) [2015 г., фантастика, приключения, BDRip 720p] Dub (iTunes) + Original (Eng) + Subs7.65 GB(Score) Голодные игры: Сойка-пересмешница. Часть II / The Hunger Games: Mockingjay - Part 2 (by James Newton Howard) - 2015, MP3 (tracks) 320 kbps171.2 MBГолодные игры: Сойка-пересмешница. Часть II / The Hunger Games: Mockingjay - Part 2 (2015) DVD5 | iTunes4.36 GBГолодные игры: Сойка-пересмешница. Часть II / The Hunger Games: Mockingjay - Part 2 / 2015 / ДБ, СТ / Blu-Ray Remux (1080p) / 25.2 ГБ25.2 GB tparser.org – торрент поисковик по популярным торрент трекерам. Находить и скачивать новинки кино в HDRip и BDRip качестве через tparser намного проще! Добро пожаловать на крупный торрент архив фильмов и игр tparser.org. Вам больше не придется искать торренты на основных торрент трекерах в поисках нужной раздачи – мы предлагаем найти и скачать фильмы в хорошем качестве прямо на нашем сайте. Наш сервис поиска торрентов в реальном времени собирает информацию с крупных торрент трекеров и сортирует полученные результаты в удобную таблицу. Скачивайте торренты без ограничений и без всяких регистраций на трекерах. Начните скачивать торрент Голодные игры Сойка пересмешница Часть ii прямо сейчас!

    tparser.org


    Смотрите также