Скачать дорогая я уменьшил детей скачать торрент в хорошем качестве


Дорогая, я уменьшил детей 1989

www.kinovit.net

Название: Дорогая, я уменьшил детей / Honey, I Shrunk the Kids (1989) HDRip-AVC от New-Team
Перевод: Профессиональный (многоголосый закадровый), Авторский (одноголосый закадровый) А. Михалёв
Видео: 1024x554 (1,85:1), 23,976 fps, h364 ~ 2 566 kbps avg, 0.189 bit/pixel
Аудио: 48 kHz, Dolby Digital AC3 2.0, 192 kbps MVO48 kHz, Dolby Digital AC3 2.0, 192 kbps А. Михалёв48 kHz, Dolby Digital AC3 2.0, 192 kbps П. Санаев48 kHz, Dolby Digital AC3 2.0, 192 kbps Английский
Скачать

Загрузка начнется в течение 5 сек.

2.18 GB

Название: Дорогая, я уменьшил детей / Honey, I Shrunk the Kids (1989) HDRip от Portablius | P
Качество видео: HDRip
Перевод: Профессиональный (многоголосый, закадровый) "СТС&quot
Видео: XviD 688x368 (1.87:1), 23.976 fps, XviD build 73 ~1932 kbps avg, 0.32 bit/pixel
Аудио: 48 kHz, AC3 Dolby Digital, 2/0 (L,R) ch, ~160 kbps
Скачать

Загрузка начнется в течение 5 сек.

1.37 GB

Название: Дорогая, я уменьшил детей / Honey, I Shrunk the Kids (1989) BDRip 720p HDReactor| P, A
Качество видео: BDRip (720p)
Перевод: Профессиональный многоголосый, авторский
Видео: MPEG-4 AVC, 7533 Кбит/с, 1280x692, 23.976 кадр/с
Аудио: AC3, 2 ch, 192 kbps | Русский (MVO)AC3, 2 ch, 160 kbps | Русский (MVO, ОРТ)AC3, 2 ch, 160 kbps | Русский (MVO, СТС)AC3, 2 ch, 160 kbps | Русский (AVO, А. Михалев)AC3, 2 ch, 160 kbps | Русский (AVO, П. Санаев)AC3, 6 ch, 448 kbps | Английский (оригинал)
Скачать

Загрузка начнется в течение 5 сек.

5.75 GB

Название: Дорогая, я уменьшил детей / Honey, I Shrunk the Kids (1989) WEB-DL 720p | P, P2, A
Качество видео: WEB-DL 720p (Источник: Honey.I.Shrunk.the.Kids.1989.720p.WEB-DL.h364-fiend [PublicHD])
Формат видео: MKV
Видео: 1280x692 (1.85:1), 25.000 fps, 4375 kbps, 0.198 bit/pixel
Аудио: AC-3, 2 ch, 192 kbps (Многоголосый)AC-3, 2 ch, 160 kbps (Многоголосый ОРТ)AC-3, 2 ch, 160 kbps (Многоголосый СТС)AC-3, 2 ch, 160 kbps (Двухголосый)AC-3, 2 ch, 160 kbps (Одноголосый Алексей Михалёв)AC-3, 2 ch, 128 kbps (Одноголосый Павел Санаев)AC-3, 6 ch, 384 kbps (Английский Оригинал)
Скачать

Загрузка начнется в течение 5 сек.

3.65 GB

Название: Дорогая, я уменьшил детей / Honey, I Shrunk the Kids (1989) HDTVRip от New-Team | Р
Перевод: Профессиональный (многоголосый закадровый)
Видео: 720x384 (1,85:1), 25 fps, XviD ~ 1024 kbps avg, 0.148 bit/pixel
Аудио: 48 kHz, MP3 2.0, 128 kbps
Скачать

Загрузка начнется в течение 5 сек.

745.41 MB

Название: Дорогая, я уменьшил детей / Honey, I Shrunk the Kids (1989) HDTVRip от New-Team | Р, А
Перевод: Профессиональный (многоголосый закадровый),
Видео: 720x384 (1,85:1), 25 fps, XviD ~ 1516 kbps avg, 0.219 bit/pixel
Аудио: 48 kHz, Dolby Digital AC3 2.0, 160 kbps MVO48 kHz, Dolby Digital AC3 5.1, 448 kbps А. Михалёв48 kHz, Dolby Digital AC3 2.0, 192 kbps Английский
Скачать

Загрузка начнется в течение 5 сек.

1.46 GB

Название: Дорогая, я уменьшил детей / Honey, I Shrunk the Kids (1989) DVDRip-AVC
Качество видео: DVDRip-AVC
Формат видео: MKV
Видео: 720x384 (1.85:1), 25.000 fps, 2136 kbps
Аудио: AC-3, 2 ch, 192 kbps (Многоголосый)AC-3, 2 ch, 160 kbps (Многоголосый ОРТ)AC-3, 2 ch, 160 kbps (Многоголосый СТС)AC-3, 2 ch, 160 kbps (Двухголосый)AC-3, 2 ch, 160 kbps (Одноголосый Алексей Михалёв)AC-3, 2 ch, 128 kbps (Одноголосый Павел Санаев)AC-3, 6 ch, 384 kbps (Английский Оригинал)
Скачать

Загрузка начнется в течение 5 сек.

2.19 GB

Название: Дорогая, я уменьшил детей / Honey, I Shrunk the Kids (1989) HDTVRip 720p
Качество видео: HDTVRip 720p
Перевод: Авторский одноголосый (А. Михалёв)
Видео: H 264 6200 kb/s, 1280x696
Аудио: Аудио#1: Russian: AC3, (6 ch), 448 kb/s|Авторский одноголосый (А. Михалёв)
Скачать

Загрузка начнется в течение 5 сек.

4.34 GB

Дорогая, я уменьшил детей через торрент

piratbit.ru

Размер: 1.27 GB | Добавлен: 5 лет 5 мес. назад | Торрент скачан:282 раза
Реклама Дарим 3000 рублей за регистрацию, не упусти свой шанс получить шикарный бонус!!!

07-05-2012 08:36 Дорогая, я уменьшил детей Скачать торрент  

Дорогая, я уменьшил детей / Honey, I Shrunk the Kids Год выпуска: 1989Страна: Жанр: фантастика, комедия, приключения, семейныйПродолжительность:93 мин.Перевод:Авторский (А.Михалев) + Профессиональный (многоголосый) + Оригинальный (англ.)

Режиссер:Джо Джонстон

Продюссер:Пенни Финкелман Кокс, Джон Ландау, Томас Дж. СмитСценарий: Эд Нэха, Том Шульман, Стюарт Гордон

Бюджет: $18 000 000

рекомендуется присутствие родителей В ролях:Рик Морэнис, Мэтт Фрюэр, Марша Стрэссмен, Кристин Сазерленд, Томас Уилсон Браун, Джэред Раштон, Эми О’Нил, Роберт Оливери, Карл Стивен, Марк Л. Тейлор

Описание:Последнее изобретение великого новатора профессора Залински — электромагнитная машина которая может уменьшать предметы. Когда чудо техники, наконец, заработало, этими предметами оказались... дети изобретателя, попавшие в поле действия прибора.Они и так не отличались гигантским ростом, а теперь еще и сократились в размере настолько, что их вообще не стало видно. Ничего не подозревающий отец опять же совершенно случайно выбрасывает своих отпрысков в мусорное ведро.Новоиспеченным лилипутам нужно выбраться из помойки как можно быстрее пока их не затоптали тараканы и вернуться домой чтобы обнять заботливого папочку.

Качество: DVDRipФормат: AVIВидео кодек: DivXАудио кодек: AC3Видео: 720x384 (1.88:1), 25 fps, DivX Codec 5.x or 6.x ~1564 kbps avg, 0.23 bit/pixelАудио#1: 48 kHz, AC3 Dolby Digital, 2/0 (L,R) ch, ~160.00 kbps avg / Профессиональный (многоголосый)Аудио#2: 48 kHz, AC3 Dolby Digital, 2/0 (L,R) ch, ~160.00 kbps avg / Авторский (А.Михалев)Аудио#3: 48 kHz, AC3 Dolby Digital, 2/0 (L,R) ch, ~128.00 kbps avg / Оригинальный Скачать Дорогая, я уменьшил детей через торрент http://i7.fastpic.ru/big/2010/0618/15/df89a5cdb33c9734a8104c70d2887b15.jpg Скачать фильм Дорогая, я уменьшил детей через торрент бесплантно в хорошем качестве Описание:Последнее изобретение великого новатора профессора Залински — электромагнитная машина которая может уменьшать предметы. Когда чудо ... 2012-05-07 08:36 10 10 4

Loading...

Loading...

Рекламный пират

07-05-2012 09:57 Дорогая, я уменьшил детей Скачать торрент  

О, класс ностальгия!!!!!!

07-05-2012 10:00 Дорогая, я уменьшил детей Скачать торрент  

Хороший,добрый старый фильм.

07-05-2012 10:00 Дорогая, я уменьшил детей Скачать торрент  

07-05-2012 11:08 Дорогая, я уменьшил детей Скачать торрент  

пасибо, забираю!

Дорогой пользователь! Огромная просьба, поблагодарите релизера, оцените раздачу и оставьте свои комментарий, если Вы скачали Дорогая, я уменьшил детей через торрент бесплатно! Внесите свою лепту в развитие PiratBit!

Комментировать посты могут только пользователи прошедшие не сложную регистрацию

Дорогая, я уменьшил детей через торрент Скачать бесплатно Дорогая, я уменьшил детей Дорогая, я уменьшил детей скачать торрент Дорогая, я уменьшил детей смотреть онлайн Cкачать фильм Дорогая, я уменьшил детей бесплатно Дорогая, я уменьшил детей скачать торрент в хорошем качестве Дорогая, я уменьшил детей смотреть онлайн бесплатно в хорошем качестве

Вы не можете начинать темыВы не можете отвечать на сообщенияВы не можете редактировать свои сообщенияВы не можете удалять свои сообщенияВы не можете голосовать в опросахВы не можете прикреплять файлы к сообщениямВы можете скачивать файлы

Скачать фильм Дорогая, я уменьшил детей (1989) через торрент

gig-torrent.net

2 июня 2016 10:56 Дорогая, я уменьшил детей / Honey, I Shrunk the Kids (1989) WEB-DL 720p | P, P2, A .torrent   [Информация о файле (нажмите для просмотра)] Перевод #1: Профессиональный (Многоголосый, Закадровый)Перевод #2: Профессиональный (Многоголосый, Закадровый) (ОРТ)Перевод #3: Профессиональный (Многоголосый, Закадровый) (СТС)Перевод #4: Профессиональный (Двухголосый, Закадровый)Перевод #5: Авторский (Одноголосый, Закадровый) (Алексей Михалёв)Перевод #6: Авторский (Одноголосый, Закадровый) (Павел Санаев)Перевод #7: Английский (Оригинал)Формат: MKVКачество: WEB-DL 720p (Источник: Honey.I.Shrunk.the.Kids.1989.720p.WEB-DL.h364-fiend [PublicHD])Видео: 1280x692 (1.85:1), 25.000 fps, 4375 kbps, 0.198 bit/pixelАудио #1: AC-3, 2 ch, 192 kbps (Многоголосый)Аудио #2: AC-3, 2 ch, 160 kbps (МногоголосыйОРТ)Аудио #3: AC-3, 2 ch, 160 kbps (МногоголосыйСТС)Аудио #4: AC-3, 2 ch, 160 kbps (Двухголосый)Аудио #5: AC-3, 2 ch, 160 kbps (ОдноголосыйАлексей Михалёв)Аудио #6: AC-3, 2 ch, 128 kbps (ОдноголосыйПавел Санаев)Аудио #7: AC-3, 6 ch, 384 kbps (АнглийскийОригинал)Субтитры: Русские (Полные), Английские (Полные) 3,65 Gb 21 5
2 июня 2016 10:56 Дорогая, я уменьшил детей / Honey, I Shrunk the Kids (1989) HDTVRip-AVC от New-Team | Р, А .torrent   [Информация о файле (нажмите для просмотра)] Перевод: Профессиональный (многоголосый закадровый), Авторский (одноголосый закадровый)Контейнер: MKVВидео: 1024x554 (1,85:1), 25 fps, h364 ~ 2687 kbps avg, 0.189 bit/pixelАудио: 48 kHz, Dolby Digital AC3 2.0, 160 kbps MVOАудио: 48 kHz, Dolby Digital AC3 5.1, 448 kbps А. МихалёвАудио: 48 kHz, Dolby Digital AC3 2.0, 192 kbps АнглийскийВидео: Идентификатор : 1 Формат : AVC Формат/Информация : Advanced Video Codec Профиль формата : [email protected] Параметр CABAC формата : Да Параметр ReFrames формата : 8 кадров Идентификатор кодека : V_MPEG4/ISO/AVC Продолжительность : 1 ч. 29 м. Битрейт : 2687 Кбит/сек Ширина : 1024 пикселя Высота : 554 пикселя Соотношение сторон : 1,85:1 Режим частоты кадров : Постоянный Частота кадров : 25,000 кадров/сек Цветовое пространство : YUV Субдискретизация насыщенности : 4:2:0 Битовая глубина : 8 бит Тип развёртки : Прогрессивная Бит/(Пиксели*Кадры) : 0.189 Размер потока : 1,64 Гбайт (75%) Заголовок : Источник HDTV Библиотека кодирования : x264 core 138 r2356 a1d3d17 Настройки программы : cabac=1 / ref=8 / deblock=1:-3:-2 / analyse=0x3:0x113 / me=umh / subme=10 / psy=1 / psy_rd=1.00:0.05 / mixed_ref=1 / me_range=32 / chroma_me=1 / trellis=2 / 8x8dct=1 / cqm=0 / deadzone=21,11 / fast_pskip=1 / chroma_qp_offset=-3 / threads=3 / lookahead_threads=1 / sliced_threads=0 / nr=0 / decimate=0 / interlaced=0 / bluray_compat=0 / constrained_intra=0 / bframes=8 / b_pyramid=2 / b_adapt=2 / b_bias=0 / direct=3 / weightb=1 / open_gop=0 / weightp=2 / keyint=250 / keyint_min=25 / scenecut=40 / intra_refresh=0 / rc_lookahead=40 / rc=2pass / mbtree=1 / bitrate=2687 / ratetol=1.0 / qcomp=0.60 / qpmin=0 / qpmax=69 / qpstep=4 / cplxblur=20.0 / qblur=0.5 / ip_ratio=1.40 / aq=1:1.00 Язык : English Default : Да Forced : НетАудио #1: Идентификатор : 2 Формат : AC-3 Формат/Информация : Audio Coding 3 Расширение режима : CM (complete main) Параметр Endianness формата : Big Идентификатор кодека : A_AC3 Продолжительность : 1 ч. 29 м. Вид битрейта : Постоянный Битрейт : 160 Кбит/сек Каналы : 2 канала Расположение каналов : Front: L R Частота : 48,0 КГц Битовая глубина : 16 бит Метод сжатия : С потерями Размер потока : 103 Мбайт (5%) Заголовок : Источник HDTV Dolby Digital 2,0 160 kbps Язык : Russian Default : Да Forced : НетАудио #2: Идентификатор : 3 Формат : AC-3 Формат/Информация : Audio Coding 3 Расширение режима : CM (complete main) Параметр Endianness формата : Big Идентификатор кодека : A_AC3 Продолжительность : 1 ч. 29 м. Вид битрейта : Постоянный Битрейт : 448 Кбит/сек Каналы : 6 каналов Расположение каналов : Front: L C R, Side: L R, LFE Частота : 48,0 КГц Битовая глубина : 16 бит Метод сжатия : С потерями Размер потока : 287 Мбайт (13%) Заголовок : Источник DVD Dolby Digital 5,1 448 kbps Язык : Russian Default : Нет Forced : НетАудио #3: Идентификатор : 4 Формат : AC-3 Формат/Информация : Audio Coding 3 Профиль формата : Dolby Digital Расширение режима : CM (complete main) Параметр Endianness формата : Big Идентификатор кодека : A_AC3 Продолжительность : 1 ч. 29 м. Вид битрейта : Постоянный Битрейт : 192 Кбит/сек Каналы : 2 канала Расположение каналов : Front: L R Частота : 48,0 КГц Битовая глубина : 16 бит Метод сжатия : С потерями Размер потока : 123 Мбайт (6%) Заголовок : Источник DVD Dolby Digital 2,0 192 kbps Язык : English Default : Нет Forced : Нет 2,19 Gb 10 2
2 июня 2016 10:56 Дорогая, я уменьшил детей / Honey, I Shrunk the Kids (1989) HDTVRip от New-Team | Р .torrent   [Информация о файле (нажмите для просмотра)] Перевод: Профессиональный (многоголосый закадровый)Контейнер: AVIВидео: 720x384 (1,85:1), 25 fps, XviD ~ 1024 kbps avg, 0.148 bit/pixelАудио: 48 kHz, MP3 2.0, 128 kbpsВидео: Идентификатор : 0 Формат : MPEG-4 Visual Профиль формата : Advanced [email protected] Параметр BVOP формата : 1 Параметр QPel формата : Нет Параметр GMC формата : Без точки перехода Параметр матрицы формата : Выборочная Идентификатор кодека : XVID Идентификатор кодека/Подсказка : XviD Продолжительность : 1 ч. 29 м. Битрейт : 1024 Кбит/сек Ширина : 720 пикселей Высота : 384 пикселя Соотношение сторон : 1,85:1 Частота кадров : 25,000 кадров/сек Цветовое пространство : YUV Субдискретизация насыщенности : 4:2:0 Битовая глубина : 8 бит Тип развёртки : Прогрессивная Метод сжатия : С потерями Бит/(Пиксели*Кадры) : 0.148 Размер потока : 657 Мбайт (88%) Библиотека кодирования : XviD 73Аудио: Идентификатор : 1 Формат : MPEG Audio Версия формата : Version 1 Профиль формата : Layer 3 Идентификатор кодека : 55 Идентификатор кодека/Подсказка : MP3 Продолжительность : 1 ч. 29 м. Вид битрейта : Постоянный Битрейт : 128 Кбит/сек Каналы : 2 канала Частота : 48,0 КГц Метод сжатия : С потерями Размер потока : 82,1 Мбайт (11%) Выравнивание : Соединение по промежуткам Продолжительность промежутка : 40 мс. (1,00 видеокадр) Время предзагрузки промежутка : 504 мс. Библиотека кодирования : LAME3.99r Настройки программы : -m s -V 4 -q 2 -lowpass 17 -b 128 745,41 Mb 15 4
2 июня 2016 10:56 Дорогая, я уменьшил детей / Honey, I Shrunk the Kids (1989) HDTVRip от New-Team | Р, А .torrent   [Информация о файле (нажмите для просмотра)] Перевод: Профессиональный (многоголосый закадровый), Авторский (одноголосый закадровый)Контейнер: AVIВидео: 720x384 (1,85:1), 25 fps, XviD ~ 1516 kbps avg, 0.219 bit/pixelАудио: 48 kHz, Dolby Digital AC3 2.0, 160 kbps MVOАудио: 48 kHz, Dolby Digital AC3 5.1, 448 kbps А. МихалёвАудио: 48 kHz, Dolby Digital AC3 2.0, 192 kbps АнглийскийВидео: Идентификатор : 0 Формат : MPEG-4 Visual Профиль формата : Advanced [email protected] Параметр BVOP формата : 1 Параметр QPel формата : Нет Параметр GMC формата : Без точки перехода Параметр матрицы формата : Выборочная Идентификатор кодека : XVID Идентификатор кодека/Подсказка : XviD Продолжительность : 1 ч. 29 м. Битрейт : 1516 Кбит/сек Ширина : 720 пикселей Высота : 384 пикселя Соотношение сторон : 1,85:1 Частота кадров : 25,000 кадров/сек Цветовое пространство : YUV Субдискретизация насыщенности : 4:2:0 Битовая глубина : 8 бит Тип развёртки : Прогрессивная Метод сжатия : С потерями Бит/(Пиксели*Кадры) : 0.219 Размер потока : 973 Мбайт (65%) Библиотека кодирования : XviD 73Аудио #1: Идентификатор : 1 Формат : AC-3 Формат/Информация : Audio Coding 3 Расширение режима : CM (complete main) Параметр Endianness формата : Big Идентификатор кодека : 2000 Продолжительность : 1 ч. 29 м. Вид битрейта : Постоянный Битрейт : 160 Кбит/сек Каналы : 2 канала Расположение каналов : Front: L R Частота : 48,0 КГц Битовая глубина : 16 бит Метод сжатия : С потерями Размер потока : 103 Мбайт (7%) Выравнивание : Разделение по промежуткам Продолжительность промежутка : 40 мс. (1,00 видеокадр) Время предзагрузки промежутка : 500 мс.Аудио #2: Идентификатор : 2 Формат : AC-3 Формат/Информация : Audio Coding 3 Расширение режима : CM (complete main) Параметр Endianness формата : Big Идентификатор кодека : 2000 Продолжительность : 1 ч. 29 м. Вид битрейта : Постоянный Битрейт : 448 Кбит/сек Каналы : 6 каналов Расположение каналов : Front: L C R, Side: L R, LFE Частота : 48,0 КГц Битовая глубина : 16 бит Метод сжатия : С потерями Размер потока : 287 Мбайт (19%) Выравнивание : Разделение по промежуткам Продолжительность промежутка : 40 мс. (1,00 видеокадр) Время предзагрузки промежутка : 500 мс.Аудио #3: Идентификатор : 3 Формат : AC-3 Формат/Информация : Audio Coding 3 Профиль формата : Dolby Digital Расширение режима : CM (complete main) Параметр Endianness формата : Big Идентификатор кодека : 2000 Продолжительность : 1 ч. 29 м. Вид битрейта : Постоянный Битрейт : 192 Кбит/сек Каналы : 2 канала Расположение каналов : Front: L R Частота : 48,0 КГц Битовая глубина : 16 бит Метод сжатия : С потерями Размер потока : 123 Мбайт (8%) Выравнивание : Разделение по промежуткам Продолжительность промежутка : 40 мс. (1,00 видеокадр) Время предзагрузки промежутка : 500 мс 1,46 Gb 34 4
2 июня 2016 10:56 Дорогая, я уменьшил детей / Honey, I Shrunk the Kids (1989) DVDRip-AVC .torrent   [Информация о файле (нажмите для просмотра)] Перевод #1: Профессиональный (Многоголосый, Закадровый)Перевод #2: Профессиональный (Многоголосый, Закадровый) (ОРТ)Перевод #3: Профессиональный (Многоголосый, Закадровый) (СТС)Перевод #4: Профессиональный (Двухголосый, Закадровый)Перевод #5: Авторский (Одноголосый, Закадровый) (Алексей Михалёв)Перевод #6: Авторский (Одноголосый, Закадровый) (Павел Санаев)Перевод #7: Английский (Оригинал)Формат: MKVКачество: DVDRip-AVCВидео: 720x384 (1.85:1), 25.000 fps, 2136 kbpsАудио #1: AC-3, 2 ch, 192 kbps (Многоголосый)Аудио #2: AC-3, 2 ch, 160 kbps (МногоголосыйОРТ)Аудио #3: AC-3, 2 ch, 160 kbps (МногоголосыйСТС)Аудио #4: AC-3, 2 ch, 160 kbps (Двухголосый)Аудио #5: AC-3, 2 ch, 160 kbps (ОдноголосыйАлексей Михалёв)Аудио #6: AC-3, 2 ch, 128 kbps (ОдноголосыйПавел Санаев)Аудио #7: AC-3, 6 ch, 384 kbps (АнглийскийОригинал)Субтитры: Русские (Полные), Английские (Полные) 2,19 Gb 3 2
2 июня 2016 10:56 Дорогая, я уменьшил детей / Honey, I Shrunk the Kids (1989) HDTVRip 720p .torrent   [Информация о файле (нажмите для просмотра)] Перевод: Авторский одноголосый (А. Михалёв)Кодек: H 264Качество: HDTVRip 720pВидео: 6200 kb/s, 1280x696Звук: Аудио#1: Russian: AC3, (6 ch), 448 kb/s|Авторский одноголосый (А. Михалёв) Аудио#2: English: AC3, (2 Ch), 384 kb/s 4,34 Gb 3 4
2 июня 2016 10:56 Дорогая, я уменьшил детей / Honey, I Shrunk the Kids (1989) DVDRip .torrent   [Информация о файле (нажмите для просмотра)] Перевод: Авторский (А.Михалев) + Профессиональный (многоголосый) + Оригинальный (англ.)Кодек: DivXКачество: DVDRipВидео: 720x384 (1.88:1), 25 fps, DivX Codec 5.x or 6.x ~1564 kbps avg, 0.23 bit/pixelСубтитры: нет 1,27 Gb 6 1
2 июня 2016 10:55 Дорогая, я уменьшил детей / Honey, I Shrunk the Kids (1989) DVDRip .torrent   [Информация о файле (нажмите для просмотра)] Перевод: Профессиональный (многоголосый, закадровый)Качество: DVDRipФормат: AVIВидео: 592х320; 25 fps; 974 Кбит/с; DivX 5.0.5Аудио: 44kHz; стерео; mp3, 117 kbit/s 699,94 Mb 2 4

Дорогая, я уменьшил детей через торрент

piratbit.ru

Раздают: 15 [ 0 KB/s ]
Размер: 2.18 GB | Добавлен: 1 мес. 15 д. назад | Торрент скачан:26 раз
Реклама Дарим 3000 рублей за регистрацию, не упусти свой шанс получить шикарный бонус!!!

10-09-2017 16:29 Дорогая, я уменьшил детей Скачать торрент  

Дорогая, я уменьшил детейCrocodile Dundee Страна: СШАПроизводство: Buena Vista Pictures, Doric Productions, Silver Screen Partners III, Walt Disney Pictures

Жанр: фантастика, комедия, приключения, семейныйГод выпуска: 1989Продолжительность: 01:29:42

Перевод: Профессиональный (многоголосый закадровый), Авторский (одноголосый закадровый) А. МихалёвОригинальная аудиодорожка: английскийCубтитры: нет

Режиссер: Джо Джонстон / Joe Johnston

В ролях:Рик Моранис, Марсия Страссман, Томас Уилсон Браун, Лу Кателл, Эми О'Нилл, Роберт Оливери, Джэред Раштон, Кимми Робертсон, Кристина Сазерленд, Карл Стивен, Марк Л. Тэйлор, Мэтт Фрюэр, Лора Уотербери, Мартин Айлетт...Об актёрах подробней

Описание:Последнее изобретение великого новатора профессора Залински — электромагнитная машина которая может уменьшать предметы. Когда чудо техники, наконец, заработало, этими предметами оказались… дети изобретателя, попавшие в поле действия прибора. Они и так не отличались гигантским ростом, а теперь еще и сократились в размере настолько, что их вообще не стало видно. Ничего не подозревающий отец опять же совершенно случайно выбрасывает своих отпрысков в мусорное ведро. Новоиспеченным лилипутам нужно выбраться из помойки как можно быстрее пока их не затоптали тараканы и вернуться домой чтобы обнять заботливого папочку…

Исходник: BDRip 720pТип релиза: HDRip-AVCКонтейнер: MKV

Видео: 1024x554 (1,85:1), 23,976 fps, h364 ~ 2 566 kbps avg, 0.189 bit/pixelАудио: 48 kHz, Dolby Digital AC3 2.0, 192 kbps MVOАудио: 48 kHz, Dolby Digital AC3 2.0, 192 kbps А. МихалёвАудио: 48 kHz, Dolby Digital AC3 2.0, 192 kbps П. СанаевАудио: 48 kHz, Dolby Digital AC3 2.0, 192 kbps Английский

Раздача от:

ОбщееПолное имя : Dorogaya,ya.umenshil.detey.1989.HDRip-AVC_[New-team]_by_AVP_Studio.mkvФормат : MatroskaВерсия формата : Version 4 / Version 2Размер файла : 2,18 ГбайтПродолжительность : 1 ч. 33 м.Общий поток : 3327 Кбит/секДата кодирования : UTC 2017-09-10 12:02:12Программа кодирования : mkvmerge v11.0.0 ('Alive') 64bitБиблиотека кодирования : libebml v1.3.4 + libmatroska v1.4.5

ВидеоИдентификатор : 1Формат : AVCФормат/Информация : Advanced Video CodecПрофиль формата : [email protected]Параметр CABAC формата : ДаПараметр RefFrames формата : 10 кадровИдентификатор кодека : V_MPEG4/ISO/AVCПродолжительность : 1 ч. 33 м.Битрейт : 2566 Кбит/секШирина : 1024 пикселяВысота : 554 пикселяСоотношение сторон : 1,85:1Режим частоты кадров : ПостоянныйЧастота кадров : 23,976 (24000/1001) кадра/секЦветовое пространство : YUVСубдискретизация насыщенности : 4:2:0Битовая глубина : 8 битТип развёртки : ПрогрессивнаяБит/(Пиксели*Кадры) : 0.189Размер потока : 1,68 Гбайт (77%)Библиотека кодирования : x264 core 130 r2273 b3065e6Настройки программы : cabac=1 / ref=10 / deblock=1:-3:-2 / analyse=0x3:0x113 / me=umh / subme=10 / psy=1 / psy_rd=1.00:0.00 / mixed_ref=1 / me_range=32 / chroma_me=1 / trellis=2 / 8x8dct=1 / cqm=0 / deadzone=21,11 / fast_pskip=1 / chroma_qp_offset=-2 / threads=6 / lookahead_threads=1 / sliced_threads=0 / nr=0 / decimate=0 / interlaced=0 / bluray_compat=0 / constrained_intra=0 / bframes=8 / b_pyramid=2 / b_adapt=2 / b_bias=0 / direct=3 / weightb=1 / open_gop=0 / weightp=2 / keyint=240 / keyint_min=24 / scenecut=40 / intra_refresh=0 / rc_lookahead=40 / rc=2pass / mbtree=1 / bitrate=2566 / ratetol=1.0 / qcomp=0.60 / qpmin=0 / qpmax=69 / qpstep=4 / cplxblur=20.0 / qblur=0.5 / ip_ratio=1.40 / aq=1:1.00Default : ДаForced : Нет

Аудио #1Идентификатор : 2Формат : AC-3Формат/Информация : Audio Coding 3Параметр Endianness формата : BigИдентификатор кодека : A_AC3Продолжительность : 1 ч. 33 м.Вид битрейта : ПостоянныйБитрейт : 192 Кбит/секКаналы : 2 каналаРасположение каналов : Front: L RЧастота : 48,0 КГцЧастота кадров : 31,250 кадров/сек (1536 SPF)Битовая глубина : 16 битМетод сжатия : С потерямиРазмер потока : 128 Мбайт (6%)Default : ДаForced : Нет

Аудио #2Идентификатор : 3Формат : AC-3Формат/Информация : Audio Coding 3Параметр Endianness формата : BigИдентификатор кодека : A_AC3Продолжительность : 1 ч. 33 м.Вид битрейта : ПостоянныйБитрейт : 192 Кбит/секКаналы : 2 каналаРасположение каналов : Front: L RЧастота : 48,0 КГцЧастота кадров : 31,250 кадров/сек (1536 SPF)Битовая глубина : 16 битМетод сжатия : С потерямиРазмер потока : 128 Мбайт (6%)Default : НетForced : Нет

Аудио #3Идентификатор : 4Формат : AC-3Формат/Информация : Audio Coding 3Параметр Endianness формата : BigИдентификатор кодека : A_AC3Продолжительность : 1 ч. 33 м.Вид битрейта : ПостоянныйБитрейт : 192 Кбит/секКаналы : 2 каналаРасположение каналов : Front: L RЧастота : 48,0 КГцЧастота кадров : 31,250 кадров/сек (1536 SPF)Битовая глубина : 16 битМетод сжатия : С потерямиРазмер потока : 128 Мбайт (6%)Default : НетForced : Нет

Аудио #4Идентификатор : 5Формат : AC-3Формат/Информация : Audio Coding 3Параметр Endianness формата : BigИдентификатор кодека : A_AC3Продолжительность : 1 ч. 33 м.Вид битрейта : ПостоянныйБитрейт : 192 Кбит/секКаналы : 2 каналаРасположение каналов : Front: L RЧастота : 48,0 КГцЧастота кадров : 31,250 кадров/сек (1536 SPF)Битовая глубина : 16 битМетод сжатия : С потерямиРазмер потока : 129 Мбайт (6%)Default : НетForced : Нет

Меню00:00:00.000 : en:Chapter 0100:02:44.330 : en:Chapter 0200:12:26.370 : en:Chapter 0300:21:23.949 : en:Chapter 0400:28:27.247 : en:Chapter 0500:40:45.568 : en:Chapter 0600:51:15.363 : en:Chapter 0700:58:14.991 : en:Chapter 0801:07:53.486 : en:Chapter 0901:17:25.557 : en:Chapter 10

Скачать Дорогая, я уменьшил детей через торрент http://s018.radikal.ru/i508/1709/82/b48130fc15db.png Скачать фильм Дорогая, я уменьшил детей через торрент бесплантно в хорошем качестве Описание:Последнее изобретение великого новатора профессора Залински — электромагнитная машина которая может уменьшать предметы. Когда чудо ... 2017-09-10 16:29 10 10 8

Loading...

Loading...

Рекламный пират

10-09-2017 16:33 Дорогая, я уменьшил детей Скачать торрент  

Дорогой пользователь! Огромная просьба, поблагодарите релизера, оцените раздачу и оставьте свои комментарий, если Вы скачали Дорогая, я уменьшил детей через торрент бесплатно! Внесите свою лепту в развитие PiratBit!

Комментировать посты могут только пользователи прошедшие не сложную регистрацию

Дорогая, я уменьшил детей через торрент Скачать бесплатно Дорогая, я уменьшил детей Дорогая, я уменьшил детей скачать торрент Дорогая, я уменьшил детей смотреть онлайн Cкачать фильм Дорогая, я уменьшил детей бесплатно Дорогая, я уменьшил детей скачать торрент в хорошем качестве Дорогая, я уменьшил детей смотреть онлайн бесплатно в хорошем качестве

Вы не можете начинать темыВы не можете отвечать на сообщенияВы не можете редактировать свои сообщенияВы не можете удалять свои сообщенияВы не можете голосовать в опросахВы не можете прикреплять файлы к сообщениямВы можете скачивать файлы

Дорогая, я увеличил ребенка через торрент

piratbit.ru

Размер: 1.46 GB | Добавлен: 5 лет 5 мес. назад | Торрент скачан:42 раза
Реклама Дарим 3000 рублей за регистрацию, не упусти свой шанс получить шикарный бонус!!!

08-05-2012 10:43 Дорогая, я увеличил ребенка Скачать торрент  

Дорогая, я увеличил ребенка / Honey I Blew Up the Kid Год выпуска: 1992Страна: СШАЖанр: фантастика, комедия, приключения, семейныйПродолжительность: 89 мин.Перевод: Профессиональный (многоголосый, закадровый) + Авторский (одноголосый, Гаврилов) + Оригинал (англ.)Субтитры: Английские (внешние *.srt)

Режиссер: Рэндал КлайзерПродюссер: Альберт Бэнд, Дебора Брок, Эдвард С. ФельдманСценарий: Стюарт Гордон, Брайан Юзна, Эд Нэха

Бюджет: $40 000 000

рекомендуется присутствие родителей В ролях: Рик Морэнис, Марша Стрэссмен, Роберт Оливери, Дэниэл Шэликар, Джошуа Шэликар, Ллойд Бриджес, Джон Ши, Кери Рассел, Рон Кэнада, Эми О’Нил

Описание:Два года назад профессор Шалинский случайно уменьшил своих детей и двух соседских мальчиков. К счастью все обошлось, и он вернул ребятам прежние размеры. Время прошло, в семье Шалинских пополнение — замечательный малыш! На этот раз именно он становится случайной жертвой папиных экспериментов. Ученый изобретает аппарат, который увеличивает предметы, а мальчуган попадает под его излучение. Ребенок за считанные секунды превращается в двухметрового великана!..

Качество: DVDRipФормат: AVIВидео кодек: XviDАудио кодек: AC3Видео: 720x544 (1.32:1), 23.976 fps, XviD build 50 ~1353 kbps avg, 0.14 bit/pixelАудио#1: 48 kHz, AC3 Dolby Digital, 2/0 (L,R) ch, ~256.00 kbps avg/ (многоголосый)Аудио#2: 48 kHz, AC3 Dolby Digital, 2/0 (L,R) ch, ~256.00 kbps avg/ (Гаврилов)Аудио#3: 48 kHz, AC3 Dolby Digital, 3/2 (L,C,R,l,r) + LFE ch, ~448.00 kbps avg/ (оригинал) Скачать Дорогая, я увеличил ребенка через торрент http://www.kinopoisk.ru/im/poster/1/5/0/kinopoisk.ru-Honey-I-Blew-Up-the-Kid-150228.jpg Скачать фильм Дорогая, я увеличил ребенка через торрент бесплантно в хорошем качестве Описание:Два года назад профессор Шалинский случайно уменьшил своих детей и двух соседских мальчиков. К счастью все обошлось, и он вернул ... 2012-05-08 10:43 10 10 1

Loading...

Loading...

Рекламный пират

Дорогой пользователь! Огромная просьба, поблагодарите релизера, оцените раздачу и оставьте свои комментарий, если Вы скачали Дорогая, я увеличил ребенка через торрент бесплатно! Внесите свою лепту в развитие PiratBit!

Комментировать посты могут только пользователи прошедшие не сложную регистрацию

Дорогая, я увеличил ребенка через торрент Скачать бесплатно Дорогая, я увеличил ребенка Дорогая, я увеличил ребенка скачать торрент Дорогая, я увеличил ребенка смотреть онлайн Cкачать фильм Дорогая, я увеличил ребенка бесплатно Дорогая, я увеличил ребенка скачать торрент в хорошем качестве Дорогая, я увеличил ребенка смотреть онлайн бесплатно в хорошем качестве

Вы не можете начинать темыВы не можете отвечать на сообщенияВы не можете редактировать свои сообщенияВы не можете удалять свои сообщенияВы не можете голосовать в опросахВы не можете прикреплять файлы к сообщениямВы можете скачивать файлы

Дорогая я уменьшил детей торрент скачать

Дорогая, я уменьшил детей / Honey, I Shrunk the Kids (1989) WEB-DL 720p | P, P2, A3.65 GBДорогая, я уменьшил детей / Honey, I Shrunk the Kids (Джо Джонстон / Joe Johnston) [1989, США, фантастика, комедия, приключения DVDRip] AVO (Михалёв) + 3xMVO (СТС, ОРТ) + ENG1.48 GBДорогая, я уменьшил детей / Honey, I Shrunk the Kids (Джо Джонстон /Joe Johnston) [1989, США, фантастика, фэнтези, комедия, приключения, семейный, HDTVRip 720p] AVO + Original Eng4.34 GBДорогая, я уменьшил детей / Honey, I Shrunk the Kids (1989) HDTVRip от New-Team | Р, А1.46 GBДорогая, я уменьшил детей / Honey, I Shrunk the Kids (Джо Джонстон / Joe Johnston) [1989, США, Мексика, фантастика, комедия, приключения, семейный, TVRip] [Полный экран / Fullscreen] MVO (ОРТ) + MVO (Видеосервис)1.35 GBДорогая, я уменьшил детей / Honey, I Shrunk the Kids / 1989 / 2 x ПМ / WEB-DL (720p) / 3.31 ГБ3.31 GBДорогая, я уменьшил детей (Трилогия) / Honey, I Shrunk the Kids (Trilogy) / 1989-1997 / 3 x ПМ, АП (Михалев) / DVDRip / 4.41 ГБ4.41 GBДорогая, я уменьшил детей / Honey, I Shrunk the Kids (Джо Джонстон / Joe Johnston) [1989, США, фантастика, комедия, приключения, семейный, WEB-DLRip] MVO (ОРТ) + MVO (Видеосервис)1.41 GBДорогая, я уменьшил детей / Honey, I Shrunk the Kids / 1989 / 3 x ПМ, ПД, АП (Михалев, Санаев) / WEBRip (1080p) / 10.16 ГБ10.16 GBДорогая, я уменьшил детей / Honey, I Shrunk the Kids / 1989 / АП (Михалев), 2 x ПМ, ПД / DVDRip / 1.48 ГБ1.48 GBДорогая, я уменьшил детей / Honey, I Shrunk the Kids / 1989 / ПМ / HDTVRip / 745 МБ745 MBДорогая, я уменьшил детей(сезон 1-3,68 серий) / Honey, I Shrunk the Kids (Скотт Макгиннис, Адам Вайсман, Питер Сколари) [1997, США, фантастика, комедия, семейный, DVDRip]24.38 GBДорогая, я уменьшил детей / Honey, I Shrunk the Kids (1989) HDTVRip от New-Team | Р745.41 MBДорогая, я уменьшил детей / Honey, I Shrunk the Kids (Джо Джонстон / Joe Johnston) [1989, США, Комедия, HDTVRip] AVO (Санаев) + Orig1.34 GBДорогая, я уменьшил детей / Honey, I Shrunk the Kids (1989) HDTVRip-AVC от New-Team | Р, А2.19 GB(Score) Дорогая, я уменьшил детей / Honey, I Shrunk The Kids (James Horner) - 2004, MP3, 320 kbps141.3 MBДорогая, я уменьшил детей / Honey, I Shrunk the Kids (Джо Джонстон / Joe Johnston) [1989, США, фантастика, комедия, приключения, семейный, DVD5] R54.26 GBДорогая, я уменьшил детей / Honey, I Shrunk the Kids (Джо Джонстон / Joe Johnston) [1989, США, фантастика, комедия, приключения, семейный, DVDRip]699.9 MBДорогая, я уменьшил детей / Honey, I Shrunk the Kids (1989) DVDRip699.94 MBДорогая, я уменьшил детей / Honey, I Shrunk the Kids / 1989 / 3 x ПМ, АП (Михалев, Санаев) / BDRip (720p) / 5.75 ГБ5.75 GBДорогая, я уменьшил детей / Honey, I Shrunk the Kids / 1989 / 3 x ПМ, АП (Михалев, Санаев) / BDRip (1080p) / 6.36 ГБ6.36 GBДорогая, я уменьшил детей / Honey, I Shrunk the Kids (1989) HDTVRip 720p4.34 GBДорогая, я уменьшил детей / Honey, I Shrunk the Kids (Джо Джонстон / Joe Johnston) [1989, США, Фантастика, приключения, семейный, DVDRip]1.27 GBДорогая, я уменьшил детей / Honey, I Shrunk the Kids / 1989 / ПМ, АП (Михалев) / HDTVRip / 1.46 ГБ1.46 GBДорогая, я уменьшил детей / Honey, I Shrunk the Kids (Джо Джонстон / Joe Johnston) [1989, США, Комедия, HDTVRip] AVO (Михалев) + AVO (Санаев)747.3 MBДорогая, я уменьшил детей / Honey, I Shrunk the Kids / 1989 / ПМ, СТ / DVD-5 / 4.26 ГБ4.26 GBДорогая, я уменьшил детей / Honey, I Shrunk the Kids (1989) DVDRip-AVC2.19 GBДорогая, я уменьшил детей / Honey, I Shrunk the Kids / 1989 / ПМ, АП (Михалев) / HDTVRip (AVC) / 2.19 ГБ2.19 GBДорогая, я уменьшил детей / Honey, I Shrunk the Kids / 1989 / 4 x ПМ, ПД, АП (Михалев) / HDTVRip (720p) / 4.84 ГБ4.84 GBДорогая, я уменьшил детей / Honey, I Shrunk the Kids (1989) DVDRip700 MBДорогая, я уменьшил детей / Honey, I Shrunk the Kids (1989) BDRip 720p HDReactor| P, A5.75 GBДорогая, я уменьшил детей / Honey, I Shrunk the Kids (1989) HDRip от Portablius | P1.37 GBДорогая, я уменьшил детей / Honey, I Shrunk the Kids / 1989 / ЛО / HDTVRip (720p) / 4.34 ГБ4.34 GBДорогая, я уменьшил детей / Honey, I Shrunk the Kids / 1989 / АП (Михалев) / DVDRip / 1.37 ГБ1.37 GBДорогая, я уменьшил детей / Honey, I Shrunk the Kids (1989) HDRip-AVC от New-Team2.18 GBДорогая, я уменьшил детей (1-3 сезоны: 66 серий) / Honey, I Shrunk the Kids / 1997-2000 / DVDRip24 GB tparser.org – торрент поисковик по популярным торрент трекерам. Находить и скачивать новинки кино в HDRip и BDRip качестве через tparser намного проще! Добро пожаловать на крупный торрент архив фильмов и игр tparser.org. Вам больше не придется искать торренты на основных торрент трекерах в поисках нужной раздачи – мы предлагаем найти и скачать фильмы в хорошем качестве прямо на нашем сайте. Наш сервис поиска торрентов в реальном времени собирает информацию с крупных торрент трекеров и сортирует полученные результаты в удобную таблицу. Скачивайте торренты без ограничений и без всяких регистраций на трекерах. Начните скачивать торрент Дорогая я уменьшил детей прямо сейчас!

tparser.org


Смотрите также